#VERSION:0.83;
#TITLE:Take Me Away (Andrew Bayer & James Grant Remix);
#SUBTITLE:;
#ARTIST:Full Tilt;
#TITLETRANSLIT:;
#SUBTITLETRANSLIT:;
#ARTISTTRANSLIT:;
#GENRE:;
#ORIGIN:;
#CREDIT:;
#BANNER:;
#BACKGROUND:;
#PREVIEWVID:;
#JACKET:;
#CDIMAGE:;
#DISCIMAGE:;
#LYRICSPATH:;
#CDTITLE:;
#MUSIC:Full Tilt - Take Me Away (Andrew Bayer & James Grant Remix).ogg;
#OFFSET:-0.279000;
#SAMPLESTART:60.271000;
#SAMPLELENGTH:16.299999;
#SELECTABLE:YES;
#BPMS:0.000=128.000;
#STOPS:;
#DELAYS:;
#WARPS:;
#TIMESIGNATURES:0.000=4=4;
#TICKCOUNTS:0.000=4;
#COMBOS:0.000=1;
#SPEEDS:0.000=1.000=0.000=0;
#SCROLLS:0.000=1.000;
#FAKES:;
#LABELS:0.000=Song Start;
#BGCHANGES:;
#KEYSOUNDS:;
#ATTACKS:
;

//---------------dance-single - ----------------
#NOTEDATA:;
#CHARTNAME:;
#STEPSTYPE:dance-single;
#DESCRIPTION:;
#CHARTSTYLE:;
#DIFFICULTY:Hard;
#METER:13;
#RADARVALUES:0.622805,0.565138,0.271560,0.220183,0.370642,594.000000,557.000000,37.000000,30.000000,0.000000,0.000000,0.000000,0.000000,0.000000,0.622805,0.565138,0.271560,0.220183,0.370642,594.000000,557.000000,37.000000,30.000000,0.000000,0.000000,0.000000,0.000000,0.000000;
#CREDIT:;
#NOTES:
// measure 0
0000
0000
0000
0000
,  // measure 1
0000
0000
0000
0000
,  // measure 2
1000
0010
1000
0100
0010
0002
0003
2000
,  // measure 3
3000
0020
0030
0100
0010
0200
0300
0001
,  // measure 4
1001
0000
1000
0000
0010
0000
0000
1000
0010
0000
1000
0000
0001
0000
0010
0000
,  // measure 5
0001
0000
1000
0100
1000
0000
0001
0010
0001
0000
1000
0000
1100
0000
0010
0000
,  // measure 6
0011
0000
0001
0000
1000
0000
0010
0100
0010
0000
1000
0000
0100
0000
0010
0000
,  // measure 7
0001
0000
0010
0001
0100
0000
0001
0100
0010
0000
1000
0000
0100
0000
1000
0000
,  // measure 8
0100
0000
0010
0000
0001
0000
1000
0100
1000
0000
0010
0000
0100
0000
0001
0010
,  // measure 9
0001
0000
0100
0010
0100
0000
0001
0000
0100
0000
0001
0000
0010
0000
0001
0000
,  // measure 10
0100
0000
0001
0100
0010
0000
1000
0000
0100
0000
1000
0000
0100
0000
1000
0000
,  // measure 11
0010
0000
1000
0100
1000
0000
0010
0000
1000
0000
0100
0000
0001
0000
0100
0000
,  // measure 12
1000
0001
0011
0011
0000
0100
0100
0010
,  // measure 13
0110
0000
0110
0000
1001
0000
1000
0100
,  // measure 14
2000
0000
3001
0010
0001
1000
0100
1000
,  // measure 15
0010
1000
0100
1000
0010
0100
0001
0010
,  // measure 16
0001
0100
0001
0010
0001
0100
0001
1000
,  // measure 17
0010
0100
0010
1000
0010
0100
0001
0100
,  // measure 18
0010
1000
0010
0100
0001
1000
0100
0100
,  // measure 19
0010
0000
0001
0010
0001
0000
1000
0000
0200
0000
0000
0000
1000
0000
0000
0000
,  // measure 20
0310
0000
0001
0022
0033
2200
3300
0220
,  // measure 21
0330
0000
0010
0001
0010
0000
0200
0000
0000
0000
1300
0000
1100
0000
0000
0000
,  // measure 22
0020
0000
0000
0000
0031
0000
1000
0010
0100
0000
0001
0000
0101
0000
0001
0000
,  // measure 23
0101
0100
0010
1000
1010
0000
0100
0010
,  // measure 24
0110
0000
0000
0100
0010
0000
0100
0010
0100
0000
0001
0000
1001
0000
1000
0100
,  // measure 25
1000
0000
0001
0010
0001
0000
0200
0000
0000
0000
0310
0000
0200
0000
0000
0000
,  // measure 26
0301
0000
1000
0001
1000
0000
0001
0100
0000
0000
0010
0000
0110
0000
1000
0000
,  // measure 27
0100
0000
0010
0001
0010
0000
0001
0000
2000
0000
0000
0000
3010
0000
0100
0000
,  // measure 28
0020
0000
0130
0010
0000
0000
0100
0001
0000
0000
0100
0010
1000
0000
0100
0000
,  // measure 29
0001
0000
0100
0010
0000
0000
0100
1000
0000
0000
0001
0000
1000
0000
0110
0000
,  // measure 30
0110
0000
0010
0100
0000
0000
0001
0100
0000
0000
0010
1000
0001
0000
0010
0000
,  // measure 31
0100
0000
0001
0100
0000
0000
1000
0100
0000
0000
0000
0000
0011
0000
0001
0000
,  // measure 32
0010
0000
0001
0010
0000
0000
0001
0100
0000
0000
0010
1000
0001
0000
0100
0000
,  // measure 33
0001
0000
0001
0010
0000
0000
0001
0100
0000
0000
0010
0000
1000
0000
0101
0000
,  // measure 34
0101
0000
1000
0010
0000
0000
0100
0010
0000
0000
1000
0001
0100
0000
0100
0000
,  // measure 35
0001
0000
1000
0010
0000
0000
0100
0010
0000
0000
1000
0001
1000
0000
0000
0000
,  // measure 36
0001
0000
0010
0100
0000
0000
0100
1000
0000
0000
1000
0001
0100
0000
0010
0000
,  // measure 37
1000
0000
0010
0100
0000
0000
0100
1000
0000
0000
0001
0000
0010
0000
1001
0000
,  // measure 38
1001
0000
0100
0010
0000
0000
0010
0100
0000
0000
0010
0100
0010
0000
0100
0000
,  // measure 39
0100
0000
0001
0100
0000
0000
0100
0010
0000
0000
1000
0000
1010
0000
0100
0000
,  // measure 40
0001
0000
1000
0200
0000
0300
0010
0002
0000
0003
1000
0000
0010
0000
0100
0000
,  // measure 41
0001
0000
1000
0020
0000
0030
0100
0002
0000
0003
0000
0000
2002
0000
3003
0000
,  // measure 42
0110
0000
0010
0200
0000
0300
0001
0200
0000
0300
0010
0000
1000
0000
0001
0000
,  // measure 43
1000
0000
0001
0200
0000
0300
0010
2000
0000
3000
0001
0000
0200
0000
0301
0000
,  // measure 44
0020
0000
0030
0001
0000
0000
1000
0100
0000
0000
0010
0000
0001
0000
0010
0000
,  // measure 45
1000
0010
0001
0100
1000
0100
0001
0010
,  // measure 46
0001
0000
0010
0001
0000
0000
1000
0100
0000
0000
0010
0000
0001
0000
1000
0000
,  // measure 47
0010
0001
0100
0010
1000
0001
1000
0000
,  // measure 48
0001
0000
1000
0100
1000
0000
0001
0010
0000
0000
0001
0000
0011
0000
0001
0000
,  // measure 49
0100
0000
0010
0100
0010
0000
0100
0010
0000
0000
1000
0000
0001
0000
1000
0000
,  // measure 50
1001
0000
0001
0100
0010
0000
0010
1000
0000
0000
0100
0000
1000
0000
0010
0000
,  // measure 51
0001
0000
0010
0000
1000
0000
0001
0010
0001
0000
0010
0001
0000
0000
0100
0000
,  // measure 52
0001
0000
0010
0001
0010
0000
0100
1000
0000
0000
0100
0010
0000
0000
0010
0000
,  // measure 53
0001
0000
1000
0010
1000
0000
0001
0100
0000
0000
0001
0000
0010
0000
0010
0000
,  // measure 54
0110
0000
1000
0100
0010
0000
0001
0010
0000
0000
0010
0001
0010
0000
0001
0000
,  // measure 55
0010
0000
0001
0010
0000
0000
0100
0010
0000
0000
1000
0000
0010
0000
0100
0000
,  // measure 56
0101
0000
0001
1000
0001
0000
0010
0001
0000
0000
0010
0001
0000
0000
1000
0000
,  // measure 57
0010
0000
0100
0010
0000
0000
0100
0001
0000
0000
0010
0000
1000
0000
0010
0000
,  // measure 58
0101
0000
0001
1000
0000
0000
0001
0010
0000
0000
0001
0100
0000
0000
0010
0000
,  // measure 59
0100
0000
0010
0100
0010
0000
1000
0010
0000
0000
0001
0000
0010
0000
1000
0000
,  // measure 60
0100
0000
0010
0000
0001
0000
1000
0100
1000
0000
0010
0000
0110
0000
0010
0000
,  // measure 61
1001
1000
0010
0100
0010
0100
0110
0000
,  // measure 62
1000
0000
0001
0010
0001
0000
0100
0001
0100
0000
0010
0000
1000
0000
0010
0000
,  // measure 63
0100
0010
1000
0010
0100
0001
0001
0000
,  // measure 64
1000
0000
0010
0100
0010
0000
1000
0001
1000
0000
0010
0000
0100
0000
0001
0000
,  // measure 65
1000
0100
0010
0100
0010
0001
1000
0000
,  // measure 66
0101
0000
0001
0100
0001
0000
1000
0010
1000
0000
0001
0000
0010
0000
0001
0000
,  // measure 67
0010
0100
0010
0001
0010
0001
1000
0100
,  // measure 68
0010
0000
0001
0010
0001
0000
0010
0100
0010
0000
0001
0000
0010
0000
0001
0000
,  // measure 69
0010
0100
0010
0001
0010
0001
0100
0000
,  // measure 70
0001
0000
0000
0000
;

//---------------dance-single - ----------------
#NOTEDATA:;
#CHARTNAME:;
#STEPSTYPE:dance-single;
#DESCRIPTION:;
#CHARTSTYLE:;
#DIFFICULTY:Beginner;
#METER:3;
#RADARVALUES:0.116383,0.154128,0.051376,0.044037,0.000000,111.000000,104.000000,7.000000,6.000000,0.000000,0.000000,0.000000,0.000000,0.000000,0.116383,0.154128,0.051376,0.044037,0.000000,111.000000,104.000000,7.000000,6.000000,0.000000,0.000000,0.000000,0.000000,0.000000;
#CREDIT:;
#NOTES:
0000
0000
0000
0000
,
0000
0000
0000
0000
,
0000
0000
0000
0000
,
0000
0000
0000
0000
,
1000
0000
0001
0000
,
0100
0000
0000
0000
,
1000
0000
0001
0000
,
1000
0000
0000
0000
,
1000
0000
0001
0000
,
0100
0000
0000
0000
,
1000
0000
0001
0000
,
0100
0000
0000
0000
,
0001
0000
1000
0000
,
0001
0000
0000
0000
,
0100
0000
0001
0000
,
1000
0000
0000
0000
,
0100
0000
0001
0000
,
0100
0000
0000
0000
,
0100
0000
0001
0000
,
1000
0000
0000
0000
,
0002
0000
0000
0003
,
1000
0000
0000
0000
,
2000
0000
0000
3000
,
0001
0000
0000
0000
,
0001
0000
1000
0000
,
0001
0000
0000
0000
,
1001
0000
0000
0000
,
1000
0000
0100
0000
,
1000
0000
0000
0000
,
0001
0000
0000
0000
,
0101
0000
0001
0000
,
0001
0000
0000
0000
,
1010
0000
1000
0000
,
0010
0000
0000
0000
,
0101
0000
0001
0000
,
0100
0000
0000
0000
,
1010
0000
0010
0000
,
0100
0000
0000
0000
,
1001
0000
1000
0000
,
0001
0000
0000
0000
,
1000
0000
1000
0000
,
1000
0000
1000
0000
,
0001
0000
0001
0000
,
0001
0000
0001
0000
,
0200
0000
0000
0300
,
0010
0000
0010
0000
,
2000
0000
0000
3000
,
0001
0000
0001
0000
,
0100
0000
0100
0000
,
0010
0000
0010
0000
,
1000
0000
1000
0000
,
0001
0000
0001
0000
,
1000
0000
0100
0000
,
1000
0000
0100
0000
,
1000
0000
0001
0000
,
0010
0000
0001
0000
,
0010
0000
0001
0000
,
0100
0000
0010
0000
,
0100
0000
0000
0000
,
0110
0000
0000
0000
,
2000
0000
0000
3000
,
0001
0000
0001
0000
,
0002
0000
0000
0003
,
0100
0000
0100
0000
,
0010
0000
0010
0000
,
0010
0000
1000
0000
,
1000
0000
1000
0000
,
0001
0000
0001
0000
,
0001
0000
0000
0000
,
1000
0000
0000
0000
,
0001
0000
0000
0000
;

//---------------dance-single - ----------------
#NOTEDATA:;
#CHARTNAME:;
#STEPSTYPE:dance-single;
#DESCRIPTION:;
#CHARTSTYLE:;
#DIFFICULTY:Easy;
#METER:6;
#RADARVALUES:0.275754,0.359633,0.242202,0.117431,0.000000,263.000000,230.000000,33.000000,16.000000,0.000000,0.000000,0.000000,0.000000,0.000000,0.275754,0.359633,0.242202,0.117431,0.000000,263.000000,230.000000,33.000000,16.000000,0.000000,0.000000,0.000000,0.000000,0.000000;
#CREDIT:;
#NOTES:
0000
0000
0000
0000
,
0000
0000
0000
0000
,
2000
0000
0000
0000
,
3002
0000
0203
0000
,
0310
0010
0100
0010
,
0100
0001
1000
0000
,
1000
0100
0010
0001
,
1000
0100
0010
0001
,
1000
0010
0100
0001
,
0100
0010
0100
0000
,
0001
1000
0001
0010
,
0100
0010
0001
1000
,
0001
1100
1000
1010
,
0001
0100
0010
0000
,
0110
0100
0010
1000
,
0001
0101
0001
0000
,
0100
0010
1000
1000
,
1000
0001
0001
0100
,
0110
0010
1000
0010
,
1000
0001
2000
0000
,
3010
0100
0010
1010
,
1000
0110
0001
0110
,
1000
1001
0001
0010
,
0100
1000
0001
0100
,
0110
0010
1010
0100
,
0010
1000
0001
1000
,
1010
0010
1010
0100
,
0101
0001
0200
0000
,
0310
0000
0000
0010
0000
0000
0000
0000
,
0100
0000
0000
0100
0000
0000
0000
0000
,
0110
0000
0000
0010
0000
0000
0000
0000
,
0100
0000
0000
0001
0000
0000
0000
0000
,
1100
0000
0000
1000
0000
0000
0000
0000
,
0010
0000
0000
0100
0000
0000
0000
0000
,
0101
0000
0000
0100
0000
0000
0000
0000
,
0100
0000
0000
0001
0000
0000
0000
0000
,
1000
0010
0100
0000
,
0100
0001
1000
0000
,
2000
0010
0010
3010
,
0002
0100
0100
0103
,
2000
0001
0001
3001
,
0200
0010
0010
0310
,
0002
1000
1000
1003
,
0020
0100
0100
0130
,
0200
0000
0320
0000
,
2030
0000
3002
0000
,
1003
0010
1000
0010
,
0100
0001
0100
0010
,
0100
0110
0000
0100
,
0010
1001
0000
0010
,
1010
1000
0100
0010
,
0001
0010
0100
1000
,
0010
0100
0010
1000
,
0001
0101
0100
0001
,
1001
1000
0100
0010
,
0010
0001
0001
1000
,
1000
0110
0001
0110
,
1000
0110
0001
1001
,
1001
0000
0100
0010
,
0100
1001
1000
0100
,
2000
0000
0010
3000
,
0001
0010
0001
0000
,
1000
1001
0001
1000
,
0010
1000
0100
0010
,
0001
1001
0100
1000
,
0100
0010
0001
1000
,
1000
1100
0010
0010
,
0001
0011
0001
0010
,
0100
0000
1000
0000
,
1010
0000
0100
0000
,
0010
0000
0000
0000
;

//---------------dance-single - ----------------
#NOTEDATA:;
#CHARTNAME:;
#STEPSTYPE:dance-single;
#DESCRIPTION:;
#CHARTSTYLE:;
#DIFFICULTY:Medium;
#METER:10;
#RADARVALUES:0.430931,0.411009,0.205505,0.117431,0.073394,411.000000,383.000000,28.000000,16.000000,0.000000,0.000000,0.000000,0.000000,0.000000,0.430931,0.411009,0.205505,0.117431,0.073394,411.000000,383.000000,28.000000,16.000000,0.000000,0.000000,0.000000,0.000000,0.000000;
#CREDIT:;
#NOTES:
0000
0000
0000
0000
,
0000
0000
0000
0000
,
2000
0010
0000
0010
,
3200
0001
0300
0001
,
1001
0000
0010
0100
0010
0000
0010
0100
,
0010
0000
1000
0001
1000
0000
0001
1000
,
0001
0000
0100
0010
1000
0000
0100
0010
,
1000
0000
0001
0100
0001
0000
0001
0100
,
0001
1000
1010
0101
,
0100
1000
0100
0001
,
1000
0100
1000
0100
0000
0010
0001
0100
,
0010
1000
0010
0100
0000
0001
1000
0000
,
1001
1000
0100
1010
,
0101
0100
0010
2000
,
3020
0000
0130
0001
0100
0000
0010
1000
,
0010
0100
0001
0100
0000
0001
1000
0000
,
0110
0000
0010
1000
0010
0000
1000
0100
,
1000
0000
0001
0010
0001
0000
0200
0000
,
0320
0000
1030
0100
0010
0000
0010
0001
,
0010
0000
0001
0010
0100
1000
0200
0000
,
0310
0011
0010
1010
,
1000
0011
0010
1100
,
0011
0001
1010
0010
,
0011
0000
1000
0000
1001
0000
0100
0010
,
0100
0000
0010
0000
1000
0010
0100
0001
,
0010
0100
0000
1000
0000
0001
2000
0000
,
3002
0000
0103
0010
0100
0000
0100
0010
,
0100
0000
0001
0010
0100
0000
0100
0010
,
0001
0000
0000
1000
0000
0000
0010
0000
0000
0000
0000
0000
0100
0000
0010
0000
,
0100
0000
0000
0010
0000
0000
0010
0000
0000
0000
1000
0000
0100
0000
0010
0000
,
0001
0000
0000
1000
0000
0000
0001
0000
0000
0000
1000
0000
0000
0000
0100
0000
,
0010
0000
0000
0001
0000
0000
0001
0000
0000
0000
0010
0000
0000
0000
0100
0000
,
1000
0000
0000
0010
0000
0000
0100
0000
0000
0000
0010
0000
0000
0000
0100
0000
,
0001
0000
0000
1000
0000
0000
0010
0000
0000
0000
0010
0000
0000
0000
1000
0000
,
0010
0000
0000
0100
0000
0000
0001
0000
0000
0000
1000
0000
0000
0000
0100
0000
,
0010
0000
0000
0010
0000
0000
0001
0000
0000
0000
0100
0000
0000
0000
0010
0000
,
1000
0000
0000
0010
0000
0000
0110
0000
0000
0000
0000
0000
0100
0000
0010
0000
,
0100
0000
0000
0010
0000
0000
0110
0000
0000
0000
0000
0000
2000
0000
0000
0000
,
3200
0000
0000
0310
0000
0000
0001
0000
0000
0000
0010
0000
0001
0000
1000
0000
,
0010
1000
0001
0100
0010
0100
0010
1000
,
0001
0000
0000
1000
0000
0000
0001
0000
0000
0000
0100
0000
0001
0000
0100
0000
,
0010
0100
0001
1000
0100
0010
0001
1000
,
0010
0000
0000
1000
0000
0000
0010
0000
0000
0000
1000
0000
0010
0000
0100
0000
,
0010
1000
0010
0100
0010
1000
0100
0010
,
0100
0000
0001
0000
0010
0001
1000
0010
,
1000
0000
0000
0010
0000
0000
0100
0000
0000
0000
0000
0000
0020
0000
0000
0000
,
2030
0000
0000
3001
0000
0000
0001
0000
0000
0000
1000
0000
0010
0000
0100
0000
,
0001
0000
0000
1000
0000
0000
0001
0000
0000
0000
0001
0000
0010
0000
1000
0000
,
0010
0001
1000
0001
1000
0010
1000
0100
,
0010
0001
1000
0000
0110
0000
0020
0000
,
2030
0000
0000
3001
0000
0000
0001
0000
0000
0000
0100
0000
0010
0000
0100
0000
,
0001
0000
0000
1000
0000
0000
0010
0000
0000
0000
0100
0000
1000
0000
0100
0000
,
0010
0000
0000
0100
0000
0000
0001
0000
0000
0000
1000
0000
0100
0000
0010
0000
,
0001
0000
0000
1000
0000
0000
0100
0000
0000
0000
0100
0000
1000
0000
0001
0000
,
0010
0001
0010
0000
0100
1000
0100
1000
,
0001
0000
0100
0000
0001
0100
0010
0100
,
0001
0000
0100
0010
0100
0010
0100
0000
,
0010
0000
1001
0000
0001
0100
0010
0100
,
0001
0000
1100
0000
0100
1000
0100
1000
,
0010
0000
1001
0000
1000
0100
0010
0100
,
0020
0000
0031
0000
0010
0001
0100
0000
,
0001
0010
0001
0000
0010
0001
1000
0100
,
1000
0000
1010
0000
0001
0100
1000
0100
,
0001
0000
1100
0000
1000
0100
0010
0001
,
1000
0000
1001
0000
0010
0100
0010
1000
,
0100
0000
1010
0000
0100
0001
0100
0010
,
1000
0000
1100
0000
0010
0001
0010
0001
,
1000
0000
0110
0000
0100
0001
0100
0010
,
1000
0000
1001
0000
0010
0001
0010
0100
,
1000
0000
0100
0000
0010
0001
0100
0010
,
1000
0000
0000
0000
;
