#TITLE:Symsonic Breeze;
#SUBTITLE:;
#ARTIST:TIME CAPSULE Lab.;
#TITLETRANSLIT:;
#SUBTITLETRANSLIT:;
#ARTISTTRANSLIT:;
#GENRE:;
#CREDIT:from pop n music 22 Lapistoria;
#BANNER:Symsonic_Breeze.png;
#BACKGROUND:;
#LYRICSPATH:;
#CDTITLE:;
#MUSIC:Symsonic_Breeze.ogg;
#OFFSET:-0.509000;
#SAMPLESTART:7.548000;
#SAMPLELENGTH:17.299999;
#SELECTABLE:YES;
#BPMS:0.000000=170.000000
;
#STOPS:
;
#BGCHANGES:;
#KEYSOUNDS:;
#ATTACKS:;

//---------------dance-single - ----------------
#NOTES:
     dance-single:
     :
     Beginner:
     2:
     0.093190,0.135093,0.000000,0.061707,0.000000,74.000000,74.000000,0.000000,7.000000,0.000000,0.000000,0.093190,0.135093,0.000000,0.061707,0.000000,74.000000,74.000000,0.000000,7.000000,0.000000,0.000000:
0000
0000
0000
0000
,
0000
0000
0000
0000
,
0000
0000
0000
0000
,
1000
0000
0000
0000
,
1000
0000
0000
0000
,
1000
0000
0000
0000
,
0001
0000
0000
0000
,
0100
0000
0000
0000
,
0010
0000
0000
0000
,
1000
0000
0000
0000
,
0001
0000
0000
0000
,
0100
0000
0000
0000
,
0010
0000
0000
0000
,
0100
0000
0000
0000
,
0001
0000
0000
0000
,
0010
0000
0000
0000
,
1000
0000
0000
0000
,
0100
0000
0000
0000
,
0010
0000
0000
0000
,
0001
0000
0000
0000
,
1000
0000
0000
0000
,
0001
0000
0000
0000
,
1000
0000
0000
0000
,
0001
0000
0000
0000
,
0100
0000
0000
0000
,
0001
0000
0000
0000
,
1000
0000
0000
0000
,
0001
0000
0000
0000
,
0100
0000
0000
0000
,
0020
0000
0000
0030
,
0000
0000
0000
0000
,
2000
0000
0000
3000
,
0000
0000
0000
0000
,
0002
0000
0000
0003
,
0000
0000
0000
0000
,
2000
0000
0000
3000
,
0000
0000
0000
0000
,
0010
0000
0010
0000
,
0010
0000
0000
0000
,
1000
0000
1000
0000
,
1000
0000
0000
0000
,
0001
0000
0001
0000
,
0001
0000
0000
0000
,
0100
0000
0100
0000
,
0100
0000
0000
0000
,
0010
0000
0000
0000
,
1000
0000
0000
0000
,
1000
0000
0000
0000
,
0000
0000
0000
0000
,
0001
0000
0000
0000
,
0100
0000
0000
0000
,
0100
0000
0000
0000
,
0000
0000
0000
0000
,
0010
0000
0000
0000
,
0010
0000
0000
0000
,
1000
0000
0000
0000
,
0000
0000
0000
0000
,
1000
0000
0000
0000
,
0001
0000
0000
0000
,
1000
0000
0000
0000
,
0001
0000
0000
0000
,
1000
0000
0000
0000
,
0001
0000
0000
0000
,
2000
0000
0000
3000
,
0000
0000
0000
0000
,
0001
0000
0001
0000
,
0001
0000
0000
0000
,
1000
0000
1000
0000
,
1000
0000
0000
0000
,
0001
0000
0001
0000
,
0001
0000
0000
0000
,
1000
0000
1000
0000
,
1000
0000
0000
0000
,
0001
0000
0000
0000
,
0100
0000
0000
0000
,
0002
0000
0000
0003
,
2000
0000
0000
0000
0000
3000
0000
0000
;

//---------------dance-single - ----------------
#NOTES:
     dance-single:
     :
     Easy:
     6:
     0.288384,0.337183,0.158674,0.123413,0.000000,229.000000,211.000000,18.000000,14.000000,0.000000,0.000000,0.288384,0.337183,0.158674,0.123413,0.000000,229.000000,211.000000,18.000000,14.000000,0.000000,0.000000:
0000
0000
0000
0000
,
0200
0000
0000
0000
0300
0000
0000
0020
,
0000
0000
0030
0000
,
1000
1000
0001
0000
,
1000
1000
0100
0000
,
0001
0001
0010
0000
,
0001
1000
0010
0100
,
0110
0000
0010
0000
,
1000
0100
0010
0001
,
1000
0000
0001
0010
,
0100
1000
0000
0000
,
0100
0010
0001
1000
,
0000
0000
0000
1000
0000
0000
0000
0000
,
0110
0000
0001
0000
,
0001
1000
0010
1000
,
0001
0000
0000
0000
0000
1000
0000
1000
,
0000
0000
0000
0002
0000
0003
0000
0000
,
0100
0000
0000
0100
0000
0000
0000
0000
,
0001
1000
0010
0100
,
0001
0000
0000
0000
0000
1000
0000
1000
,
0000
0000
0000
0020
0000
0030
0000
0000
,
0100
0001
1000
0010
,
0100
0000
0001
1000
,
1100
0000
0000
0000
0000
0001
0000
0001
,
0000
0000
0000
2000
0000
3000
0000
0000
,
0001
0010
0100
1000
,
0100
0000
0010
0001
,
0011
0000
0000
0000
0000
0100
0000
0100
,
0000
0000
0000
0002
0000
0003
0000
0000
,
1000
0100
0010
0010
,
0001
1000
0100
0000
,
0001
0100
0001
0000
,
1000
0000
0101
0000
,
0001
0010
0100
0000
,
1000
0100
0010
0001
,
1000
0010
1000
0000
,
0001
0010
0001
0000
,
0010
0100
0010
0000
,
0100
1000
0001
0001
,
0100
0010
0100
0000
,
1000
0001
1001
1001
,
1000
0100
0010
0000
,
0001
0010
1000
0000
,
0010
0001
0100
0000
,
0100
0001
1000
0000
,
1010
0000
0000
0010
0000
0000
0000
1000
,
0000
0100
0000
0010
0000
0000
0000
0000
,
1001
0000
0000
1001
0000
0000
0000
0000
,
2000
0000
3000
0000
,
0101
0000
0000
0001
0000
0000
0000
0010
,
0000
0100
0000
1000
0000
0000
0000
0000
,
0020
0030
0000
0200
,
0300
0000
0001
1000
,
1001
0000
0001
0000
1000
0000
0000
0110
,
0000
0000
0000
0001
0000
0000
0000
0000
,
1010
0000
0000
1000
0000
0000
0000
0002
,
0000
0003
0000
0100
0000
0000
0010
0000
,
1010
0000
0000
1000
0000
0000
0000
0002
,
0000
0003
0000
0200
0000
0300
0000
0000
,
0010
1000
0010
0000
,
0100
0001
0100
0000
,
1000
0100
0001
0000
,
1000
0100
0010
0000
,
1000
0100
0001
0000
,
0100
1000
0100
0000
,
0011
0000
0000
0001
0000
0000
0000
0000
,
1000
0100
1000
0100
,
1100
0000
0000
0100
0000
0000
0000
2000
,
0000
3000
0000
0002
0000
0003
0000
0000
,
0110
0000
0000
0100
0000
0000
0000
0000
,
1000
0010
0100
0001
,
1000
0000
0000
1000
0000
0000
0001
0000
,
1000
0100
1000
0001
,
0001
0100
0001
1000
,
0100
1000
0001
0100
,
1000
0100
0001
1000
,
0100
1000
0001
0000
;

//---------------dance-single - ----------------
#NOTES:
     dance-single:
     :
     Medium:
     10:
     0.440762,0.505774,0.282087,0.273272,0.004408,350.000000,318.000000,32.000000,31.000000,0.000000,0.000000,0.440762,0.505774,0.282087,0.273272,0.004408,350.000000,318.000000,32.000000,31.000000,0.000000,0.000000:
0000
0000
0000
0000
,
0200
0000
0000
0000
0300
0010
0000
0020
,
0000
0000
0030
0200
0000
0300
0002
0000
,
0003
1000
0001
0100
,
0010
1000
0110
0011
,
0110
0000
0100
1000
0000
0010
0000
1000
,
0000
1000
0000
0100
0010
0000
0010
0000
,
0101
0000
0100
0001
0000
0001
1000
0100
,
1000
0100
0010
0000
0002
0000
0003
0000
,
1000
0000
0010
0100
0000
0001
0000
0010
,
0000
0100
1000
0000
0100
0010
0001
0000
,
0200
0000
0300
0010
0010
1000
0000
0001
,
0000
0100
0000
1000
0000
0100
0000
0001
,
2000
0000
3000
0001
0000
0100
0000
0010
,
1000
0100
1000
0000
0001
0010
0001
0000
,
0011
0000
0000
0100
0000
0010
0000
2000
,
0000
3000
0000
0002
0000
0003
0000
0000
,
0011
0000
0000
0010
0000
0100
0000
1000
,
0100
1000
0001
0000
0010
0100
0010
0000
,
0110
0000
0000
1000
0000
0001
0000
1000
,
0000
1000
0000
0010
0000
0100
0000
0001
,
0100
0000
0001
1000
0000
0010
0100
0010
,
0100
0001
0000
0001
1000
0100
1000
0001
,
0010
0001
1000
0010
0000
0100
0000
0001
,
0000
0100
0000
1000
0000
0100
0000
0001
,
2000
0000
3000
0010
0000
1000
0000
0001
,
0000
0100
0001
0100
0001
0010
0001
0000
,
0101
0000
0000
0010
0000
0100
0000
2000
,
0000
0000
3000
0000
0000
0000
0000
0000
0001
0000
0000
0001
0000
0000
0001
0000
,
0000
0000
0100
0000
0010
0000
1000
0100
,
0010
0001
1000
0000
0010
0000
1000
0000
,
0001
0000
0100
0010
0100
0000
0001
1000
,
0000
1000
0001
0000
0101
0000
0110
0000
,
1000
0000
0010
0100
0001
0000
1000
0100
,
1000
0001
0010
0000
0001
0000
0101
0000
,
1010
0000
0010
1000
0100
0000
0100
0010
,
0010
0001
1001
0110
,
1001
0000
0010
0000
0010
0000
0000
1000
,
0000
0100
1000
0000
0001
0010
0001
0000
,
0110
0000
0010
0000
0100
0000
0000
0001
,
0000
1000
0001
0000
1000
0000
1100
0000
,
1010
0000
0100
0000
0001
0000
0000
1000
,
0000
0001
0100
0000
0010
0000
1010
0000
,
1001
0000
0001
0000
0100
0000
0000
0010
,
0000
1000
0000
0000
0001
0000
0000
0000
,
1001
0000
0000
0010
0000
1000
0000
0002
,
0000
0103
0000
0010
0000
1000
0000
0001
,
2000
0000
3000
0001
0000
0100
0000
0020
,
0000
0000
0000
0030
0000
0000
1000
0000
,
0110
0000
0000
0001
0000
0100
0000
0010
,
0000
0001
0000
0010
0000
1000
0000
0000
,
0002
0003
0000
2002
3003
0000
2200
3300
,
0000
2002
3003
0000
0001
0100
0001
0000
,
2000
0000
3000
0010
0000
1000
0000
0010
,
0000
0100
0000
0001
0000
1000
0000
0010
,
2000
0000
3000
0002
0000
0000
0003
0100
,
0000
0100
0000
0100
0000
0010
0000
0000
,
1010
0000
0010
1000
0000
0010
0000
1000
,
0000
0001
0100
0010
0000
0010
1000
0001
,
1000
0000
0001
0010
0000
0010
0000
0001
,
0000
0100
0001
0000
0200
0000
0000
0000
,
0301
0000
0000
0010
0000
0100
0000
1000
,
0000
1000
0001
0000
0010
0001
1000
0000
,
2000
0000
3000
0001
0000
0100
0000
0010
,
0000
1000
0000
0100
1000
0000
0001
0010
,
0001
0000
0000
1010
0000
0000
0010
0000
,
1000
0100
0010
0001
1000
0000
0100
1000
,
0002
0000
0003
0100
0000
0001
0000
2000
,
0000
3000
0000
0002
0000
0003
0000
0000
,
0101
0000
0000
0001
0000
1000
0000
0010
,
1000
0100
0010
0000
0001
1000
0001
0000
,
1000
0000
0100
1000
0000
0000
0010
2000
,
0000
3000
0000
0020
0000
0000
0000
0030
,
0100
0010
1001
1000
,
0010
0101
0100
0010
,
1010
1000
0100
0011
,
0001
0010
0001
0000
;

//---------------dance-single - ----------------
#NOTES:
     dance-single:
     :
     Hard:
     13:
     0.639734,0.708084,0.379055,0.352609,0.132228,508.000000,465.000000,43.000000,40.000000,0.000000,0.000000,0.639734,0.708084,0.379055,0.352609,0.132228,508.000000,465.000000,43.000000,40.000000,0.000000,0.000000:
0000
0000
0000
0000
,
0200
0000
0000
0000
0300
0010
0000
0020
,
0000
0000
0030
0200
0000
0300
0020
0000
,
1030
1100
0001
0011
,
0100
1100
0010
0011
,
0001
0100
0010
1000
0000
0010
1000
0100
,
0000
1000
0100
0000
0010
0001
0010
0000
,
0022
0000
0033
0001
0000
1000
0100
1000
,
0000
0100
0010
0100
0000
0010
0001
0010
,
1000
0010
0001
0010
0000
0001
1000
0010
,
0000
0100
1000
0001
0010
0100
0001
0000
,
1000
0010
1000
0010
0000
1000
0001
1000
,
0000
0001
0100
0001
0000
0100
0010
1000
,
0001
0000
0100
0101
0000
0100
0010
1000
,
0000
0100
1000
0001
0010
0000
0011
0000
,
0001
0010
0100
0010
0000
0010
0100
2000
,
0000
3001
0000
0100
0001
0100
0001
0000
,
0101
0000
0001
1000
0100
0010
0000
0010
,
0001
1000
0000
1000
0100
0010
0001
0010
,
0001
0000
0001
1000
0000
0101
0000
1020
,
0000
1030
0000
0201
0000
0301
0000
0001
,
0100
0010
1000
0001
0000
1000
0100
0010
,
0100
0001
0000
0001
0100
1000
0100
0010
,
0001
0000
1000
1010
0000
0110
0000
0001
,
0100
0010
0000
1000
0010
0100
0000
0001
,
2000
0000
3010
0100
0000
0010
0100
0001
,
0000
0100
0001
0100
0010
1000
0001
0000
,
0220
0000
0330
0010
0000
0100
0001
2000
,
0000
0000
3001
0000
0100
0000
0000
0000
0001
0000
0000
0100
0000
0000
0001
0000
,
0100
0000
0010
0000
0100
0000
0001
0010
0001
0000
0100
0000
1000
0000
0100
0000
,
0010
0000
1000
0000
0010
0000
0100
0000
0010
0100
0010
0000
0000
0000
1000
0000
,
1001
0010
0001
1000
0100
0010
0001
1000
,
0010
1000
0001
0010
0001
0100
0010
1000
,
1001
0001
0010
0100
0110
0000
1100
0100
,
1000
0000
0001
0000
0010
0000
0001
0010
0001
0000
0100
0000
0101
0000
0000
0000
,
1010
0100
0010
0100
0011
0001
0100
0010
,
1010
0000
0101
0000
0001
0010
0001
0010
,
0011
0000
0000
0000
0001
0000
1000
0000
0010
0000
1000
0100
1000
0000
0100
0000
,
0010
0100
0010
0001
0100
0000
0101
0000
,
0110
0001
1000
0010
0110
0000
0001
1000
,
0100
0000
1000
0000
0001
0000
1000
0000
0100
0000
1000
0100
1000
0000
0010
0000
,
1010
0010
0100
0001
0011
0000
0001
1000
,
0100
0001
0100
0010
0001
0000
1010
0000
,
0101
0001
0100
0010
0100
0010
1000
0010
,
1000
0100
1000
0100
1000
0100
1000
0000
0100
0000
0000
0000
0100
0000
1000
0010
,
2000
0000
3000
0010
0100
0001
0000
0001
,
0000
0110
0000
1010
0000
0000
1000
0001
,
1000
0100
0010
0001
0000
0001
0010
0200
,
0300
1000
0100
0000
0100
0010
0001
1000
,
0020
0000
0130
0100
0000
0010
0000
1010
,
0000
0011
0000
0110
0000
1100
0000
0000
,
0002
0000
0003
2000
0000
3000
0002
0000
0003
0020
0000
0030
0002
0000
0003
2000
,
0000
3000
0020
0000
0030
0200
0000
0300
0001
0000
0100
0000
0001
0000
1000
0100
,
1000
0000
0001
0010
0000
0010
0001
0011
,
0000
0100
0010
1000
0000
1000
0010
0100
,
0020
0000
0030
0200
0000
0300
0000
0101
,
0000
0100
0010
0100
0001
0010
0100
1000
,
0020
0000
1030
0100
0000
0010
0001
1001
,
0000
0001
0100
0001
1000
0010
1000
0010
,
1000
0000
0001
0110
0000
0100
1000
0001
,
0010
0000
0001
0100
0010
0000
1000
0000
,
0100
1000
0100
0000
1000
0000
0020
0000
0030
0000
0100
0000
0001
0010
0001
0000
,
1000
0000
0020
0000
0030
0000
0010
0000
0100
0001
0100
0000
0001
0000
1000
0000
,
0200
0000
0300
0010
0000
0001
0010
0100
,
0010
0001
1000
0100
1000
0000
0001
0010
,
0011
0000
0001
0010
0000
0010
0100
1000
,
0000
1000
0010
0100
0001
1000
0010
1000
,
0002
0000
0103
0001
0000
1000
0000
0020
,
0000
0130
0000
0002
0000
1003
0000
0000
,
1010
0000
0100
0001
0000
1000
0010
1000
,
0000
0100
0010
0001
1000
0001
1000
0000
,
0002
0000
0103
0010
0000
0100
0001
2000
,
0000
3001
0100
0002
0000
1003
0000
0000
,
0100
0010
0100
0010
0000
0000
1000
0000
0000
0001
0010
0001
,
0010
0000
0000
0000
0000
0000
0001
0000
0000
0000
0000
0000
1000
0000
0100
0000
1000
0000
0200
0000
0000
0300
0000
0000
,
1000
0000
0010
0000
1000
0000
0020
0000
0000
0030
0000
0000
0100
0000
0001
0000
0100
0000
0002
0000
0000
0003
0000
0000
,
1000
0010
1000
0002
0000
0000
0003
0000
0000
0000
0000
0000
;

//---------------dance-single - ----------------
#NOTES:
     dance-single:
     :
     Challenge:
     17:
     1.061606,1.011548,0.282087,0.273272,1.181241,843.000000,811.000000,32.000000,31.000000,0.000000,0.000000,1.061606,1.011548,0.282087,0.273272,1.181241,843.000000,811.000000,32.000000,31.000000,0.000000,0.000000:
// measure 0
0000
0000
0000
0000
,  // measure 1
1000
0000
0001
0010
0001
0000
1000
0000
0000
0000
0010
0000
0000
0000
0200
0000
,  // measure 2
0000
0300
0001
0200
0000
0300
0020
0000
,  // measure 3
1030
0100
1000
0000
0100
0000
0010
0001
0100
0001
0010
0100
0010
0000
0001
1000
,  // measure 4
0000
0001
1000
0000
0100
0010
0000
0010
0002
0000
0003
0000
2000
0000
3100
1000
,  // measure 5
0010
0000
0100
0000
0101
0000
1000
0100
0010
0000
0001
0000
0010
0100
1000
0001
,  // measure 6
0010
0100
1000
0000
0100
0000
0010
0001
0010
0000
0001
0000
0100
0010
1000
0100
,  // measure 7
2000
0000
3000
0000
0010
0000
0100
0001
0100
0000
0010
0100
0000
0010
1000
0000
,  // measure 8
0001
0000
0100
0000
0110
0000
0001
0010
0001
0010
0000
0001
0010
0001
0010
0100
,  // measure 9
1000
0000
0010
0000
1001
0000
0010
0100
0010
0000
0100
0010
1000
0100
0010
0001
,  // measure 10
0100
0010
0100
0000
0001
0000
0010
0001
0010
0000
0100
0000
1000
0100
1000
0010
,  // measure 11
0200
0000
0300
0000
1010
0000
0001
0010
0100
0000
0010
0100
0000
1000
0100
0000
,  // measure 12
0010
0001
0010
0100
0010
0001
0010
0100
1000
0100
0010
0100
1000
0100
0010
0000
,  // measure 13
0011
0000
0100
0000
0110
0000
0001
0100
0010
0000
0100
0010
1000
0100
1000
0100
,  // measure 14
0010
0000
0001
0010
0001
0010
0001
0010
0100
0000
1000
0000
0001
0000
0100
0010
,  // measure 15
0100
0000
0010
0000
0110
0000
1000
0010
1000
0000
0010
0100
0001
0010
0100
0010
,  // measure 16
0001
0000
0100
0010
0100
0000
0001
1000
0001
1000
0100
0010
0001
1000
0001
1000
,  // measure 17
0001
0000
1000
0000
1001
0000
0001
0010
0001
0000
1000
0001
1000
0100
1000
0100
,  // measure 18
0010
0000
0010
0001
1000
0000
0100
1000
0100
0000
0010
0000
0001
0000
0100
0001
,  // measure 19
0100
0000
0010
0000
0100
0000
0001
0010
0001
0000
0100
0010
1000
0010
1000
0001
,  // measure 20
0010
0001
1000
0100
1000
0001
0010
0001
0010
0000
0001
0010
0100
0010
0001
0000
,  // measure 21
0101
0000
0010
1000
0001
0000
1000
0100
1000
0000
0001
0000
0001
0010
0100
1000
,  // measure 22
0100
0010
0001
0000
1000
0000
0001
0000
0101
0000
1000
0000
0110
0000
1000
0010
,  // measure 23
1000
0000
0001
0000
0101
0000
0001
0010
0001
0000
0010
0001
0010
0001
1000
0100
,  // measure 24
0010
0000
0001
0000
1000
0010
0100
0001
1000
0100
1000
0100
1000
0001
0010
0001
,  // measure 25
0010
0000
0001
0000
0010
0000
0100
1000
0100
0000
0010
0001
1000
0001
0100
0010
,  // measure 26
0100
0010
1000
0000
0001
0000
0100
0010
0100
0000
0010
0000
1000
0001
1000
0001
,  // measure 27
0100
0000
0010
0000
1010
0000
1000
0001
0100
0000
0001
0100
0010
1000
0010
0100
,  // measure 28
0010
0000
1000
0000
0100
0010
0001
0010
0002
0003
0000
0200
0300
0000
0002
0003
,  // measure 29
0100
0000
0010
0000
0100
0000
0001
0010
0001
0010
0001
0000
0000
0000
0100
0000
,  // measure 30
0010
1000
0010
0000
1000
0100
0010
0000
0001
0100
0010
0000
0100
0000
0001
0000
,  // measure 31
1000
0000
0010
0000
0100
0000
0001
0100
0010
0100
0001
0000
1000
0000
0010
0000
,  // measure 32
0010
0000
1000
0000
0001
0010
0001
0000
0010
0100
0010
0000
0100
1000
0100
1000
,  // measure 33
0100
0000
0010
0000
0001
0000
0100
0010
0100
0010
0100
0000
0001
0000
1010
0000
,  // measure 34
1000
0000
0001
0010
0001
0010
0001
0000
1000
0010
0100
0000
0100
0010
1000
0000
,  // measure 35
1010
0000
0100
0000
0001
0000
0100
0001
0010
0001
1000
0000
0010
0000
0100
0000
,  // measure 36
0010
1000
0010
1000
0001
0000
0010
0000
0100
0001
0100
0001
0100
0000
1000
0000
,  // measure 37
1010
0000
0000
0000
0001
0000
0100
0000
0010
0000
1000
0100
1000
0100
1000
0000
,  // measure 38
0010
0000
0100
0000
0010
0000
0001
0000
1000
0100
1000
0000
0001
0000
0110
0000
,  // measure 39
0100
0001
1000
0010
0101
0001
1000
0001
,  // measure 40
0100
1000
0100
1000
0100
0000
0001
0000
0010
0100
0010
0100
1000
0000
0000
0000
,  // measure 41
1010
0000
0010
0000
0100
0000
0001
0000
0100
0000
0100
0000
0001
0010
0001
0000
,  // measure 42
0100
0000
0001
0000
0110
0000
1000
0000
0001
0010
0100
0000
1000
0000
0100
0000
,  // measure 43
0011
0000
0001
0000
0100
0000
0010
0000
0100
0000
0001
0100
0001
0000
1000
0000
,  // measure 44
0100
1000
0010
0100
0010
0100
0001
0000
0100
0000
0010
0000
0100
0000
0010
0100
,  // measure 45
0020
0000
0000
0000
1030
0000
0010
0000
0100
0000
0001
0010
0001
0000
1000
0100
,  // measure 46
0010
0000
0010
0001
0100
0000
0010
1000
0010
0000
1000
0000
0001
0100
0001
0100
,  // measure 47
0010
0000
0100
0000
0010
0000
0200
0000
0300
0000
0002
0000
1003
0100
2000
0000
,  // measure 48
0000
0000
3010
0000
0110
0000
0100
0010
0100
0000
0010
0000
1000
0100
0010
0001
,  // measure 49
2000
0000
0000
0000
3010
0000
0110
0000
0000
0000
0010
0100
0010
0000
1000
0100
,  // measure 50
0010
0000
0010
0001
0100
0000
0100
0001
1000
0000
0100
0000
1100
0000
0001
0010
,  // measure 51
0001
0000
0000
1000
0100
0010
0002
0000
0003
1000
0010
0100
0002
0000
0003
1000
,  // measure 52
0010
0100
0002
0000
0003
0001
0010
0100
1000
0000
0001
0000
1000
0000
0010
0100
,  // measure 53
0020
0000
0000
0000
0130
0000
0010
0000
1000
0000
0010
0100
0001
0000
0011
0000
,  // measure 54
0000
0000
0010
0001
1000
0000
0010
1000
0100
0000
0100
0000
1000
0010
0100
0010
,  // measure 55
0200
0000
0300
0000
0010
0000
2000
0000
3000
0000
0001
0100
0001
0000
0201
0000
,  // measure 56
0000
0000
0301
0000
1000
0000
1000
0010
0100
0010
0100
0000
0001
0010
0100
0010
,  // measure 57
0200
0000
0300
0000
1000
0000
0100
0000
0010
0000
0010
0000
0001
1000
0002
0000
,  // measure 58
0003
0000
1000
0010
0100
0000
0010
1000
0001
0000
0000
0000
1010
0000
0000
0000
,  // measure 59
1000
0100
1000
0100
1000
0100
0020
0000
0000
0000
0031
0010
0001
0010
0001
0010
,  // measure 60
0100
1000
0200
0000
0000
0000
1300
0000
0010
1000
0010
1000
0100
1000
0100
0000
,  // measure 61
1000
0001
1000
0001
1000
0001
0200
0000
0000
0000
0300
0000
0001
1000
0001
0100
,  // measure 62
0001
0100
0020
0000
0000
0000
0030
0000
1000
0001
0100
0001
1000
0001
0100
0000
,  // measure 63
0020
0000
0000
0000
0030
0000
0210
0000
0000
0000
0301
0010
0001
0010
0001
0010
,  // measure 64
0001
0010
0001
0000
1000
0100
1000
0100
1000
0001
0010
0001
0010
0000
0001
0000
,  // measure 65
1001
0000
0100
0010
0100
0000
1000
0100
0010
0000
0001
0000
0010
0001
0010
0001
,  // measure 66
0010
0100
1000
0000
0001
0000
0001
0000
1000
0100
1000
0000
0001
1000
0100
1000
,  // measure 67
0002
0000
0003
0000
0100
0000
0001
0100
0010
0000
1000
0000
0100
0010
0001
1000
,  // measure 68
0100
0000
0010
0000
0011
0000
1000
0100
0010
0100
1000
0000
0010
0100
0010
1000
,  // measure 69
0001
0000
0100
0000
0110
0000
1000
0010
1000
0000
0010
1000
0001
0100
0010
1000
,  // measure 70
0001
1000
0001
0000
0100
0000
0010
0000
1000
0001
1000
0000
0001
0010
0001
0010
,  // measure 71
0001
0000
1000
0000
1001
0000
0001
0100
0010
0000
0100
0010
1000
0000
0100
0010
,  // measure 72
0100
1000
0001
0010
0100
0010
0100
1000
0100
0010
0001
1000
0100
1000
0100
1000
,  // measure 73
0100
0010
0001
0010
0001
1000
0100
0000
0000
0001
0010
0100
,  // measure 74
1000
0010
0100
0001
0000
0000
1000
0100
0010
0001
1000
0100
,  // measure 75
0010
0001
1000
0100
0010
0100
1000
0100
0010
0001
0010
0100
,  // measure 76
0010
0001
0010
0100
1000
0010
0100
0000
0000
0000
0000
0000
;
