#VERSION:0.83;
#TITLE:Suteteko sutete ikou;
#SUBTITLE:;
#ARTIST:School;
#TITLETRANSLIT:;
#SUBTITLETRANSLIT:;
#ARTISTTRANSLIT:;
#GENRE:;
#ORIGIN:;
#CREDIT:from pop n music 9 AC / 7 CS;
#BANNER:School - Suteteko sutete ikou.png;
#BACKGROUND:;
#PREVIEWVID:;
#JACKET:;
#CDIMAGE:;
#DISCIMAGE:;
#LYRICSPATH:;
#CDTITLE:Popn_music_9_logo_small.png;
#MUSIC:School - Suteteko sutete ikou.ogg;
#OFFSET:-0.576000;
#SAMPLESTART:47.775002;
#SAMPLELENGTH:16.000000;
#SELECTABLE:YES;
#BPMS:0.000=136.000;
#STOPS:;
#DELAYS:;
#WARPS:;
#TIMESIGNATURES:0.000=4=4;
#TICKCOUNTS:0.000=4;
#COMBOS:0.000=1;
#SPEEDS:0.000=1.000=0.000=0;
#SCROLLS:0.000=1.000;
#FAKES:;
#LABELS:0.000=Song Start;
#BGCHANGES:;
#KEYSOUNDS:;
#ATTACKS:
;

//---------------dance-single - ----------------
#NOTEDATA:;
#CHARTNAME:;
#STEPSTYPE:dance-single;
#DESCRIPTION:;
#CHARTSTYLE:;
#DIFFICULTY:Beginner;
#METER:3;
#RADARVALUES:0.172722,0.188853,0.059953,0.069945,0.000000,121.000000,115.000000,6.000000,7.000000,0.000000,0.000000,0.000000,0.000000,0.000000,0.172722,0.188853,0.059953,0.069945,0.000000,121.000000,115.000000,6.000000,7.000000,0.000000,0.000000,0.000000,0.000000,0.000000;
#CREDIT:;
#NOTES:
0000
0000
0000
0001
0000
0000
0000
0000
,
0000
0001
0000
1000
0000
0000
0002
0000
,
0000
0003
0000
0100
0000
0000
0000
0010
,
0000
1000
0000
0010
0000
0000
0000
0010
,
0000
0100
0000
0010
0000
0000
0000
0010
,
0000
0001
0000
0010
0000
0000
0000
0100
,
0000
0000
0000
0010
0000
0000
0000
0110
,
0000
0000
0000
1001
0000
0000
0000
1000
,
0000
0000
0000
0001
0000
0000
0000
0001
,
0000
0010
0000
0001
0000
0000
0000
1000
,
0000
0100
0000
1000
0000
0000
0000
0010
,
0000
0000
0000
0010
0000
0000
0000
0100
,
0000
0000
0000
0100
0000
0000
0000
0010
,
0000
0000
0000
0010
0000
0010
0000
0010
,
0000
0000
0000
0100
0000
0100
0000
0100
,
0000
0000
0000
0001
0000
0000
0000
1000
,
0000
0000
0000
0001
0000
1000
0000
0001
,
0000
0000
0000
2000
0000
3000
0000
0001
,
0000
0000
0000
0002
0000
0003
0000
0100
,
0000
0000
0000
0010
0000
0000
0000
0100
,
0000
0000
0000
0010
0000
0000
0000
1000
,
0000
0000
0000
0001
0000
0000
0000
0100
,
0000
0000
0000
0110
0000
0000
0000
0101
,
0000
0000
0000
0001
0000
0000
0000
1000
,
0000
0000
0000
0010
0000
0000
0000
1000
,
0000
0000
0000
0000
0000
0100
0000
0000
,
0000
0010
0000
0000
0000
0001
0000
1000
,
0000
0000
0000
0001
0000
0000
0000
0001
,
0000
0000
0000
1000
0000
0000
0000
1000
,
0000
0010
0000
1000
0000
0000
0000
0010
,
0000
0000
0000
0100
0000
0000
0000
0001
,
0000
0010
0000
0001
0000
0000
0000
0010
,
0000
0000
0000
1000
0000
0000
0000
0010
,
0000
0100
0000
0010
0000
0000
0000
0100
,
0000
0000
0000
0001
0000
0000
0000
0100
,
0000
0000
0000
1000
0000
0000
0000
0100
,
0000
0000
0000
0001
0000
0000
0000
2000
,
0000
0000
0000
3000
0000
0000
0000
0001
,
0000
0000
0000
0001
0000
0000
0000
0110
,
0000
0000
0000
0100
0000
0000
0000
0010
,
0000
0000
0000
0000
0000
0000
0000
0110
,
0000
0000
0000
0100
0000
0000
0000
0010
,
0000
0000
0000
0000
0000
0000
0000
0100
,
0000
0000
0000
0000
0000
0100
0000
0100
,
0000
0000
0000
0000
0000
0100
0000
0000
,
0000
0010
0000
0100
0000
0010
0000
0000
,
0000
0100
0000
0000
0000
0001
0000
0000
,
0000
0100
0000
0010
0000
0100
0000
0000
,
0000
1000
0000
0000
0000
0010
0000
0000
,
0000
0100
0000
0001
0000
0100
0000
0000
,
0000
0000
0000
0001
0000
0000
0000
2000
,
0000
0000
0000
3000
0000
0000
0000
0002
,
0000
0000
0000
0003
0000
0000
0000
0100
,
0000
0000
0000
0020
0000
0000
0000
0000
,
0030
0000
0000
0000
;

//---------------dance-single - ----------------
#NOTEDATA:;
#CHARTNAME:;
#STEPSTYPE:dance-single;
#DESCRIPTION:;
#CHARTSTYLE:;
#DIFFICULTY:Easy;
#METER:7;
#RADARVALUES:0.336880,0.378580,0.249805,0.129899,0.034973,236.000000,211.000000,25.000000,13.000000,0.000000,0.000000,0.000000,0.000000,0.000000,0.336880,0.378580,0.249805,0.129899,0.034973,236.000000,211.000000,25.000000,13.000000,0.000000,0.000000,0.000000,0.000000,0.000000;
#CREDIT:;
#NOTES:
// measure 0
0000
0000
0000
0000
0001
0000
0000
1000
0000
0000
0000
0001
0000
0000
0000
0000
,  // measure 1
1000
0000
0100
0000
1000
0000
0000
0100
0000
0000
0200
0000
0000
0000
0300
0000
,  // measure 2
0000
1100
0010
0010
,  // measure 3
1000
0100
0010
0001
,  // measure 4
0100
0010
1000
0110
,  // measure 5
0001
1001
0100
0100
,  // measure 6
0010
0100
0010
0000
0000
0000
0110
0000
,  // measure 7
0100
1001
0001
1000
,  // measure 8
0100
0001
0100
1000
,  // measure 9
0110
0001
0110
1000
,  // measure 10
0100
0000
0000
0000
1000
0000
0100
0000
0010
0000
0000
0001
0000
0000
0000
0000
,  // measure 11
0101
0000
0010
1000
0010
0000
0100
0000
,  // measure 12
0101
0000
0100
0010
0100
0000
0010
0000
,  // measure 13
1001
0020
0130
0010
,  // measure 14
0100
0002
0103
0001
,  // measure 15
1001
0000
0001
0000
1000
0000
0100
0010
,  // measure 16
0001
0001
0010
0100
,  // measure 17
1100
2000
3001
0100
,  // measure 18
0100
0020
0130
0200
,  // measure 19
0310
0000
0000
0000
0010
0000
0100
0010
,  // measure 20
0100
0000
0000
0000
0010
0000
1000
0001
,  // measure 21
0010
0000
0100
0200
,  // measure 22
0300
0000
1000
0000
1001
0000
0001
0010
,  // measure 23
0001
0000
0001
1000
,  // measure 24
0010
0100
0010
0000
0000
0000
0102
0000
,  // measure 25
0000
0103
0000
0000
0100
0000
0010
0000
,  // measure 26
0110
0110
0010
1001
,  // measure 27
1000
0000
0100
0010
0001
0000
0000
0000
,  // measure 28
0110
0000
0010
1000
,  // measure 29
0001
0000
1000
0001
1000
0000
0000
0000
,  // measure 30
0110
0000
0011
0010
,  // measure 31
0010
0000
0001
0010
0001
0000
0000
0000
,  // measure 32
1001
0000
1000
0001
,  // measure 33
0100
0000
0010
1000
0010
0000
0000
0000
,  // measure 34
0100
0000
0001
0100
0001
0000
0200
0000
,  // measure 35
0000
0310
1000
0100
,  // measure 36
0010
0000
0001
0000
0000
0000
0001
0100
,  // measure 37
0001
0100
0100
0100
,  // measure 38
0100
0001
0001
1001
,  // measure 39
0000
0000
0110
0000
0000
0000
0100
0010
,  // measure 40
0100
0000
0010
0000
0000
0000
0100
0001
,  // measure 41
0100
0000
0001
0000
0000
0000
1000
0010
,  // measure 42
1000
0000
0000
0000
0000
0000
0000
0000
0010
0000
0000
0010
0000
0000
0000
0000
,  // measure 43
0100
0000
0100
0010
0100
0000
0001
0000
,  // measure 44
1001
0000
0000
0000
1000
0000
0000
0000
0100
0000
0000
0100
0000
0000
0000
0000
,  // measure 45
0010
0000
0001
0010
0001
0000
0100
0000
,  // measure 46
0100
0000
0010
0100
0001
0000
0000
0000
,  // measure 47
0110
0000
0010
1000
0010
0000
1000
0000
,  // measure 48
0100
0010
0001
0000
,  // measure 49
0010
0000
0100
1000
0100
0000
1000
0000
,  // measure 50
0001
0010
0001
0000
0020
0000
0230
0000
,  // measure 51
0000
0000
0000
0300
0010
0000
0002
0000
,  // measure 52
0000
0000
0000
0003
0100
0000
0001
0000
,  // measure 53
0100
0000
0000
0000
0010
0000
0000
0010
0000
0000
0020
0000
0000
0000
0000
0000
,  // measure 54
0000
0030
0000
0000
0000
0000
0000
0000
;

//---------------dance-single - ----------------
#NOTEDATA:;
#CHARTNAME:;
#STEPSTYPE:dance-single;
#DESCRIPTION:;
#CHARTSTYLE:;
#DIFFICULTY:Medium;
#METER:13;
#RADARVALUES:0.583830,0.567870,0.289774,0.159875,0.439657,409.000000,380.000000,29.000000,16.000000,0.000000,0.000000,0.000000,0.000000,0.000000,0.583830,0.567870,0.289774,0.159875,0.439657,409.000000,380.000000,29.000000,16.000000,0.000000,0.000000,0.000000,0.000000,0.000000;
#CREDIT:;
#NOTES:
0000
0000
0000
0000
1000
0001
0000
1000
0000
0001
0000
1000
0000
0010
0000
1000
,
0100
0000
0000
0000
1100
0000
0000
0110
0000
0000
2002
0000
0000
0000
3003
0000
,
0000
0000
0000
0000
0010
0000
0100
0000
0010
0100
0000
0000
0010
0000
1000
0000
,
1001
0000
0100
0010
1001
0000
0001
0100
,
0010
1000
0000
0010
0110
0000
0100
0001
,
0101
0000
0010
1000
1010
0000
0100
0010
,
0100
0000
0001
0000
1000
0001
1000
0000
0010
0100
0010
0000
0100
0000
0100
0000
,
0110
0000
0001
0001
1001
0000
1000
0100
,
0010
0000
0001
1000
0000
0001
1000
0000
0100
0000
0000
0000
1000
0000
0010
0000
,
0100
0010
0000
0000
0001
0000
0100
0000
0010
0100
0000
0000
0001
0000
0010
0000
,
0100
0000
1000
0000
0110
0000
0000
0000
0011
0000
0000
0011
0000
0000
0100
0000
,
0001
0000
0010
0000
0100
0000
1000
0000
0010
0000
0100
0010
0000
0010
0100
0000
,
0010
0000
0100
0010
0000
0100
0010
0000
0100
0000
0000
0110
0000
0000
1000
0000
,
0010
0000
0001
0000
2000
0000
0000
0000
3100
0000
0000
0010
0000
0000
0001
0000
,
0010
0000
1000
0000
0002
0000
0000
0000
0103
0000
0000
0101
0000
0000
0001
0000
,
1000
0000
0000
0000
0001
0100
0000
0001
1000
0000
0000
0000
0100
0010
0000
0010
,
0001
0000
0000
0000
0001
0000
1000
0000
0010
0000
0100
0010
0000
0100
0010
0000
,
0100
0000
0001
0000
0200
0000
0000
0000
0301
0000
0000
0001
0000
0000
0100
0000
,
0010
0100
0020
0000
1030
0000
0100
0010
,
0011
0000
0000
0001
0000
0000
1000
0000
0100
0000
0010
0000
0001
0000
0010
0000
,
0100
0000
0010
0000
0001
0000
0000
0000
0100
0010
0000
0000
1000
0000
1001
0000
,
1001
0000
0000
0001
0000
0000
0100
0000
0010
0100
0000
0000
0010
0100
0010
0000
,
0100
0000
0010
0000
0100
0000
0001
0100
0001
0100
0000
0000
0001
0000
0011
0000
,
1001
0000
0000
1000
0000
0000
0010
0000
0100
0001
0000
0001
1000
0000
0000
0000
,
0010
0100
0000
0000
0010
0000
0100
0000
0001
1000
0001
0000
1000
0000
0100
0000
,
0100
0120
0000
0031
0200
0000
0310
0010
,
1000
0001
1000
0001
1000
0001
1001
0000
,
0100
0000
0010
0000
0100
0000
0010
0100
0010
0000
0000
0100
0000
0010
0100
0000
,
0001
0000
1000
0100
0010
0000
1000
0100
,
0010
0000
0100
0000
0010
0000
0001
0000
0001
0000
0000
0100
0000
0001
0100
0000
,
0001
0000
1000
0010
0100
0000
0010
0000
0100
0020
0000
0000
1030
0000
0000
0000
,
0010
0000
0100
0000
0001
0000
0010
0001
0100
0000
0000
0010
0000
0010
1000
0000
,
0001
0000
1000
0010
0100
0000
0001
0010
,
0100
0000
1000
0000
0010
0000
1000
0010
1000
0000
0000
0000
0000
0000
0010
0000
,
0110
0000
0000
0001
0000
0000
0100
0000
0100
0000
0100
0000
0002
0000
1000
0000
,
1000
0003
0010
0010
0100
0000
1000
0100
,
1000
0100
0001
0100
1000
0000
0001
0010
,
0010
0000
0100
0100
0010
0000
0001
0010
,
0001
0010
1000
0010
0001
0000
1000
0001
,
0100
0001
0000
0000
0100
0000
0001
0000
1000
0001
0000
0000
0100
0000
0010
0000
,
0100
0000
0010
0100
0010
0000
0100
0010
0100
0000
0000
0000
0001
0000
1000
0000
,
0010
1000
0000
0000
0010
0000
1000
0000
0001
1000
0000
0000
0010
0000
0100
0000
,
0010
0000
0100
0010
0100
0000
0010
0100
0010
0100
0000
0010
0000
0000
0100
0000
,
0002
0000
0003
0000
0100
0000
0010
0000
1000
0000
0000
0001
0000
1000
0000
0000
,
1001
0000
0000
0000
0002
0000
0003
0000
0200
0000
0300
0001
0000
0001
0000
0000
,
0110
0000
0000
0000
1000
0000
0010
0000
0100
0000
0000
0001
0000
1000
0000
0000
,
1001
0000
0000
0000
0010
0000
0100
0000
0020
0000
0000
0130
0000
0000
0000
0000
,
0110
0000
0010
1000
0010
0010
1000
0010
,
0001
0000
0010
0000
1000
0000
0010
0000
0200
0000
0000
0310
0000
0000
0000
0000
,
0101
0000
0000
0000
0100
0000
0001
0000
1000
0000
0000
0001
0000
1000
0000
0000
,
1100
0000
0000
0000
0001
0000
0000
0000
0100
0000
0001
0000
0100
0001
0000
0100
,
0000
0001
0000
0100
0000
0001
0000
0001
0100
0000
0000
0000
0001
0100
0000
0001
,
0000
0100
0000
0001
0000
0100
0000
0100
0001
0000
0000
0000
0100
0001
0100
0000
,
0001
0100
0000
0000
0010
0000
0000
1000
0000
0000
0200
0000
0000
0000
0000
0000
,
0000
0300
0000
0000
0000
0000
0000
0000
;

//---------------dance-single - ----------------
#NOTEDATA:;
#CHARTNAME:;
#STEPSTYPE:dance-single;
#DESCRIPTION:;
#CHARTSTYLE:;
#DIFFICULTY:Hard;
#METER:15;
#RADARVALUES:0.819361,0.730118,0.329743,0.159875,1.054178,574.000000,541.000000,33.000000,16.000000,0.000000,0.000000,0.000000,0.000000,0.000000,0.819361,0.730118,0.329743,0.159875,1.054178,574.000000,541.000000,33.000000,16.000000,0.000000,0.000000,0.000000,0.000000,0.000000;
#CREDIT:;
#NOTES:
0000
0000
0000
0000
0001
1000
0000
1000
0000
0010
0000
0001
0000
0010
0000
1000
,
0100
1000
0100
0000
1100
0000
0000
0110
0000
0000
0022
0000
0000
0000
0033
0000
,
0000
0000
0000
0000
1000
0100
0010
0001
0010
0000
0000
0000
0010
0000
0001
0000
,
1000
0100
0000
0010
0100
0000
0010
0000
0001
0100
0000
0000
0001
0100
0001
0100
,
0001
1000
0010
0000
0100
0010
1000
0010
1000
0000
0000
0000
0100
0000
0010
0000
,
0001
0010
0000
0010
0100
0000
1000
0000
0100
0010
0000
0001
0100
0000
0010
0000
,
0110
0000
1001
0000
0010
0100
0010
0100
0001
0010
0001
0010
0001
0000
1000
0000
,
0100
0010
0000
0001
1000
0000
0100
0000
0010
0001
0000
0001
0100
0000
0010
0000
,
0110
0000
1001
0000
0000
0000
0010
0100
0001
0000
0000
0000
1001
0000
0100
0000
,
0010
0100
0000
0001
0010
0000
0100
0000
1000
0100
0000
0000
0001
1000
0100
0010
,
0001
0100
0010
1000
0100
0010
0001
0100
0010
0000
0000
0100
0000
0010
1000
0001
,
0100
0000
0010
0000
0010
1000
0010
0100
0010
1000
0001
0000
0100
0000
0001
0000
,
0100
0010
1000
0010
0100
0010
1000
0100
0000
0010
0001
0010
0000
0100
1000
0001
,
0000
0100
0010
0100
0020
0000
0000
0000
0130
0000
0010
0100
0000
0010
0100
0010
,
0200
0000
0001
0300
0001
0010
0001
0010
0100
1000
0000
0001
0000
1000
0010
0100
,
0001
0000
0100
0001
0100
0010
1000
0000
0010
0100
0001
0000
0100
0010
1000
0001
,
0010
0000
0100
0010
0001
1000
0010
0100
0000
0010
0100
0001
0000
0001
0100
0010
,
0000
0010
1000
0010
2000
0000
0000
0000
3001
0000
0100
0010
0000
0100
0010
0100
,
0020
0100
0130
0000
0020
0030
0100
0110
,
0110
0000
0000
0010
0100
0000
0001
0000
1000
0100
0000
0010
0000
0001
0010
0100
,
1000
0000
0010
0000
0100
0000
0001
0000
0010
0001
0000
0001
1000
0000
1001
0000
,
0110
0000
0000
0010
1000
0000
0001
0010
0100
1000
0000
0000
0010
0100
0001
0010
,
0100
1000
0010
0100
0001
0010
0100
1000
0001
0001
0000
0000
0001
0000
0110
0000
,
0011
0000
0000
1000
0010
0000
0100
0000
1000
0010
0000
0100
0000
0000
0001
0000
,
0010
0001
0100
0001
0010
0000
0001
0100
0010
0000
0000
0000
0200
0000
0010
0000
,
0310
0120
0100
0130
0120
0000
0130
0001
,
1000
0010
0000
0100
0010
0000
0100
0000
0020
0000
2030
0000
3001
0000
0101
0000
,
0110
0000
0100
0000
0001
0010
0001
0010
0100
0000
0000
1000
0000
0100
0010
0001
,
0010
0000
0100
1000
0100
0000
0100
0010
0100
0000
0000
0000
0001
0000
0011
0000
,
1001
0000
1000
0000
0001
1000
0001
0100
0001
0000
0000
0001
0000
0100
0010
0100
,
0010
0000
0100
0010
0100
0000
0010
0000
0010
0200
0000
0000
0301
0000
0011
0000
,
0110
0000
1000
0000
0100
0010
0001
0010
0100
0000
0000
0010
0000
0010
0001
0000
,
1000
0001
1000
0000
0010
0100
0010
0000
0100
0000
0000
0000
0010
0000
1010
0000
,
1100
0000
1000
0000
0100
0010
0100
1000
0100
0000
0000
0000
0100
0010
0100
0010
,
0001
0000
0000
0100
0000
0001
0100
0010
0100
0001
1000
0000
0200
0000
0000
0000
,
0010
0000
0300
0000
0010
0000
0001
1000
0001
0000
0100
0000
0010
0000
0010
0100
,
0010
0000
0100
0000
0001
0000
1000
0100
0010
0000
0000
0000
0001
0100
0001
0100
,
0001
1000
0000
0000
0100
0010
0001
0100
0010
0000
0000
0000
0100
0000
1100
0000
,
0010
0000
0001
0000
1000
0100
0010
0100
0010
0001
0010
0000
0110
0000
0100
0000
,
0010
0100
0000
0010
0100
0000
1000
0000
0010
0100
0000
0001
0100
0000
0010
0000
,
0100
0001
0010
0000
0100
0000
1000
0010
0100
0000
0000
0000
0100
0001
0100
0001
,
0100
0001
0000
0000
1000
0001
0010
0100
1000
0000
0000
0000
1000
0000
0010
0000
,
0110
0000
0100
0000
0010
0100
0010
0100
0010
0100
0000
0110
0000
0000
0010
0000
,
0101
0000
0000
0000
0100
0000
0001
0010
0100
0000
1000
0001
0000
0100
0010
0000
,
0100
0010
1000
0000
0001
0010
0001
0010
0100
1000
0000
0100
0000
0010
0001
0010
,
0001
0000
1000
0000
0001
0000
0100
0001
0100
0000
0001
1000
0000
0010
0100
0000
,
0010
0100
0001
0000
0010
0100
0010
0100
0010
0100
0000
0110
0000
0000
0010
0000
,
1001
0000
0000
0000
0010
0000
1000
0010
1000
0000
0010
1000
0000
1000
0010
0000
,
0100
0000
0001
0000
1000
0001
1000
0001
1000
0001
0000
0010
0000
0100
0010
0000
,
0001
1000
0010
0000
0100
0010
0100
0000
1000
0000
0100
0010
0000
0100
0001
0000
,
0010
0001
0010
0100
1000
0001
0010
0000
0100
0000
2000
0000
3100
0010
0000
0010
,
0000
0001
0010
0100
0010
0001
0000
1000
0000
0010
0100
0000
0100
0001
0000
0001
,
0000
1000
0001
1000
0100
0010
0000
0001
0000
0010
0100
0000
1000
0001
0100
0000
,
0100
0001
0010
0000
1100
0000
0000
0110
0000
0000
0002
0000
0000
0000
0000
0000
,
0000
0003
0000
0000
0000
0000
0000
0000
;
