#TITLE:Susume! Shounen!!;
#SUBTITLE:;
#ARTIST:TAISHO;
#TITLETRANSLIT:;
#SUBTITLETRANSLIT:;
#ARTISTTRANSLIT:;
#GENRE:;
#CREDIT:from pop n music 12;
#BANNER:TAISHO - Susume! Shounen!! (cut).png;
#BACKGROUND:;
#LYRICSPATH:;
#CDTITLE:;
#MUSIC:TAISHO - Susume! Shounen!! (cut).mp3;
#OFFSET:-0.089000;
#SAMPLESTART:8.801000;
#SAMPLELENGTH:12.000000;
#SELECTABLE:YES;
#BPMS:0.000000=137.000000
;
#STOPS:
;
#BGCHANGES:;
#KEYSOUNDS:;
#ATTACKS:;

//---------------dance-single - ----------------
#NOTES:
     dance-single:
     :
     Beginner:
     3:
     0.136484,0.194490,0.009749,0.038995,0.000000,98.000000,97.000000,1.000000,4.000000,0.000000,0.000000,0.136484,0.194490,0.009749,0.038995,0.000000,98.000000,97.000000,1.000000,4.000000,0.000000,0.000000:
0000
0000
0000
0000
,
0000
0000
0000
0000
,
0000
0000
0000
0000
,
0010
0000
0000
0000
,
0100
0000
0000
0000
,
0100
0000
0000
0000
,
0010
0000
0000
0000
,
0100
0000
0000
0000
,
0010
0000
0000
0000
,
1000
0000
1000
0000
,
0001
0000
0001
0000
,
1000
0000
0001
0000
,
0010
0000
0100
0000
,
1000
0000
0000
0000
,
0001
0000
0001
0000
,
1000
0000
1000
0000
,
0001
0000
0001
0000
,
0100
0000
0000
0000
,
0010
0000
0010
0000
,
0100
0000
0100
0000
,
0001
0000
0000
0000
,
1001
0000
0000
0000
,
1000
0000
1000
0000
,
0001
0000
0000
0000
,
0001
0000
0001
0000
,
1000
0000
0000
0000
,
0010
0000
0010
0000
,
0100
0000
0000
0000
,
0100
0000
0010
0000
,
0010
0000
0000
0000
,
1000
0001
1000
0000
,
0001
1000
0001
0000
,
1000
0000
0010
0000
,
0010
0000
0100
0000
,
0001
0000
1000
1000
,
1000
0000
0001
0000
,
0010
0000
0010
0010
,
0010
0000
0100
0000
,
1000
0000
0001
0000
,
1000
0000
0010
0010
,
0010
0000
0000
0000
,
0100
0000
0010
0000
,
0100
0000
0010
0000
,
1000
0001
1000
0000
,
0001
0000
1000
0000
,
0001
1000
0001
0000
,
1000
0000
0001
0000
,
1000
0100
1000
0000
,
0001
0000
0001
0000
,
1000
0000
0010
0000
,
0100
0000
0001
0000
,
1000
0000
0010
0000
,
0010
0000
0000
0010
,
0000
0200
0000
0000
,
0300
0002
0000
0000
,
0003
2000
0000
0000
,
3000
0002
0000
0000
,
0003
0000
0000
0000
;

//---------------dance-single - ----------------
#NOTES:
     dance-single:
     :
     Easy:
     7:
     0.311964,0.389406,0.107238,0.077991,0.034121,224.000000,213.000000,11.000000,8.000000,0.000000,0.000000,0.311964,0.389406,0.107238,0.077991,0.034121,224.000000,213.000000,11.000000,8.000000,0.000000,0.000000:
0000
0000
0000
0000
,
0000
0000
0000
0000
,
0000
0000
0000
0000
,
0100
0000
0000
0000
0100
0000
0000
0010
0000
0000
0010
0000
0000
0000
0000
0000
,
0100
0000
0000
0000
0010
0000
0000
0100
0000
0000
0100
0000
0000
0000
0000
0000
,
0001
1000
0001
1000
,
0100
1000
0100
0000
0010
0000
0001
0000
,
1000
0000
0001
0000
0100
0000
0010
0100
,
0010
0000
0100
0000
0001
0100
0001
0000
,
1000
0100
0010
0001
,
1000
0000
0001
1000
0001
0000
1000
0000
,
0010
0100
0001
0010
,
0100
0000
0010
0100
1000
0000
0001
0000
,
1000
0001
0000
0100
,
0010
0100
0000
0001
,
1000
0000
0010
0000
0100
0000
0001
1000
,
0010
0000
1000
0000
0000
1001
0000
0000
,
0010
1000
0001
0010
,
0001
0000
0010
0000
0100
0010
0001
0000
,
0001
1000
0010
0001
,
1000
0100
0001
0100
,
0110
1001
1000
0001
,
1000
0001
1000
0000
0001
0000
0100
0000
,
0001
1000
0010
0100
,
0001
1000
0010
0001
,
0100
0001
1000
0010
,
0001
0010
1000
0100
,
0001
0100
1000
0001
,
1000
0100
0010
0001
,
1001
0000
0000
0000
1000
0000
0000
1000
0000
0000
0000
0000
0001
0000
1000
0000
,
0001
0000
0000
0000
1000
0000
0000
0001
0000
0000
0000
0000
1000
0000
0001
0000
,
1000
0000
0000
0000
0001
0000
0000
1000
0000
0000
0000
0000
0001
0000
0100
0000
,
0001
0000
0000
0000
0000
0000
0000
0110
0000
0000
0000
0000
0000
0000
0000
0000
,
0100
0000
0001
1000
0001
0000
1000
0000
,
0010
0000
0100
0001
0100
0000
0001
0000
,
1000
0000
0100
0000
0010
0100
0010
0000
,
0100
0000
1000
0000
0010
0100
0010
0000
,
0200
0300
0020
0030
,
0100
0100
0100
0001
,
1001
0000
0020
0030
,
2000
3000
0001
0000
,
1000
1001
0001
0100
,
0101
0101
1000
0010
,
0110
0110
0001
1000
,
0100
0000
0000
0000
1000
0001
1000
0000
,
0001
0000
0100
0000
0001
0000
1000
0100
,
0010
0000
0001
0000
1000
0000
0001
0100
,
0001
1000
0010
0100
,
0010
0100
0010
0100
,
0001
0000
1000
0000
0001
0000
0010
0100
,
1000
0001
0100
0001
,
0010
1000
0010
0001
,
2000
0000
3000
0002
0000
0003
2000
0000
,
3000
0002
0000
0000
,
0003
0000
0100
0000
,
0000
0100
0010
0100
,
0000
0000
1000
0000
,
0000
0001
0000
0000
0000
0000
0000
0000
0000
0000
0000
0000
0000
0000
0000
0000
;

//---------------dance-single - ----------------
#NOTES:
     dance-single:
     :
     Medium:
     11:
     0.470731,0.504504,0.107238,0.165731,0.365583,338.000000,327.000000,11.000000,17.000000,0.000000,0.000000,0.470731,0.504504,0.107238,0.165731,0.365583,338.000000,327.000000,11.000000,17.000000,0.000000,0.000000:
// measure 0
0000
0000
0000
0000
,  // measure 1
0000
0000
0000
0000
,  // measure 2
0000
0000
0000
0000
,  // measure 3
0100
0000
0000
0000
0100
0000
0000
0100
0000
0000
0010
0000
0000
0000
0100
0000
,  // measure 4
0010
0000
0000
0000
0100
0000
0000
0010
0000
0000
0010
0000
0000
0000
1000
0000
,  // measure 5
0001
0000
1000
0000
0000
0000
0001
0000
0010
0000
0100
0000
1000
0001
0000
1000
,  // measure 6
0000
0000
0001
0000
0001
1000
0000
0100
0000
0000
0010
0000
0000
0000
0001
0000
,  // measure 7
1000
0000
0010
0000
0100
0000
0001
1000
0000
0000
0001
0000
1000
0001
0000
0100
,  // measure 8
0000
0010
0100
0010
0100
0020
0030
0100
,  // measure 9
0001
0000
1000
0000
0000
0000
0001
0000
0010
0000
0100
0000
1000
0001
0000
0100
,  // measure 10
0000
0000
0010
0000
0100
0010
0000
0100
0000
0000
0010
0000
0000
0000
1000
0000
,  // measure 11
0100
0000
1000
0000
0010
0100
0000
0001
0000
0000
1000
0001
1000
0001
0000
2000
,  // measure 12
0000
3001
0100
0001
1000
0010
1000
0100
,  // measure 13
0001
0000
0100
0000
0000
0000
1000
0000
0010
0000
0100
0000
0001
0100
0000
0001
,  // measure 14
0000
0000
1000
0000
1000
0100
0000
0010
0000
0000
0100
0000
0000
0000
1000
0000
,  // measure 15
0001
0000
1000
0000
0010
0100
0000
0010
0000
0000
1000
0000
0100
1000
0000
0002
,  // measure 16
0000
0003
0001
0010
1000
0001
0000
0100
,  // measure 17
1000
0000
0001
0000
0000
0000
0001
0000
0010
0000
0100
1000
0000
0001
0000
0100
,  // measure 18
0000
0000
0010
0000
0100
0010
0000
0100
0000
0000
0010
0000
0000
0000
0100
0000
,  // measure 19
0010
0000
0100
0000
0010
0100
0000
0010
0000
0000
0100
0000
0100
0001
0000
0100
,  // measure 20
0000
0020
0000
1030
0000
0001
0000
1000
,  // measure 21
1001
0000
0001
0000
1000
0100
0000
1000
0100
0000
0010
0000
0001
1000
0000
0001
,  // measure 22
0000
0100
0000
0010
0100
0010
0100
0010
,  // measure 23
0000
0000
0100
0000
0001
0100
0000
0010
0000
0000
1000
0000
0001
1000
0000
0002
,  // measure 24
0000
0000
0003
1000
1001
0000
0110
0000
,  // measure 25
0000
0000
0100
0001
0100
0001
0000
0100
0000
0000
0010
0000
1000
0100
0000
0010
,  // measure 26
0000
0001
0000
1000
0010
0100
0010
1000
,  // measure 27
0010
0000
0100
0000
0001
1000
0000
0001
0000
0000
1000
0000
0001
1000
0000
0200
,  // measure 28
0000
0300
1000
0001
,  // measure 29
0110
0000
0000
0000
0100
0000
0000
0010
0000
0100
0010
0000
0100
0000
0000
0000
,  // measure 30
0010
0000
0100
0000
0010
0100
0000
0010
0000
0100
0010
0000
0100
0000
0000
0000
,  // measure 31
0001
0000
1000
0000
0001
1000
0000
0001
0000
1000
0000
0001
1000
0000
0000
0000
,  // measure 32
0000
1001
0000
0000
1001
0000
0000
1001
0000
0000
0000
0000
0000
0000
0000
0000
,  // measure 33
0020
0000
1000
0000
1030
0000
0001
0010
,  // measure 34
0100
0010
0001
0000
1000
0100
0010
0100
,  // measure 35
1000
0000
0001
1000
0001
0000
0100
0000
,  // measure 36
0020
0000
0000
0000
0000
0000
0000
0000
0030
0000
0000
0000
0000
0100
0000
0000
,  // measure 37
0020
0100
0130
0001
,  // measure 38
1000
0001
1000
0001
1000
0000
0001
0100
,  // measure 39
0002
0000
1003
0100
0010
0000
0002
0000
,  // measure 40
0203
0000
0301
0000
,  // measure 41
0101
0000
0000
0000
0001
0000
0000
1000
0000
0000
0001
0000
0000
0000
1000
0000
,  // measure 42
0010
0000
0000
0000
0010
0000
0000
0010
0000
0000
0100
0000
0001
0000
0100
0000
,  // measure 43
0001
0000
0000
0000
0001
0000
0000
1000
0000
0000
0100
0000
0000
0000
0010
0000
,  // measure 44
0011
0000
0022
0033
,  // measure 45
0101
0000
0010
0000
0010
0000
0100
0001
,  // measure 46
0100
0000
0010
1000
0010
0000
1000
0001
,  // measure 47
0100
0000
0001
1000
0001
0000
1000
0100
,  // measure 48
0010
0001
1000
0000
0001
0100
0001
0000
,  // measure 49
0100
0000
0010
0100
0010
0000
0100
0010
,  // measure 50
0100
0010
0100
0000
0010
0100
0010
0000
,  // measure 51
0100
0100
0100
0001
0001
0001
1000
0000
,  // measure 52
0001
1000
0001
1000
0000
0000
0001
1000
0001
1000
0000
0000
0002
0000
0000
0000
,  // measure 53
0003
0000
0000
0000
0200
0000
0000
0000
0000
0000
0000
0000
0300
0010
0000
0000
,  // measure 54
0000
0010
0000
0000
0100
0000
0010
0000
0100
0000
0010
0000
0100
0000
0010
0000
,  // measure 55
0001
0010
0100
0010
0100
0000
0010
0000
,  // measure 56
0000
0100
0000
0000
0000
0000
0010
0000
0000
0000
0000
0000
,  // measure 57
0000
0200
0000
0000
0000
0000
0000
0000
0300
0000
0000
0000
0000
0000
0000
0000
;

//---------------dance-single - ----------------
#NOTES:
     dance-single:
     :
     Hard:
     14:
     0.687992,0.778813,0.126735,0.038995,0.692170,494.000000,481.000000,13.000000,4.000000,0.000000,0.000000,0.687992,0.778813,0.126735,0.038995,0.692170,494.000000,481.000000,13.000000,4.000000,0.000000,0.000000:
0000
0000
0000
0000
,
0000
0000
0000
0000
,
0000
0000
0000
0000
,
0100
0000
0000
0000
0001
0000
0000
0100
0001
0000
0001
0000
0100
0000
0010
0100
,
0010
0000
0000
0000
0100
0000
0000
0100
0010
0000
0100
0000
0010
0000
0100
0010
,
0110
0000
0001
0000
1000
0000
0010
0000
0100
0000
0001
0000
1000
0100
0000
0001
,
0000
0000
0100
0000
1000
0100
0000
0010
0000
0000
0001
0000
0010
0000
0100
0000
,
1000
0000
0001
0000
1000
0001
0000
1000
0001
0000
0100
0000
0010
0100
0000
0100
,
0010
0100
0010
0100
0010
0110
0000
0010
,
0100
0000
0001
0000
1000
0000
0010
0000
0001
0000
0010
0000
1000
0001
0000
0001
,
1000
0000
0100
0000
0010
0100
0000
0100
0010
0000
0001
0000
1000
0000
0010
0100
,
0001
0000
1000
0000
0001
0100
0000
0001
0000
0000
1000
0100
0010
0001
0000
0100
,
0000
0000
0010
0000
0100
0010
0100
0000
0001
0010
0001
0010
0100
0010
0001
0000
,
1001
0000
0100
0000
0000
0000
0010
0000
0100
0000
0001
0000
0100
0001
0000
0001
,
0100
0000
0010
0000
0010
0100
0000
0100
0001
0000
1000
0010
0100
0000
0010
0100
,
0010
0000
0100
0000
0100
0001
0000
0001
0100
0000
0010
0000
0010
1000
0000
1000
,
0001
1000
0010
0100
0001
0011
0000
0001
,
1000
0000
0010
0000
0100
0000
0010
0000
0100
0000
0001
0100
0000
0001
0100
0000
,
0001
0000
1000
0000
1000
0001
0000
0001
0100
0000
0010
0000
0100
0010
0100
0000
,
0010
0000
1000
0000
0100
0010
0000
0100
1000
0000
0001
0000
0001
1000
0000
0002
,
0000
0000
0203
0000
0000
0000
0310
0000
0000
0000
0100
0000
0000
0000
0010
0100
,
0010
0000
1000
0000
0100
1000
0000
0010
0100
0000
0001
0000
0010
0001
0000
0100
,
0010
0000
0100
0000
0010
0000
1000
0000
0001
0000
0010
0100
0010
0100
1000
0000
,
0010
0000
0100
0000
0100
0001
0000
0100
0000
0000
0010
0000
0100
0010
0000
0100
,
0010
1000
0001
0100
0001
1000
1001
0000
,
0110
0000
0010
0100
0010
0100
0000
0010
0000
0000
0100
0000
0001
0100
0000
0001
,
0100
0000
0010
0000
1000
0000
0010
0000
0100
0000
0001
0010
0100
0010
0001
0000
,
0010
0000
0001
0000
0001
0100
0000
0100
0001
0000
1000
0000
0010
1000
0000
1000
,
0010
0000
0100
0010
0100
0000
0000
0000
,
0110
0000
0100
0000
0001
1000
0001
1000
0000
0001
0010
0100
1000
0000
0001
0000
,
0100
0000
0010
0000
0100
0001
0010
0100
0000
0010
0001
0010
0001
0000
1000
0000
,
0100
0000
0010
0000
0010
0001
0000
0001
0000
1000
0000
0001
1000
0000
0001
0000
,
0100
0010
0000
0000
0110
0000
0000
0110
0000
0000
0000
0000
0010
0000
0000
0000
,
1000
0100
0010
0001
1000
0100
0010
0001
,
1000
0100
1000
0000
0001
0000
0010
0000
0100
0000
1000
0000
0001
0000
0010
0000
,
0100
1000
0100
0010
0001
0100
0010
1000
,
0100
0000
0010
0000
0001
0000
1000
0000
0001
1000
0001
1000
0001
1000
0000
0000
,
0001
0010
0100
0010
0001
0010
0100
0010
,
0001
1000
1001
0000
1100
0000
0011
0000
,
0010
0100
0010
0001
0100
0010
0001
0010
,
0100
0000
0001
0100
0001
0100
0001
0100
0001
0000
0000
0000
0000
0000
0000
0000
,
0100
0000
0000
0000
0001
0000
0100
0001
0100
0001
0100
0000
0001
0000
0010
0001
,
1000
0000
0000
0000
0001
0000
1000
0100
1000
0010
1000
0000
0010
0000
1000
0010
,
0100
0000
0000
0000
0001
0000
0100
0001
0100
0010
0100
0000
0001
0000
0100
0010
,
0100
0000
0000
0000
0000
0000
0000
0000
0010
0000
0000
0000
0010
0100
0000
0010
,
0100
0000
0001
0000
1000
0000
0001
1000
0001
0000
1000
0100
0010
0000
0001
0000
,
1000
0000
0010
0000
0100
0000
0010
0100
0010
0000
0100
0000
0001
0000
0010
0000
,
0001
0000
1000
0010
0100
0000
0001
0000
1000
0000
0010
0000
0100
0000
0001
0010
,
0001
0000
1000
0100
0000
0100
0000
0000
0100
1000
0000
0100
0000
1100
0000
0000
,
0001
0000
1000
0001
0100
0000
0010
0001
0010
0000
1000
0100
0010
0000
0001
0000
,
0100
0000
0000
0000
0000
0000
0010
0000
0000
0100
0000
0000
0010
0000
0000
0000
0000
0000
0100
0000
0000
0010
0000
0000
0100
0000
0000
0000
0000
0000
0010
0000
0000
0100
0000
0000
0010
0000
0000
0000
0000
0000
0000
0000
0000
0000
1000
0000
,
0001
0000
1000
0001
0000
1000
0001
0000
0000
0000
0000
1000
0001
0000
1000
0001
0000
1000
0001
0000
0000
0000
0000
0000
,
0100
0010
0100
0010
0000
0000
0100
0010
1000
0001
0000
0000
1000
0100
1000
0100
,
0000
0000
0020
0000
0000
0000
0000
0030
,
0001
0010
0001
0010
0001
0010
0001
0010
0001
0000
0010
0000
0001
0000
0010
0001
,
0010
0001
0010
0001
0010
0000
0100
1000
0100
1000
0100
1000
0100
1000
0100
0000
,
1000
0100
1000
0100
1000
0200
0000
0000
0000
0000
0000
0000
0000
0000
0000
0000
,
0300
0010
0000
0000
0000
0000
0000
0000
0000
0000
0000
0000
0000
0000
0000
0000
;
