#VERSION:0.83;
#TITLE:Sunny Sunday's Sky;
#SUBTITLE:;
#ARTIST:Ariko Shimada;
#TITLETRANSLIT:;
#SUBTITLETRANSLIT:;
#ARTISTTRANSLIT:;
#GENRE:NEOMOTOWN;
#ORIGIN:;
#CREDIT:from pop n music 11 AC / 9 CS;
#BANNER:Ariko Shimada - Sunny Sunday's Sky.png;
#BACKGROUND:;
#PREVIEWVID:;
#JACKET:;
#CDIMAGE:;
#DISCIMAGE:;
#LYRICSPATH:;
#CDTITLE:;
#MUSIC:Ariko Shimada - Sunny Sunday's Sky.mp3;
#OFFSET:-0.028000;
#SAMPLESTART:14.891000;
#SAMPLELENGTH:17.000000;
#SELECTABLE:YES;
#BPMS:0.000=133.000;
#STOPS:;
#DELAYS:;
#WARPS:;
#TIMESIGNATURES:0.000=4=4;
#TICKCOUNTS:0.000=4;
#COMBOS:0.000=1;
#SPEEDS:0.000=1.000=0.000=0;
#SCROLLS:0.000=1.000;
#FAKES:;
#LABELS:0.000=Song Start;
#BGCHANGES:;
#KEYSOUNDS:;
#ATTACKS:
;

//---------------dance-single - ----------------
#NOTEDATA:;
#CHARTNAME:;
#STEPSTYPE:dance-single;
#DESCRIPTION:;
#CHARTSTYLE:;
#DIFFICULTY:Beginner;
#METER:2;
#RADARVALUES:0.125937,0.159459,0.038892,0.000000,0.000000,68.000000,65.000000,3.000000,0.000000,0.000000,0.000000,0.000000,0.000000,0.000000,0.125937,0.159459,0.038892,0.000000,0.000000,68.000000,65.000000,3.000000,0.000000,0.000000,0.000000,0.000000,0.000000,0.000000;
#CREDIT:;
#NOTES:
0000
0100
0000
0000
,
0000
0000
0000
0000
,
0000
0100
0000
0000
,
0000
0000
0000
0000
,
0000
0110
0000
0000
,
0000
0100
0000
0000
,
0000
0100
0000
0000
,
0000
0000
0000
0000
,
0001
0001
0000
0000
,
1000
1000
0000
0000
,
1000
1000
0000
0000
,
0001
0001
0000
0000
,
0100
0100
0000
0000
,
0010
0010
0000
0000
,
1000
0001
0000
0000
,
0001
1000
0000
0000
,
0000
1001
0000
1000
,
0000
0001
0000
1000
,
0000
0001
0000
1000
,
0000
0001
0000
0000
,
0000
1000
0000
1000
,
0000
1000
0000
0000
,
0000
0001
0000
0001
,
0000
0001
0000
0000
,
0000
0001
0000
0010
,
0000
0001
0000
0000
,
0000
1000
0000
0100
,
0000
1000
0000
0000
,
0000
1000
0000
0010
,
0000
1000
0000
0000
,
0000
0001
0001
0001
,
0000
0000
0000
0001
,
0000
0001
0001
0001
,
0000
0000
0000
1000
,
0000
1000
1000
1000
,
0000
0000
0000
1000
,
0000
1000
1000
1000
,
0000
0000
0000
0001
,
0000
1001
0000
0000
,
0000
1000
1000
0000
,
0000
0001
0001
0000
,
0100
0000
0000
0000
;

//---------------dance-single - ----------------
#NOTEDATA:;
#CHARTNAME:;
#STEPSTYPE:dance-single;
#DESCRIPTION:;
#CHARTSTYLE:;
#DIFFICULTY:Easy;
#METER:5;
#RADARVALUES:0.275950,0.295906,0.194462,0.038892,0.000000,149.000000,134.000000,15.000000,3.000000,0.000000,0.000000,0.000000,0.000000,0.000000,0.275950,0.295906,0.194462,0.038892,0.000000,149.000000,134.000000,15.000000,3.000000,0.000000,0.000000,0.000000,0.000000,0.000000;
#CREDIT:;
#NOTES:
0000
0100
0010
0100
,
0110
0100
0001
1000
,
0010
0110
0100
0001
,
0100
1000
0100
0001
,
0000
0101
0100
0001
,
0100
0100
0010
0010
,
0100
0110
1000
1000
,
0000
0002
0000
0000
0003
0000
0000
0000
,
0001
0011
0000
0001
,
1000
0100
0000
1000
,
0100
1000
0010
0001
,
0000
1000
0010
0100
,
0000
0110
0000
1000
,
0001
0010
0010
0100
,
1000
0001
1000
0100
,
1000
0100
0000
0010
,
0000
0001
0001
1000
,
0100
0010
0000
0001
,
0100
0101
0001
1000
,
0001
0010
0000
0001
,
0000
1100
1000
0100
,
1000
0100
0010
0100
,
0010
0002
0000
0103
,
0100
0100
0010
0010
,
0010
0110
1001
0010
,
0000
0001
1000
1001
,
0000
1000
0010
0100
,
0000
0001
1000
0100
,
0000
1000
0100
0010
,
0010
0001
1000
1000
,
0100
0110
0000
0001
,
0001
1000
0000
1000
,
0000
1000
1000
0001
,
0001
0100
0000
0010
,
0000
1001
1000
1000
,
0001
1000
0000
0001
,
0000
1000
0010
1000
,
0100
1000
0000
0001
,
0010
0011
0000
0001
,
0010
1000
0000
0010
,
0001
0011
0000
0001
,
0000
0200
0000
0000
0300
0000
0000
0000
;

//---------------dance-single - ----------------
#NOTEDATA:;
#CHARTNAME:;
#STEPSTYPE:dance-single;
#DESCRIPTION:;
#CHARTSTYLE:;
#DIFFICULTY:Medium;
#METER:8;
#RADARVALUES:0.440780,0.403508,0.142605,0.025928,0.000000,238.000000,227.000000,11.000000,2.000000,0.000000,0.000000,0.000000,0.000000,0.000000,0.440780,0.403508,0.142605,0.025928,0.000000,238.000000,227.000000,11.000000,2.000000,0.000000,0.000000,0.000000,0.000000,0.000000;
#CREDIT:;
#NOTES:
0000
0000
0100
0000
0010
0100
0000
0010
,
0100
0010
0100
0000
0001
1000
0000
1000
,
0010
0000
0110
0000
0100
0001
0100
0001
,
0100
0001
0000
0000
0100
0000
0011
0000
,
0100
0000
0101
0000
1000
0010
0000
0100
,
0001
0100
0001
0000
0100
0010
0000
0010
,
0100
0000
0110
0000
1000
0001
1000
0001
,
1000
0002
0000
0000
0003
0000
0000
0000
,
0100
0000
0011
0000
0100
0000
0001
1000
,
0001
0000
0110
0000
0001
0000
1000
0010
,
0100
0000
0001
0010
0001
0010
0001
0000
,
1000
0100
1000
0000
0010
0000
0100
0010
,
0100
0000
0110
0000
0100
0001
0000
0100
,
0001
0100
0000
0001
0010
0100
1000
0000
,
1000
0100
0001
0100
1000
0000
0100
1000
,
0000
1000
0100
0000
0000
0000
0011
0000
,
0001
0000
0100
0010
0100
0010
1000
0000
,
0100
0000
0010
0000
0001
0000
0010
0001
,
0100
0010
0100
0000
0001
0010
0100
0000
,
0010
0001
0010
0001
0000
0010
0001
0000
,
1000
0100
0100
0000
1000
0100
0000
1000
,
0010
0100
0010
0000
0010
0100
0001
0000
,
1000
0010
0100
0010
0000
0100
0000
0010
,
0100
0010
0100
0000
0010
0000
0100
0000
,
0010
0000
0100
0100
0100
0000
0010
0010
,
0010
0000
1000
0001
1000
0000
0001
0010
,
0001
0010
0001
0000
0010
0001
0100
0000
,
0001
0000
0010
0001
0100
0000
0001
0000
,
0010
0001
1000
0000
0001
0000
0010
0001
,
0100
0000
0001
0100
0010
0000
1000
0100
,
0010
0000
0010
0001
0010
0000
0001
0010
,
0001
0000
1000
0100
0000
1000
0100
0010
,
0001
0000
1000
0000
1001
0000
0001
0010
,
0001
0010
0001
0000
0100
0001
0010
0000
,
0011
0000
1000
0100
1000
0100
1000
0000
,
0001
0000
0011
0000
0001
0010
0001
0010
,
0001
0000
1000
0000
0010
1000
0010
0000
,
0100
0010
0000
0100
0010
0100
0010
0000
,
0100
0010
0100
0000
0010
1000
0010
0100
,
0010
0000
1000
0000
0000
0100
0000
0000
,
0001
0000
0010
0001
0100
0000
0001
0100
,
0001
0200
0000
0000
0300
0000
0000
0000
;

//---------------dance-single - ----------------
#NOTEDATA:;
#CHARTNAME:;
#STEPSTYPE:dance-single;
#DESCRIPTION:;
#CHARTSTYLE:;
#DIFFICULTY:Hard;
#METER:12;
#RADARVALUES:0.537085,0.538011,0.194462,0.168533,0.110195,290.000000,275.000000,15.000000,13.000000,0.000000,0.000000,0.000000,0.000000,0.000000,0.537085,0.538011,0.194462,0.168533,0.110195,290.000000,275.000000,15.000000,13.000000,0.000000,0.000000,0.000000,0.000000,0.000000;
#CREDIT:;
#NOTES:
// measure 0
0000
0000
0000
0000
0100
0000
0000
0000
0010
0000
1000
0010
1000
0000
0010
0000
,  // measure 1
0100
0020
0030
0100
0001
2000
0001
3000
,  // measure 2
0010
0100
0110
0000
0100
0010
0100
0001
,  // measure 3
0100
0020
0030
0000
0100
0001
0010
0100
,  // measure 4
0100
0010
0101
0000
0001
0010
0000
0100
,  // measure 5
0010
0000
0100
0000
0010
0000
0000
0001
0100
0000
0010
0000
1000
0000
0010
0100
,  // measure 6
0010
0000
0110
0000
1000
0001
0100
0001
,  // measure 7
1000
0000
0002
0000
0000
0000
0000
0000
0003
0000
0000
0000
0000
0000
0100
0010
,  // measure 8
0100
0000
0011
0001
0010
0100
0010
0001
,  // measure 9
1000
0010
0100
0001
0000
0001
1000
0110
,  // measure 10
0000
0200
0300
0010
0001
0010
0100
0010
,  // measure 11
1000
0010
0100
0001
0000
0110
0100
0010
,  // measure 12
0000
0100
0110
0000
0001
0010
0000
0100
,  // measure 13
0010
0100
1000
0010
0100
1000
0100
0010
,  // measure 14
1000
0100
0001
0100
1000
0100
0110
0020
,  // measure 15
0030
0000
0000
0000
0010
0100
0010
0000
0000
0001
0000
0000
0011
0000
0000
0000
,  // measure 16
0001
0010
0001
0000
0100
0000
0010
0000
0100
0000
0010
0000
1000
0000
0100
0000
,  // measure 17
0010
0000
0001
0000
0010
0000
0100
0000
0010
0000
0100
0000
1000
0000
0001
0100
,  // measure 18
0001
0200
0300
0100
0001
0010
0100
0010
,  // measure 19
0001
1000
1000
0100
0100
0001
0001
0100
,  // measure 20
1000
0100
0011
0000
1000
0100
0000
0010
,  // measure 21
1000
0100
0010
0000
0010
0100
0100
1000
,  // measure 22
0001
1000
0001
1000
0001
0000
0000
0000
0100
0000
0100
0000
0000
0000
0010
0000
,  // measure 23
0100
0000
0100
0001
0010
0000
0100
0000
,  // measure 24
0010
0000
0100
1000
0100
0010
0001
0010
,  // measure 25
1000
0010
0001
0001
0000
1000
0001
0010
,  // measure 26
0100
0010
0002
0003
0000
0001
0100
0010
,  // measure 27
0100
0001
0010
0100
0010
0001
1000
0000
,  // measure 28
0010
0010
2000
3000
0001
0010
0001
0000
,  // measure 29
0100
0000
0000
0000
0001
0100
0001
0100
0001
0000
0000
0000
1000
0100
1000
0100
,  // measure 30
1000
0100
1000
0100
1000
0000
0000
0000
0010
0000
0100
0000
0001
0000
0010
0000
,  // measure 31
0000
0011
0000
0100
0000
1000
0100
0010
,  // measure 32
0100
0010
0110
0001
0000
1000
0001
0010
,  // measure 33
0001
0000
0020
0000
0000
0000
0130
0000
1000
0000
0001
1000
0000
0000
0000
0000
,  // measure 34
0011
0000
0010
0100
1000
0100
1000
0010
,  // measure 35
0000
0101
0000
0001
0000
0010
0000
0010
,  // measure 36
0100
0010
0100
1000
1000
0001
0010
0001
,  // measure 37
0100
0020
0030
0100
0001
0100
0000
0000
,  // measure 38
0001
0010
0011
0000
1000
0010
0000
1000
,  // measure 39
0010
0100
0010
0000
0010
0200
0000
0300
,  // measure 40
0001
0000
0010
0000
0100
0010
0001
0100
,  // measure 41
0001
0200
0000
0000
0300
0000
0000
0000
;
