#TITLE:Stella Glow - Onwards, Time to Attack!;
#SUBTITLE:;
#ARTIST:PROCYON STUDIO;
#TITLETRANSLIT:;
#SUBTITLETRANSLIT:;
#ARTISTTRANSLIT:;
#GENRE:;
#CREDIT:;
#BANNER:Stella Glow - Onwards, Time to Attack!.png;
#BACKGROUND:;
#LYRICSPATH:;
#CDTITLE:;
#MUSIC:Stella Glow - Onwards, Time to Attack!.ogg;
#OFFSET:-0.092000;
#SAMPLESTART:33.491001;
#SAMPLELENGTH:17.000000;
#SELECTABLE:YES;
#BPMS:0.000000=150.031006
;
#STOPS:
;
#BGCHANGES:;
#KEYSOUNDS:;
#ATTACKS:;

//---------------dance-single - ----------------
#NOTES:
     dance-single:
     :
     Beginner:
     2:
     0.076671,0.120241,0.072248,0.092890,0.000000,52.000000,45.000000,7.000000,9.000000,0.000000,0.000000,0.076671,0.120241,0.072248,0.092890,0.000000,52.000000,45.000000,7.000000,9.000000,0.000000,0.000000:
0000
0000
0000
0000
,
0000
0000
0000
0000
,
0000
0000
0000
0000
,
0000
0000
0000
0010
,
0000
0000
0000
0000
,
0000
0000
0010
0000
,
0000
0000
0000
0000
,
0000
1000
0000
0000
,
0000
0001
0000
0000
,
0100
0000
0000
0000
,
0000
0000
0010
0000
,
0000
0000
0010
0000
,
0000
0000
0200
0000
,
0000
0300
0000
0000
,
0000
0001
0000
0000
,
0000
1000
0000
0000
,
0000
0002
0000
0003
,
0000
0000
1000
0000
,
0000
0000
0100
0000
,
0000
0000
2000
0000
,
0000
3000
0000
0000
,
0000
1001
0000
0000
,
0001
0000
0000
0001
,
0000
0000
0000
0000
,
0000
1000
0000
0000
,
1000
0000
0000
1000
,
0000
0000
0000
0000
,
0000
0101
0000
0000
,
0001
0000
0000
0001
,
0000
0000
0000
0000
,
0000
0100
0000
0000
,
0100
0000
0000
0200
,
0000
0300
0000
0000
,
0000
0002
0000
0000
,
0000
0003
0000
1000
,
0000
0000
0000
0000
,
0000
1001
0000
0000
,
0000
0000
0000
1001
,
0000
0000
0000
0000
,
0000
0110
0000
0000
,
0000
0000
0000
0001
,
0000
0001
0000
0000
,
0000
0000
0100
0000
,
0100
0000
0000
0000
,
0000
0020
0000
0000
,
0000
0030
0000
0000
,
0200
0000
0000
0000
,
0300
0000
0000
0001
,
0000
0000
0000
0001
,
0000
0000
1000
0000
,
0000
0000
1000
0000
,
0000
0000
0000
0000
,
0000
0000
0000
0000
,
0202
0000
0000
0000
,
0000
0303
0000
0101
,
0000
0000
0000
0000
,
0000
0000
0001
0000
,
0000
0000
0000
0000
,
0000
0100
0000
0000
;

//---------------dance-single - ----------------
#NOTES:
     dance-single:
     :
     Easy:
     4:
     0.172510,0.210421,0.103211,0.175459,0.000000,117.000000,107.000000,10.000000,17.000000,0.000000,0.000000,0.172510,0.210421,0.103211,0.175459,0.000000,117.000000,107.000000,10.000000,17.000000,0.000000,0.000000:
0000
0000
0000
0000
,
0000
0000
0000
0000
,
0100
0000
0000
0100
,
0000
0000
0001
1001
,
0000
0000
0100
0000
,
0000
0010
0110
0000
,
0000
0001
0000
0000
,
1000
2000
0000
3001
,
0000
0001
0000
0100
,
0200
0000
0310
0000
,
0000
0000
0220
0000
,
0330
0000
2002
0000
,
3003
0000
0002
0003
,
0000
2000
3000
0000
,
0000
0011
0000
0000
,
1001
0000
0000
1100
,
0000
0000
0000
0010
,
0000
0100
0200
0000
,
0300
0000
0001
0000
,
1000
0000
0001
0200
,
0000
0300
0000
0000
,
0100
0200
0300
0000
,
0010
0010
0010
0010
,
0000
0000
1001
0000
,
0000
1000
0001
0000
,
0001
1000
0000
1000
,
0010
0000
1000
0100
,
0000
0002
0000
0003
,
0100
0100
0100
0100
,
0000
0000
0002
0000
,
0003
1000
0010
0000
,
0010
1000
0000
0002
,
0000
0003
0200
0000
,
0300
0020
0000
0030
,
0000
0100
0000
0100
,
0000
0100
0000
0000
,
0100
0100
0000
0000
,
0001
0000
1000
0001
,
0000
0000
0100
0000
,
0010
0110
0000
0000
,
0001
0000
1000
0100
,
0000
1000
0000
0001
,
0000
0100
0001
0100
,
0000
0001
1000
0001
,
0000
1000
0100
1000
,
0100
0000
0000
0010
,
0001
0010
0001
0000
,
0100
0000
0000
0100
,
0000
0010
0000
1000
,
0001
1000
0001
0000
,
0100
0000
0010
0000
,
0100
0000
0010
0000
,
0010
0000
0000
0000
,
0100
0000
0100
0000
,
0000
0000
0001
2000
,
3000
0000
0001
0000
,
0000
0000
0100
0000
,
0000
0010
0000
0000
,
0000
0110
0000
0000
;

//---------------dance-single - ----------------
#NOTES:
     dance-single:
     :
     Medium:
     7:
     0.284567,0.360722,0.237385,0.134174,0.000000,193.000000,170.000000,23.000000,13.000000,0.000000,0.000000,0.284567,0.360722,0.237385,0.134174,0.000000,193.000000,170.000000,23.000000,13.000000,0.000000,0.000000:
0000
0000
0000
0000
,
0000
0000
0000
0000
,
0110
0000
0000
0110
0000
0000
1000
0000
,
0000
0001
0000
0100
0000
0000
0110
0000
,
0000
0101
0000
0000
0001
0000
0000
1000
,
0000
0000
0000
0000
0001
0000
0000
0100
,
0000
0000
0010
0000
0000
0100
0000
0000
,
0001
0000
1000
0000
0000
1000
0000
0001
,
0000
0100
0010
0110
,
0000
0200
0000
0300
,
0010
0000
0100
0000
0101
0000
0000
1000
,
0000
0001
0000
0000
0100
0000
0000
0010
,
0000
0100
0000
0000
0010
0000
0000
1000
,
0000
0001
0000
1000
,
0010
0200
0000
0300
,
0001
0000
0000
1001
0000
1000
0000
0000
,
0002
0000
0000
0100
0003
0000
0100
0000
,
0000
0000
0010
0000
1001
0000
0000
1001
,
0000
0000
0100
0000
0010
0000
0000
0100
,
0000
0010
0000
0000
0202
0000
0000
0000
,
0303
0000
0001
0000
0000
1000
0000
0000
,
0001
0000
0200
0000
0000
0000
0300
0001
,
0100
0100
0010
1000
,
0002
0000
0003
1000
0001
0000
0000
0000
,
1000
0001
0101
0010
,
1000
1100
0010
0001
,
0101
0000
0000
0001
0100
0000
0000
0000
,
0001
0000
2000
0000
0000
0000
3000
0001
,
0100
0100
0100
0010
,
0220
0330
0100
0000
,
0010
0100
0110
0001
,
1000
1001
0100
0002
,
0000
0103
0020
0000
,
1030
0002
0000
0003
,
0000
1000
0000
1000
,
0000
0001
0000
0100
0000
0001
0000
0000
,
0100
0000
0101
0000
0000
0001
0000
0010
,
0000
0100
0000
0000
0010
0000
0011
0000
,
0000
1000
0000
0010
0000
1000
0000
0000
,
0010
0000
1010
0000
0000
0100
0000
0001
,
0000
0100
0000
0000
0010
0000
0100
0000
,
0100
0000
0010
0000
0000
0100
0000
0010
,
0000
1000
0000
0000
0001
0000
1000
0000
,
1001
0000
0000
0001
0000
0100
0000
0001
,
0000
0100
0010
0100
,
0000
0010
0000
1000
0000
0100
0000
0000
,
1000
0000
1000
0000
1000
0000
0000
0001
,
0000
0100
0000
0010
0000
0000
0100
0000
,
0001
0000
0100
0000
0000
0001
0000
0100
,
0000
0001
0000
0000
0100
0000
0001
0000
,
0100
0000
0000
0001
0000
1000
0000
0010
,
0000
0100
0100
0000
,
0000
0100
0000
0100
0000
0100
0000
0000
,
0001
0000
0001
0000
0000
0000
0000
0010
,
0000
0010
0000
0010
0000
0000
1001
0000
,
0000
1000
0000
0000
0001
0000
0000
0100
,
0000
0010
0000
0000
0100
0000
0000
0110
,
0000
0000
0010
0000
0000
0101
0000
0000
,
0000
0001
0000
0000
;

//---------------dance-single - ----------------
#NOTES:
     dance-single:
     :
     Hard:
     9:
     0.446756,0.450903,0.082569,0.175459,0.000000,303.000000,295.000000,8.000000,17.000000,0.000000,0.000000,0.446756,0.450903,0.082569,0.175459,0.000000,303.000000,295.000000,8.000000,17.000000,0.000000,0.000000:
// measure 0
0000
0000
0000
0000
,  // measure 1
0000
0000
0000
0000
,  // measure 2
0100
0010
0100
0010
0000
0000
0010
0100
,  // measure 3
0010
0100
0000
0001
0100
0000
0101
0000
,  // measure 4
0001
0100
0000
0000
0001
1000
0001
1000
,  // measure 5
0000
1000
0001
1000
0001
0000
0100
0001
,  // measure 6
0000
0000
0100
0010
0100
0001
0000
0000
,  // measure 7
0010
0100
0002
0000
0000
0000
0003
1000
,  // measure 8
0010
0100
0010
0100
0001
0000
0000
1000
,  // measure 9
0100
0010
0002
0000
0000
0000
0103
0000
,  // measure 10
0000
0001
0010
0100
1000
0001
0010
0002
,  // measure 11
0000
0000
0003
0100
0010
0200
0000
0000
,  // measure 12
0000
0310
0100
0001
0100
0002
0000
0000
,  // measure 13
0003
0000
1000
0001
1000
0001
0000
0000
,  // measure 14
0100
0010
2000
0000
0000
0000
3000
0001
,  // measure 15
0010
0100
1000
0001
0010
0000
0000
0001
,  // measure 16
1000
0010
0200
0000
0000
0000
0300
0000
,  // measure 17
0000
0010
0100
0010
1000
0001
0100
0001
,  // measure 18
0000
0001
0100
0000
0010
0100
0000
1000
,  // measure 19
0100
0001
0010
0100
1000
0000
0002
0000
,  // measure 20
0000
0000
0103
0010
0100
0010
0000
0100
,  // measure 21
0010
1000
0002
0000
0103
0000
0100
0001
,  // measure 22
0010
0000
0010
0000
0100
0000
1000
0100
,  // measure 23
0020
0000
0031
0001
0010
0000
0100
0000
,  // measure 24
1000
0000
0001
0000
0110
0000
0010
0100
,  // measure 25
0010
0000
0100
0000
0001
0100
0001
0000
,  // measure 26
2000
0000
0000
3001
1000
0000
0001
0000
,  // measure 27
0100
0010
0200
0000
0310
0000
0010
1000
,  // measure 28
0001
0000
0001
0000
1000
0000
0010
1000
,  // measure 29
0020
0000
0130
0100
0001
0000
1000
0000
,  // measure 30
0010
0100
0010
0000
0101
0000
0010
0100
,  // measure 31
0010
0000
1010
0000
0100
0010
0100
0000
,  // measure 32
0101
0000
0002
0000
,  // measure 33
1003
2002
0000
0000
,  // measure 34
3003
0000
0001
0000
0100
0000
0010
0100
,  // measure 35
0000
0010
0000
1000
0000
0001
0000
0100
,  // measure 36
0001
0100
0001
0100
0000
0001
1000
0001
,  // measure 37
0000
1000
0000
1000
0001
0100
0001
1000
,  // measure 38
0000
0001
0000
0100
0001
0100
0000
0001
,  // measure 39
0010
0100
1000
0001
0000
0001
0000
0001
,  // measure 40
0000
0100
0000
0010
0100
0001
0100
0000
,  // measure 41
0010
0000
0100
0010
0000
0010
0100
0010
,  // measure 42
0100
0010
0100
0000
0001
0000
1001
0000
,  // measure 43
1000
0001
0000
0001
0000
1000
0001
1000
,  // measure 44
0001
0000
2000
0000
3001
0000
0001
0100
,  // measure 45
0000
0001
0100
0001
0100
0001
0100
0000
,  // measure 46
0010
0000
1010
0000
1000
0100
0000
1000
,  // measure 47
0010
0100
0001
1000
0001
0000
0100
0000
,  // measure 48
0010
0000
0100
0010
0100
0010
0000
0100
,  // measure 49
0010
0100
0010
1000
0001
0000
1000
0000
,  // measure 50
0001
0100
0001
0100
0000
0001
1000
0001
,  // measure 51
1000
0001
1000
0000
0001
0000
0010
0010
,  // measure 52
0000
0001
0000
0001
1000
0010
1000
0000
,  // measure 53
0100
0000
0100
0000
1000
1000
0000
0100
,  // measure 54
0000
1000
0010
0100
0010
0000
0100
0001
,  // measure 55
0100
0010
0000
0000
0010
0100
0001
0100
,  // measure 56
0000
0001
0100
0001
1000
0001
1000
0001
,  // measure 57
0000
0000
1000
0100
0010
0001
0000
1000
,  // measure 58
0001
1000
0001
0000
0000
0000
0000
0000
;
