#TITLE:Stella Glow - Onwards, Time to Attack! ~ Eclipse;
#SUBTITLE:;
#ARTIST:PROCYON STUDIO;
#TITLETRANSLIT:;
#SUBTITLETRANSLIT:;
#ARTISTTRANSLIT:;
#GENRE:;
#CREDIT:;
#BANNER:;
#BACKGROUND:;
#LYRICSPATH:;
#CDTITLE:;
#MUSIC:Stella Glow - Onwards, Time to Attack! ~ Eclipse.ogg;
#OFFSET:-0.483000;
#SAMPLESTART:0.450000;
#SAMPLELENGTH:16.000000;
#SELECTABLE:YES;
#BPMS:0.000000=160.000000
;
#STOPS:
;
#BGCHANGES:;
#KEYSOUNDS:;
#ATTACKS:;

//---------------dance-single - ----------------
#NOTES:
     dance-single:
     :
     Beginner:
     1:
     0.068144,0.124022,0.085861,0.019080,0.000000,50.000000,41.000000,9.000000,2.000000,0.000000,0.000000,0.068144,0.124022,0.085861,0.019080,0.000000,50.000000,41.000000,9.000000,2.000000,0.000000,0.000000:
0000
0000
0000
0000
,
0000
0000
0000
0000
,
0000
0000
0000
0000
,
0000
0000
0000
0000
,
0100
0000
0000
0000
,
0100
0000
0000
0000
,
0100
0000
0000
0000
,
0000
0000
0000
0000
,
1000
0000
0000
0000
,
0001
0000
0000
0000
,
1000
0000
0000
0000
,
0000
0000
0000
0000
,
0001
0000
0000
0000
,
0100
0000
0000
0000
,
0001
0000
0000
0000
,
0000
0000
0000
0000
,
1001
0000
0000
0000
,
0000
0000
0000
0000
,
1001
0000
0000
0000
,
0000
0000
0000
0000
,
0110
0000
0000
0000
,
0000
0000
0000
0000
,
0110
0000
0000
0000
,
0000
0000
0000
0000
,
1000
0000
0000
0000
,
1000
0000
0000
0000
,
1000
0000
0000
0000
,
0000
0000
0000
0000
,
0001
0000
0000
0000
,
0001
0000
0000
0000
,
0001
0000
0000
0000
,
0000
0000
0000
0000
,
0100
0000
0000
0000
,
0100
0000
0000
0000
,
0100
0000
0000
0000
,
0000
0000
0000
0000
,
0010
0000
0000
0000
,
0000
0000
0000
0000
,
0010
0000
0000
0000
,
0010
0000
0000
0000
,
0010
0000
0000
0000
,
0110
0000
0000
0000
,
0000
0000
0000
0000
,
1001
0000
0000
0000
,
0000
0000
0000
0000
,
1000
0000
0000
0000
,
1000
0000
0000
0000
,
1000
0000
0000
0000
,
0000
0000
0000
0000
,
1001
0000
0000
0000
,
0000
0000
0000
0000
,
1001
0000
0000
0000
,
0000
0000
0000
0000
,
0010
0000
0000
0000
,
0010
0000
0000
0000
,
0010
0000
0000
0000
,
0000
0000
0000
0000
,
0200
0000
0000
0300
,
0000
0000
0000
0000
,
0002
0000
0000
0003
,
0000
0000
0000
0000
,
1001
0000
0000
0000
,
0000
0000
0000
0000
,
1000
0000
0000
0000
,
0000
0000
0000
0000
,
0001
0000
0000
0000
;

//---------------dance-single - ----------------
#NOTES:
     dance-single:
     :
     Easy:
     4:
     0.159457,0.248044,0.171723,0.286205,0.000000,117.000000,99.000000,18.000000,30.000000,0.000000,0.000000,0.159457,0.248044,0.171723,0.286205,0.000000,117.000000,99.000000,18.000000,30.000000,0.000000,0.000000:
0000
0000
0000
0000
,
0000
0000
0000
0000
,
1001
0000
0000
0000
,
0000
0000
0000
0000
,
0100
0000
0000
0000
,
0100
0000
0001
0000
,
0100
0000
0001
0000
,
1000
0000
0100
0000
,
2000
0000
3000
0000
,
0002
0000
0203
0300
,
0020
0000
0030
0000
,
1000
0000
0001
0000
,
2000
0000
3000
0000
,
0020
0030
0200
0300
,
0002
0000
0003
0000
,
1000
0000
0001
0000
,
1001
0000
0000
1001
,
0000
0000
1000
0001
,
1000
0000
0000
0101
,
0000
0000
0101
0000
,
0110
0000
0000
1010
,
0000
0000
0101
0000
,
0110
0000
0000
1010
,
0000
0000
1000
0001
,
1000
0000
0000
0001
,
1000
0000
2000
3000
,
0002
0000
0000
0003
,
0100
0000
0100
0000
,
0001
0000
1000
0000
,
0100
0000
0010
0000
,
0200
0300
2000
0000
,
3002
0000
2003
0000
,
3000
0001
0000
0100
,
0100
0000
0001
0000
,
2000
0000
0000
3000
,
0001
0000
1000
0000
,
0020
0000
0030
0000
,
0200
0000
0300
0000
,
0002
0000
0003
0000
,
2000
0000
3000
0000
,
1001
0000
0000
0000
,
2002
0000
3003
0000
,
1000
0000
0001
0000
,
2002
0000
3003
0000
,
0001
0000
0100
0000
,
0101
0000
0000
0000
,
0101
0000
0000
0000
,
1000
0000
0001
1000
,
0001
0000
1000
0000
,
2200
0000
3300
0000
,
0001
0000
1000
0000
,
2200
0000
3300
0000
,
1000
0000
0100
0000
,
0010
0000
0001
0000
,
0010
0000
1000
0000
,
0020
0000
0000
0030
,
0100
0000
0100
0000
,
0200
0000
0000
0000
,
0000
0000
0000
0300
,
0001
0000
1000
0000
,
0001
0000
1000
0000
,
0001
0000
0000
0000
,
0100
0000
0010
0000
,
0200
0000
0000
0300
,
0001
0000
0010
0000
,
1001
0000
0000
0000
;

//---------------dance-single - ----------------
#NOTES:
     dance-single:
     :
     Medium:
     7:
     0.256222,0.372066,0.190803,0.286205,0.000000,188.000000,168.000000,20.000000,30.000000,0.000000,0.000000,0.256222,0.372066,0.190803,0.286205,0.000000,188.000000,168.000000,20.000000,30.000000,0.000000,0.000000:
0000
0000
0000
0000
,
0100
0000
0010
0000
,
0200
0000
0302
0000
,
2003
0000
3020
0000
,
0031
0000
0000
0010
0000
0000
0010
0000
,
0000
0100
0000
0000
1000
0000
0000
0000
,
0001
0100
0001
0000
0000
0000
0000
0000
,
1000
0100
1000
0000
0000
0000
0001
0000
,
0001
0000
0000
0010
0000
0000
0010
0000
,
0000
1000
0000
0000
0010
0000
0000
0000
,
0100
0000
0000
0001
0000
0000
1000
0000
,
0000
0010
0000
0000
0100
0000
0000
0000
,
0020
0000
0030
0100
,
0200
0000
0310
0010
,
0200
0000
0001
0000
,
0301
0000
1001
0000
,
1000
0001
0000
1000
0001
0000
0001
1000
,
0000
0001
1000
0000
0002
0000
0003
0000
,
1001
0000
0000
0110
0000
0000
1100
0000
,
0000
1100
0000
0000
0001
0000
0100
0000
,
0101
0000
0000
0001
0100
0000
0001
0100
,
0000
0100
0001
0000
0200
0000
0300
0000
,
0011
0000
0000
0011
0000
0000
1100
0000
,
0000
1001
0000
0000
0001
0000
0100
0000
,
0110
0000
0010
1000
,
0001
1000
0001
0100
,
0101
0000
0000
0001
0000
0000
1000
0000
,
0000
1000
0000
0000
0001
0000
0000
0000
,
1000
0010
0100
0001
,
2200
3300
0022
0033
,
2000
0000
0001
0000
,
3002
0000
1003
0000
,
1000
0100
0000
0010
,
0001
0000
0000
0000
1000
0001
1000
0000
,
0002
0000
1000
0000
,
2003
0000
0100
0000
,
3020
0000
0100
0000
,
0130
0000
0010
0000
,
1001
0000
0110
0000
,
0010
0000
1000
0100
,
0010
0000
0100
0010
,
0001
0000
0000
0001
0000
0000
1000
0000
,
0000
1000
0000
0000
0001
0000
0100
0000
,
0001
0000
0000
1000
0000
0000
0010
0000
,
0000
0100
0000
0000
0010
0000
0100
0000
,
0120
0000
0000
0100
0000
0000
0100
0000
,
0030
0100
0000
0000
0010
0000
1000
0000
,
1002
0000
0003
1000
,
0002
0000
0000
1003
,
2000
0000
0000
0001
0000
0000
0001
0000
,
3000
0001
0000
0000
0010
0000
0100
0000
,
0200
0000
0000
1000
0000
0000
1000
0000
,
0300
1000
0000
0000
0100
0000
0010
0000
,
0020
0000
0000
0001
0000
0000
0001
0000
,
0030
0001
0000
0000
0010
0000
0100
0000
,
0010
0000
0000
0001
0000
0000
1000
0000
,
0000
0001
0000
0000
0100
0000
0000
0000
,
0020
0000
0000
0000
,
0000
0000
0000
0030
,
1200
0000
0000
0000
,
0300
0000
0000
0000
,
0210
0000
0000
0000
,
0320
0000
2030
0000
,
3002
0000
0103
0000
,
0010
0100
0010
0100
,
0001
0000
0000
0000
;

//---------------dance-single - ----------------
#NOTES:
     dance-single:
     :
     Hard:
     9:
     0.370704,0.434078,0.209884,0.248044,0.019080,272.000000,250.000000,22.000000,26.000000,0.000000,0.000000,0.370704,0.434078,0.209884,0.248044,0.019080,272.000000,250.000000,22.000000,26.000000,0.000000,0.000000:
// measure 0
0000
0000
0000
0000
,  // measure 1
0100
0000
0010
0000
,  // measure 2
0200
0000
0010
0000
,  // measure 3
0010
0000
0310
0000
,  // measure 4
0110
0000
0000
0010
0000
0000
1000
0000
,  // measure 5
0000
0001
0000
0000
0100
0000
0010
0100
,  // measure 6
0010
0000
0000
0100
0020
0000
0000
0000
,  // measure 7
1000
0030
1000
0001
,  // measure 8
1001
0000
0000
0110
0000
0000
1001
0000
,  // measure 9
0000
0001
0000
0000
0001
0000
0010
0000
,  // measure 10
0011
0000
0000
0001
0000
0000
1000
0000
,  // measure 11
0010
1010
1000
0100
,  // measure 12
1100
0000
0000
0010
0000
0000
0100
0000
,  // measure 13
0020
0000
0130
0010
,  // measure 14
0220
0000
0000
0000
0330
0000
0000
0100
,  // measure 15
0010
0000
0000
0010
0200
0000
0300
0000
,  // measure 16
0001
0100
0000
0010
1000
0000
0001
0100
,  // measure 17
0000
0100
0001
0000
1000
0100
1000
0000
,  // measure 18
0001
1000
0000
0010
0100
0000
0100
0001
,  // measure 19
0000
0001
0100
0000
0010
0100
0010
0000
,  // measure 20
0100
0100
0000
0010
0010
0000
1000
0001
,  // measure 21
0000
0001
1000
0000
0101
0000
1001
0000
,  // measure 22
1000
0100
0000
0010
0001
0000
1000
1000
,  // measure 23
0000
0001
0001
0000
0011
0000
1001
0000
,  // measure 24
0000
0000
0002
0000
0000
0000
1003
0010
,  // measure 25
0100
0000
0010
1000
0200
0000
0000
0000
,  // measure 26
0310
0000
0001
1000
0000
0001
1000
0000
,  // measure 27
0002
0000
0100
0000
0103
0000
0001
0100
,  // measure 28
0001
0000
2000
0000
0000
0000
3010
0100
,  // measure 29
0001
0000
0100
0001
0010
0000
0100
0000
,  // measure 30
0020
0000
2030
0000
,  // measure 31
3001
0100
0010
0100
,  // measure 32
0001
0000
1000
0010
0000
1000
0010
0000
,  // measure 33
0100
0001
0000
0100
0001
0000
1000
0000
,  // measure 34
1001
0000
0001
0100
0000
0010
0100
0000
,  // measure 35
0010
0100
0000
0001
1000
0000
0010
0000
,  // measure 36
2020
0000
0000
0000
0030
0000
3010
0100
,  // measure 37
0020
0000
0100
0130
,  // measure 38
0002
0000
0000
0000
1000
0000
1003
0100
,  // measure 39
0020
0000
0000
0000
0031
0000
1000
0001
,  // measure 40
0000
0001
1000
0000
0001
1000
0001
0000
,  // measure 41
1001
0000
0000
1100
0000
0000
0001
0010
,  // measure 42
0001
0010
0000
0010
0100
0010
0001
0000
,  // measure 43
0101
0000
0000
1010
0000
0000
1000
0100
,  // measure 44
1000
0100
0000
0100
0010
0100
1000
0000
,  // measure 45
0001
0100
0001
0100
0000
0001
0100
0001
,  // measure 46
0100
0000
0000
0001
0000
0000
0000
0000
0000
0000
0000
0000
0010
0000
0000
0000
0100
0000
0000
0000
0010
0000
0000
0000
,  // measure 47
0200
0000
0000
0001
0000
0000
0301
0000
,  // measure 48
0100
0010
0100
0000
0010
0100
0010
0000
,  // measure 49
2000
0000
0000
3001
,  // measure 50
0002
1000
0000
0000
1000
0000
1003
0000
,  // measure 51
0010
0000
0100
0010
0000
0010
0100
0000
,  // measure 52
0001
1000
0001
1000
0001
0000
1000
0000
,  // measure 53
0110
0000
0000
0011
0000
0000
2000
0000
,  // measure 54
0000
0000
0000
0010
0000
0000
0000
0000
0000
0000
0000
0000
3010
0000
0000
0000
0100
0000
0000
0000
0010
0000
0000
0000
,  // measure 55
0200
0000
0000
0010
,  // measure 56
0320
0000
0030
0100
0001
0000
1000
0001
,  // measure 57
2000
0000
0000
0000
,  // measure 58
0001
0000
0001
0000
,  // measure 59
3001
0000
0000
0100
0000
0000
0010
0000
,  // measure 60
0000
0100
0000
0000
0010
0000
0100
0000
,  // measure 61
0200
0000
0000
0000
,  // measure 62
0302
0000
0103
0000
,  // measure 63
0101
0000
0000
0000
0100
0010
1000
0000
,  // measure 64
0010
0000
0100
0000
0010
0100
0010
0000
,  // measure 65
0110
0000
0000
0000
;
