#TITLE:Something About Him;
#SUBTITLE:;
#ARTIST:The School Gyrls;
#TITLETRANSLIT:;
#SUBTITLETRANSLIT:;
#ARTISTTRANSLIT:;
#GENRE:;
#CREDIT:;
#BANNER:;
#BACKGROUND:;
#LYRICSPATH:;
#CDTITLE:;
#MUSIC:05. Something About Him - The School Gyrls (1).ogg;
#OFFSET:-0.301000;
#SAMPLESTART:24.056997;
#SAMPLELENGTH:20.200001;
#SELECTABLE:YES;
#BPMS:0.000000=194.000000
;
#STOPS:
;
#BGCHANGES:;
#KEYSOUNDS:;
#ATTACKS:;

//---------------dance-single - ----------------
#NOTES:
     dance-single:
     :
     Beginner:
     4:
     0.162212,0.192233,0.033072,0.000000,0.000000,103.000000,100.000000,3.000000,0.000000,0.000000,0.000000,0.162212,0.192233,0.033072,0.000000,0.000000,103.000000,100.000000,3.000000,0.000000,0.000000,0.000000:
0000
0000
0000
0000
,
0000
0000
0000
0000
,
0000
0000
0000
0000
,
0000
0000
0000
0100
,
0000
0010
0000
0000
,
0000
0010
0000
1000
,
0000
0001
0000
0000
,
0000
1000
0000
0001
,
0000
1000
0000
0001
,
0000
0100
0000
0001
,
0000
0000
0000
1000
,
0000
0100
0000
1000
,
0000
0001
0000
0100
,
0000
0001
0000
0000
,
0000
1000
0000
0001
,
0000
0100
0000
0000
,
0000
0001
0000
0001
,
0000
1000
0000
1000
,
0000
0001
0000
0100
,
0000
0010
0000
0100
,
0000
0000
0000
0010
,
0000
1000
0000
0001
,
0000
1000
0000
0000
,
0000
0001
0000
1000
,
0000
0001
0000
1000
,
0000
0000
0000
0001
,
0000
0100
0000
0001
,
0000
0000
0000
0100
,
0000
0100
0000
0010
,
0000
0010
0000
0100
,
0000
0100
0000
0001
,
0000
0001
0000
1000
,
0000
0000
0000
0001
,
0000
0000
0000
1000
,
0000
0010
0000
1000
,
0000
0000
0000
0001
,
0000
0000
0000
0100
,
0000
0000
0000
0001
,
0000
0000
0000
1000
,
0000
0000
0000
1001
,
0000
0000
0000
0001
,
0000
0100
0000
0001
,
0000
0000
0000
1000
,
0000
0100
0000
0100
,
0000
0000
0000
0010
,
0000
0001
0000
0001
,
0000
0000
0000
1000
,
0000
0001
0000
1000
,
0000
0001
0000
0000
,
0000
1000
0000
0001
,
0000
0100
0000
0001
,
0000
0000
0000
1000
,
0000
0100
0000
1000
,
0000
0000
0000
0001
,
0000
0010
0000
0001
,
0000
0000
0000
0001
,
0000
1000
0000
0001
,
0000
0000
0000
1000
,
0000
0100
0000
1000
,
0000
0000
0000
0001
,
0000
0100
0000
0100
,
0000
0001
0000
1000
,
0000
1000
0000
0001
,
0000
0100
0000
0001
,
0000
0000
0000
1000
,
0000
0000
0000
0001
,
0000
0000
0000
1000
,
0000
0000
0000
0110
,
0000
0000
0000
0000
,
0000
0000
0000
0110
;

//---------------dance-single - ----------------
#NOTES:
     dance-single:
     :
     Easy:
     6:
     0.296077,0.346020,0.198435,0.000000,0.000000,188.000000,170.000000,18.000000,0.000000,0.000000,0.000000,0.296077,0.346020,0.198435,0.000000,0.000000,188.000000,170.000000,18.000000,0.000000,0.000000,0.000000:
0000
0000
0000
0000
,
0000
0000
0000
0000
,
0000
0000
0000
0000
,
0000
0000
0000
0100
,
0010
0100
0000
0001
,
1000
0001
0000
1000
,
0100
0010
0000
0001
,
0010
0100
0000
1000
,
0010
1000
0000
0001
,
0000
0110
0000
0001
,
1000
0010
0000
1010
,
0000
0001
0100
0001
,
0000
0001
0100
0010
,
0000
0010
1000
0001
,
0000
1000
0100
0010
,
0001
1000
0100
1000
,
0000
0001
0010
0001
,
0000
0010
0001
0010
,
0000
0001
0010
0100
,
1000
0001
0010
0001
,
0000
1001
0000
0010
,
0000
1000
0100
0010
,
0000
0000
0001
0000
0000
0001
0000
0000
,
0000
1001
0000
1000
,
0010
0100
0000
0001
,
0000
1000
0001
0010
,
0000
0000
0100
0000
0000
1000
0000
0000
,
0000
0001
0000
0100
,
0000
0010
0100
0000
,
0100
0001
0000
1001
,
0000
0100
0001
0000
,
1000
0001
0000
1000
,
0000
1001
0000
0001
,
0000
1001
0000
1000
,
0000
0010
0100
0010
,
0100
0001
0000
1000
,
0000
0010
0100
0010
,
0000
1000
0001
1000
,
0000
0001
0010
0001
,
0010
0001
0000
1001
,
0000
1000
0000
0100
,
0000
0100
0000
0010
,
0001
0010
0000
0001
,
0100
0010
0000
1000
,
0100
0010
0000
0010
,
0100
1000
0000
0001
,
0000
0101
0000
0000
,
0000
0001
0000
1001
,
0000
1000
0010
0100
,
0010
1000
0000
0001
,
0010
0001
0000
0100
,
0000
0000
0000
1001
,
0000
0110
0000
0010
,
0000
0001
0100
0010
,
0000
0000
1000
0000
0000
0001
0000
0000
,
0000
1001
0000
0100
,
0100
0100
0000
0001
,
0000
1000
0100
0010
,
0000
0000
0001
0000
0000
0010
0000
0000
,
0000
0001
0000
1100
,
0000
0100
0000
0010
,
0000
0001
0000
1100
,
0000
0100
0000
0010
,
0000
0001
0010
0001
,
0000
1001
0000
0001
,
0000
0110
0000
0010
,
0000
1010
0000
0000
,
0000
0010
0000
0100
,
0000
0001
1000
0000
,
0000
0001
1000
0001
;

//---------------dance-single - ----------------
#NOTES:
     dance-single:
     :
     Medium:
     11:
     0.503961,0.538254,0.077169,0.000000,0.000000,320.000000,313.000000,7.000000,0.000000,0.000000,0.000000,0.503961,0.538254,0.077169,0.000000,0.000000,320.000000,313.000000,7.000000,0.000000,0.000000,0.000000:
0000
0000
0000
0000
,
0000
0000
0000
0000
,
0000
0000
0000
0000
,
0000
0000
0000
0000
0000
0000
0100
0010
,
0000
0010
0100
0000
0001
1000
0000
1000
,
0001
0000
0100
0000
0000
0000
1000
0100
,
0000
0010
0001
0000
0000
0000
0001
0000
,
0010
0000
0001
0010
0001
0000
1000
0010
,
0000
1000
0010
0000
0100
0000
0000
0000
,
0001
0000
0100
0000
0010
0000
0100
0010
,
0000
1000
0010
0000
0100
0001
0000
0100
,
0001
0000
1000
0010
1000
0000
0001
0100
,
0000
0100
0001
0000
0100
0010
0000
0000
,
0100
0000
0010
0000
0000
0000
1000
0001
,
0000
1000
0001
0000
0100
0000
0010
0000
,
0100
0010
0100
0000
0001
1000
0001
0000
,
0000
0001
0010
0001
,
0000
1000
0100
1000
,
0000
0000
0001
0000
0010
0001
0000
0001
,
1000
0000
0001
0010
0001
0000
1000
0100
,
0000
1000
0100
0000
0010
0001
0000
0000
,
1000
0000
0010
0000
0100
0000
0001
0100
,
0000
0001
0100
0000
0001
0000
0000
0000
,
0000
0000
1000
0010
1000
0000
0010
0100
,
0000
0001
0100
0000
0010
0000
1000
0000
,
0000
0000
0001
0100
0001
0000
0010
0000
,
0001
0010
0001
0000
0010
0001
1000
0000
,
0000
0001
1000
0000
0010
0100
0010
0000
,
0000
0100
0010
0000
0100
0000
0000
0000
,
0010
0000
1000
0000
0000
0001
1000
0000
,
0001
0100
0000
0100
0001
0000
0000
0000
,
1000
0000
0001
0000
0010
0100
0010
0000
,
0001
0000
1000
0000
0001
1000
0000
0001
,
1000
0000
1001
0000
0000
0010
1000
0010
,
0000
0000
0100
0000
0010
0100
0000
0100
,
0001
0000
1000
0001
1000
0000
0001
0010
,
0001
0000
1000
0100
0010
0000
0001
0010
,
0001
0000
1000
0100
1000
0100
1000
0000
,
0000
0001
0000
0000
0000
0000
0100
0000
,
0000
0000
0010
0000
0000
0000
1000
0001
,
0000
1000
0001
0000
0100
0010
0100
0000
,
0001
0100
1000
0100
,
0001
0000
0010
0001
0010
0000
0100
1000
,
0100
0000
0010
0001
0010
0001
0010
0000
,
0001
0100
0000
0001
0100
0000
0010
1000
,
0000
0100
0010
0100
0010
0000
0001
1000
,
0000
0001
0100
0000
0010
0100
0000
0001
,
1000
0001
1000
0000
0001
0000
1001
0000
,
0000
0000
1000
0010
0100
0000
0100
0000
,
0001
0000
1000
0010
1000
0000
0001
0010
,
0000
0010
0001
0000
1000
0100
0000
0010
,
0001
0000
1000
0100
1000
0000
0001
0010
,
0000
0100
0010
0000
0001
1000
0000
0000
,
0001
0100
0010
0110
,
0000
0000
1000
0010
0100
0010
0000
0000
,
0010
0000
1000
0000
0001
0000
0100
0010
,
0000
0100
0010
0000
1000
0001
0000
0000
,
1000
0000
0110
0000
0000
0000
0010
0001
,
0000
0001
1000
0000
0010
0100
0000
0000
,
0010
0100
0001
1001
,
1000
0001
1000
0000
0001
0100
0000
0100
,
0001
0000
0001
0010
0001
0000
1000
0100
,
0000
0100
1000
0000
0010
0100
0000
0001
,
0100
0000
0001
0010
0001
0000
1000
0100
,
1000
0000
0100
0010
0100
0000
0010
0000
,
0001
1000
0010
1010
,
0100
0000
0101
0000
0001
0010
0000
0010
,
0100
0000
0010
0000
0001
1000
0010
0100
,
0000
0010
0100
0000
0001
1000
0000
0001
,
1000
0000
1000
0010
0100
0010
0100
0000
;

//---------------dance-single - ----------------
#NOTES:
     dance-single:
     :
     Hard:
     13:
     0.674048,0.730487,0.451990,0.066145,0.000000,428.000000,387.000000,41.000000,6.000000,0.000000,0.000000,0.674048,0.730487,0.451990,0.066145,0.000000,428.000000,387.000000,41.000000,6.000000,0.000000,0.000000:
// measure 0
0000
0000
0000
0000
,  // measure 1
0000
0000
0000
0000
,  // measure 2
0000
0000
0000
0000
,  // measure 3
0000
0000
0000
0000
0000
0000
0110
0110
,  // measure 4
0000
0010
0100
0000
0001
0010
0001
0000
,  // measure 5
1000
0000
0100
0010
0000
0001
0000
0000
,  // measure 6
1000
0000
0010
0100
0010
1000
0001
0000
,  // measure 7
0001
0000
1000
0000
0100
1000
0000
0000
,  // measure 8
0010
0000
0100
0001
0100
1000
0100
0001
,  // measure 9
1000
0000
0001
0000
0100
0001
0000
0001
,  // measure 10
0100
0000
0010
0100
0010
1000
0010
0000
,  // measure 11
0100
0000
0001
0000
1000
0001
0100
0001
,  // measure 12
0100
0000
0010
0100
0001
0010
0000
0100
,  // measure 13
1000
0000
1000
0100
0010
0001
0000
0100
,  // measure 14
0001
0000
1000
0010
1000
0001
0101
0000
,  // measure 15
0010
0000
1000
0100
0000
0010
0011
0001
,  // measure 16
1000
0001
0100
0010
1000
0001
0000
0100
,  // measure 17
0010
0000
1000
0100
1000
0100
0010
0001
,  // measure 18
0000
0001
0110
0000
1000
1100
0000
0010
,  // measure 19
0011
0000
0001
0010
0100
0010
0001
0000
,  // measure 20
0200
0000
0010
0000
0310
0100
0000
0100
,  // measure 21
0001
0000
1000
0100
1000
0000
0011
0000
,  // measure 22
0100
0110
0000
0010
0000
1000
0001
0000
,  // measure 23
1000
0000
0001
0100
0010
0100
0001
0000
,  // measure 24
1000
0000
0010
0000
0100
0010
0000
1000
,  // measure 25
0010
0000
0100
0001
1000
0000
0011
0000
,  // measure 26
0100
1010
0000
0010
0100
0101
0000
1010
,  // measure 27
1010
0000
0001
0000
0100
0010
1000
0000
,  // measure 28
0001
0010
0100
0000
1100
1100
0000
0100
,  // measure 29
0010
0001
0010
0000
0001
1000
1100
0000
,  // measure 30
0100
0000
0010
0001
0001
0000
1000
1000
,  // measure 31
0010
0000
0100
0000
0010
0100
0001
1000
,  // measure 32
0000
1000
0001
0000
0100
0110
0000
0010
,  // measure 33
0100
0001
1000
0100
1000
0100
0000
0010
,  // measure 34
0001
0010
0000
0010
0100
0010
0001
1000
,  // measure 35
0001
1000
0001
0100
0100
0110
0000
0100
,  // measure 36
0010
0100
1001
0001
0010
0100
0010
0000
,  // measure 37
0001
0000
1000
0000
0010
0100
0110
0000
,  // measure 38
0001
0000
1000
0100
1000
0010
0001
0000
,  // measure 39
0001
0010
1000
0000
0100
0010
0011
1001
,  // measure 40
0000
1001
1010
0100
0010
0100
0001
0000
,  // measure 41
1000
0000
0001
0000
0100
0000
1000
0001
,  // measure 42
0000
0010
1000
0100
0010
0010
0001
0000
,  // measure 43
1000
0010
1000
0000
0001
0100
0001
0101
,  // measure 44
0000
0010
1001
0100
0010
0100
0000
0010
,  // measure 45
0000
0010
0100
0001
1000
0001
0100
0101
,  // measure 46
0000
0100
0110
0010
1000
0100
0001
0100
,  // measure 47
1000
0000
0001
0000
0010
0001
0101
0000
,  // measure 48
0100
0010
0100
0010
0010
0010
0000
1000
,  // measure 49
0000
0000
0001
0100
0010
1000
0000
0001
,  // measure 50
0000
1000
0001
0100
0100
0010
0000
0020
,  // measure 51
0000
0030
1000
0001
1000
0010
0000
0000
,  // measure 52
0100
0000
0010
0000
0010
0100
0000
0001
,  // measure 53
1000
0000
0100
0010
0001
0000
1100
0000
,  // measure 54
0100
0010
0000
0100
0010
0001
0000
1000
,  // measure 55
0100
1000
0001
0010
0001
0100
0000
0010
,  // measure 56
0110
0001
1000
0000
0001
1000
0000
0010
,  // measure 57
0100
0001
1000
0001
0001
0100
0101
0000
,  // measure 58
0010
0110
0000
0100
1000
1010
0000
0101
,  // measure 59
0101
0000
0001
0000
0010
0100
1000
0000
,  // measure 60
0100
0010
0001
0000
1000
1001
0000
0001
,  // measure 61
0010
0100
0010
0001
0010
0000
0001
0000
,  // measure 62
1000
0000
0100
0010
0001
0000
0001
0000
,  // measure 63
1000
0010
0100
0000
0010
0100
0000
0010
,  // measure 64
0100
0000
0001
0000
1000
1010
0000
0100
,  // measure 65
0001
0100
0010
1000
0001
0200
0000
0320
,  // measure 66
0000
2030
0000
3002
1000
1003
0000
0001
,  // measure 67
0101
0001
1010
0010
0100
0001
0000
0100
,  // measure 68
0000
0100
0010
0000
0010
1000
0000
0001
,  // measure 69
0010
0000
0001
0010
0001
0010
0100
0000
;
