#TITLE:Solar;
#SUBTITLE:;
#ARTIST:Evan Coles;
#TITLETRANSLIT:;
#SUBTITLETRANSLIT:;
#ARTISTTRANSLIT:;
#GENRE:;
#CREDIT:;
#BANNER:;
#BACKGROUND:;
#LYRICSPATH:;
#CDTITLE:;
#MUSIC:Evan-Coles-Solar.ogg;
#OFFSET:-0.436000;
#SAMPLESTART:34.285000;
#SAMPLELENGTH:17.600000;
#SELECTABLE:YES;
#BPMS:0.000000=140.000000
;
#STOPS:
;
#BGCHANGES:;
#KEYSOUNDS:;
#ATTACKS:;

//---------------dance-single - ----------------
#NOTES:
     dance-single:
     :
     Beginner:
     4:
     0.183413,0.222488,0.175439,0.000000,0.000000,161.000000,139.000000,22.000000,0.000000,0.000000,0.000000,0.183413,0.222488,0.175439,0.000000,0.000000,161.000000,139.000000,22.000000,0.000000,0.000000,0.000000:
// measure 0
0000
0000
0000
0000
,  // measure 1
0000
0000
0000
0000
,  // measure 2
0000
0000
0000
0000
,  // measure 3
0000
0000
0000
0110
,  // measure 4
0000
1001
0000
0000
,  // measure 5
0000
1001
0000
1001
,  // measure 6
0000
0110
0000
0000
,  // measure 7
0000
0110
0000
1001
,  // measure 8
0000
1010
0000
0000
,  // measure 9
0000
1010
0000
1001
,  // measure 10
0000
0101
0000
0000
,  // measure 11
0000
1001
0000
1000
,  // measure 12
0000
0001
0000
0001
,  // measure 13
0000
1000
0000
0001
,  // measure 14
0000
0100
0000
0100
,  // measure 15
0000
0001
0000
1001
,  // measure 16
0000
1000
0000
0100
,  // measure 17
0000
0100
0000
1000
,  // measure 18
0000
0001
0000
0010
,  // measure 19
0000
0001
0000
1001
,  // measure 20
0000
1000
0000
0001
,  // measure 21
0100
0001
0000
1000
,  // measure 22
0000
0010
0000
1000
,  // measure 23
0010
1000
0000
0001
,  // measure 24
0100
0001
0000
0000
,  // measure 25
0000
1001
0000
1000
,  // measure 26
0010
0100
0000
0000
,  // measure 27
0000
1001
0000
0001
,  // measure 28
0000
0100
0000
0010
,  // measure 29
0100
0010
0000
1000
,  // measure 30
0000
0001
0000
1000
,  // measure 31
0001
1000
0000
0001
,  // measure 32
0010
0001
0000
1000
,  // measure 33
0000
0001
0000
1010
,  // measure 34
0000
0010
0000
0100
,  // measure 35
0000
0001
0000
1000
,  // measure 36
0001
0100
0000
0010
,  // measure 37
0000
0110
0000
0001
,  // measure 38
0000
1000
0000
0000
,  // measure 39
1000
0001
0000
1000
,  // measure 40
0000
0001
0000
0000
,  // measure 41
0100
0010
0000
1000
,  // measure 42
0000
0001
0000
0000
,  // measure 43
1000
0001
0000
0001
,  // measure 44
0100
0000
0000
0100
,  // measure 45
0010
0000
0000
1010
,  // measure 46
0000
0100
0000
0001
,  // measure 47
0000
1000
0000
0001
,  // measure 48
0000
0100
0000
0010
,  // measure 49
0000
1001
0000
0001
,  // measure 50
0000
0100
0000
0010
,  // measure 51
0000
1000
0100
1000
,  // measure 52
0100
0000
0000
1000
,  // measure 53
0000
1001
0000
0001
,  // measure 54
0000
0100
0000
0010
,  // measure 55
0000
1000
0000
0001
,  // measure 56
0000
0001
0000
1000
,  // measure 57
0000
1000
0000
0001
,  // measure 58
0100
0010
1000
0000
,  // measure 59
0000
0001
0000
1001
,  // measure 60
0000
1000
0000
0000
,  // measure 61
1000
0001
0000
0001
,  // measure 62
0100
0000
0000
0010
,  // measure 63
1000
0000
0000
0001
,  // measure 64
0100
0000
0000
0010
,  // measure 65
1000
0000
0000
1000
,  // measure 66
0100
0010
0000
0000
,  // measure 67
0001
0001
0000
0001
,  // measure 68
1000
0100
0000
0000
,  // measure 69
0100
0100
0000
0010
;

//---------------dance-single - ----------------
#NOTES:
     dance-single:
     :
     Easy:
     7:
     0.303030,0.368022,0.159490,0.087719,0.000000,266.000000,246.000000,20.000000,11.000000,0.000000,0.000000,0.303030,0.368022,0.159490,0.087719,0.000000,266.000000,246.000000,20.000000,11.000000,0.000000,0.000000:
0000
0000
0000
0000
,
0000
0000
0000
0100
,
0000
0010
0000
1000
,
0000
0001
0000
0110
,
1000
0000
1000
0000
0000
0001
0000
0001
,
0000
1001
0000
1010
,
0010
0000
0100
0000
0000
0001
0000
1000
,
0000
1001
0000
1000
,
0100
0000
0010
0000
0000
0001
0000
0001
,
0000
1000
0010
1010
,
1000
0000
0100
0000
0000
0010
0000
0010
,
0000
0011
0000
1000
,
0010
0000
0100
0000
0000
0010
0000
0010
,
0000
0000
1000
0001
1000
0000
0001
0000
,
0001
0000
1000
0000
0000
0010
0000
0100
,
0000
0000
0001
1000
0001
0000
1000
0000
,
0010
0000
1000
0000
0000
0001
0000
0100
,
0000
0000
0010
0100
0010
0000
1000
0000
,
0100
0000
0001
0000
0000
0100
0000
0100
,
0000
2000
3000
1001
,
0100
0000
1010
0000
0100
0000
0001
0100
,
0010
0100
0000
0000
0100
0000
1001
0000
,
0100
0000
0001
0000
1000
0000
0010
1000
,
0010
1000
0000
0000
0001
0000
0100
0000
,
0100
0000
0001
0000
1000
0001
0000
0000
,
1000
0001
0100
1000
,
0001
0000
0010
0000
0000
1000
0000
0000
,
0001
1001
1000
0001
,
0100
0000
0010
0100
0010
0000
0010
0000
,
1000
0010
0100
0001
,
1000
0001
0100
1000
,
0001
0010
0000
1000
,
1010
0010
0101
1000
,
1001
0001
1000
2000
,
3000
0002
0003
0200
,
0300
0001
1000
0001
,
0000
0000
0100
0000
0000
0010
0000
0100
,
0000
0200
0300
0001
,
0000
1000
0001
0000
0000
1000
0000
0001
,
0000
0100
0010
2000
,
3000
0000
0001
0000
0000
0100
0000
0010
,
0000
0110
0000
1000
,
0001
0000
0100
0000
0000
0010
0000
0010
,
0000
1000
0001
0001
,
0100
0010
1000
0100
,
0010
0002
0000
1003
,
0010
0000
1010
0000
0001
0000
1000
0100
,
1000
0001
0000
0000
0100
0000
1001
0000
,
0100
0000
1000
0000
0001
0000
0010
0100
,
0010
0100
0000
0000
1000
0000
0010
0000
,
0100
0000
0001
0000
0100
0010
0000
0000
,
1000
0001
0010
1000
,
0001
0000
0100
0000
0000
1000
0000
0000
,
0001
1001
1000
0001
,
1000
0000
0010
0100
0010
0000
1000
0000
,
0001
0100
0001
0001
,
1000
1000
0100
0010
,
0001
0010
0100
1000
,
0110
0010
0101
1000
,
1010
0001
0100
0200
,
0300
0020
0030
2000
,
3000
0001
1000
0001
,
0100
0000
0100
0000
0010
1000
0010
0000
,
0000
1000
0000
0001
,
0100
0000
0100
0000
0001
0100
0001
0000
,
0000
1000
0000
0001
,
0100
0000
0010
0000
0010
0000
1000
0010
,
1000
0001
0000
0001
,
1000
0000
0010
0000
0010
0000
0100
0001
,
0100
0001
0000
2000
,
0000
0000
0000
0000
,
3000
0000
0000
0000
;

//---------------dance-single - ----------------
#NOTES:
     dance-single:
     :
     Medium:
     9:
     0.361130,0.389354,0.143541,0.063796,0.000000,317.000000,299.000000,18.000000,8.000000,0.000000,0.000000,0.361130,0.389354,0.143541,0.063796,0.000000,317.000000,299.000000,18.000000,8.000000,0.000000,0.000000:
0000
0000
0000
0000
,
0000
0000
0000
0100
,
0010
0000
0100
0000
0010
0100
0000
0100
,
0010
1000
0001
1001
,
1000
0000
0010
0000
0000
0100
0000
0001
,
0000
0000
1000
0010
1000
0001
1000
0000
,
0100
0010
0001
0010
,
0001
0100
0001
1000
0010
0000
0110
0000
,
1000
0000
0001
0100
0000
0100
0001
0000
,
1000
0000
0010
0100
0010
0100
0010
0000
,
1000
0000
0001
0100
0001
0000
1000
0010
,
1000
1001
0000
0100
,
0010
0100
0000
0010
0100
0000
0010
0000
,
1000
0000
0002
0000
0000
0003
0100
0000
,
0010
1000
0000
0001
0000
0100
0001
0100
,
0000
0001
2000
0000
0000
3000
0001
0000
,
1000
0010
0000
1000
0010
1000
0001
0000
,
0100
0000
0020
0000
0000
0030
0100
0000
,
0010
0000
1001
0000
1000
0001
0000
1000
,
0000
0001
0100
0000
0010
0000
0200
0000
,
0000
0000
0301
0000
0001
0000
0010
0100
,
0010
0100
0000
0000
0010
0000
0001
0000
,
1000
0000
0010
0000
0100
0000
0001
0010
,
0100
1000
0000
0000
0010
0100
0000
0001
,
1000
0000
1000
0100
0000
0100
0010
0000
,
0010
0001
0000
0000
0000
0000
1001
0000
,
0100
0000
0010
0000
0000
0110
0000
0000
,
1000
0010
0100
0001
,
1000
0000
0010
0100
0001
0000
1000
0001
,
1000
0001
0000
0000
1000
0010
0100
0000
,
0001
0010
0001
0000
0000
1000
0001
0100
,
0010
0200
0000
0300
0010
0000
0000
0100
,
0001
0000
0001
1000
0000
1000
0010
0000
,
0010
0100
0000
0000
0000
0000
1001
0000
,
0010
0000
0100
0000
0000
1001
0000
0000
,
1000
0010
1000
0100
,
0010
0000
0001
0000
0000
0001
0000
0001
,
0000
1000
0002
0000
0003
0000
0100
0000
,
0010
0000
1000
0000
0000
0010
0000
0100
,
0000
0001
0100
0000
0010
0000
0110
0000
,
0000
1000
0001
0000
0000
0100
0000
0010
,
0000
1000
0010
0000
0000
0000
0101
0000
,
0001
0000
1000
0000
0001
0200
0000
0000
,
0010
0300
0010
0000
0000
0000
0100
0000
,
0010
0000
1000
0000
0001
0000
0100
0010
,
0100
0010
0000
0000
0000
0000
1001
0000
,
1000
0000
0010
0000
0100
0000
0001
1000
,
0001
0100
0000
0000
0010
0100
0010
0000
,
1000
0000
1000
0000
0100
0000
0010
0001
,
0010
0001
0000
0000
1000
0001
0000
0001
,
0100
0000
0010
1000
0000
0001
1000
0000
,
0010
0100
0000
0000
0000
0000
1001
0000
,
0010
0000
0100
0000
0000
0110
0000
0000
,
0001
0010
0100
0010
,
0001
0000
0010
0100
1000
0000
0001
1000
,
0001
1000
0000
0000
1000
0010
0100
0000
,
0001
0100
0010
0000
0000
1000
0100
0010
,
0001
2000
0000
3000
0001
0000
0000
0100
,
0010
0000
1000
0001
0000
1000
0001
0000
,
0100
0010
0000
0000
0000
0000
1010
0000
,
1000
0000
0100
0000
0000
0011
0000
0000
,
1000
0000
0010
0000
0100
0001
0100
0000
,
0001
0010
0001
0000
0000
1000
0000
0010
,
0100
0010
1000
0001
,
1000
0010
1000
0000
0001
0000
0100
0000
,
0010
1000
0000
0101
,
0001
0010
0001
0000
0000
0100
0010
0000
,
1000
1001
0100
0101
,
0001
0000
1000
0000
0010
0100
0001
0000
,
1000
0100
1000
0100
1000
0000
0001
0000
;

//---------------dance-single - ----------------
#NOTES:
     dance-single:
     :
     Hard:
     12:
     0.451128,0.481260,0.183413,0.135566,0.043860,396.000000,373.000000,23.000000,17.000000,0.000000,0.000000,0.451128,0.481260,0.183413,0.135566,0.043860,396.000000,373.000000,23.000000,17.000000,0.000000,0.000000:
0000
0000
0000
0000
,
0000
0000
0000
0000
0000
0000
0100
0010
,
1000
0010
0100
0001
0001
0010
0000
0100
,
0010
0000
0001
0000
0000
0000
1000
0001
1000
0000
0001
0000
1001
0000
0000
0000
,
1000
0000
0010
0000
0100
0000
0000
0000
0000
0000
0100
0010
0100
0000
0001
0000
,
1000
0010
0100
0000
0001
1000
1000
0010
,
0010
0000
0100
0000
0010
0000
0000
0100
0000
0000
0001
0000
0010
0000
0000
0000
,
0100
0000
1000
0000
0000
0100
0010
1000
,
0001
0100
0101
0000
0000
0200
0000
0310
,
1000
0000
0001
0100
0010
0100
0001
1000
,
1000
0010
0100
0001
0001
0000
1000
0000
,
0100
0000
0020
0000
0001
0030
0001
0000
,
0010
0100
0000
0100
1000
0010
0100
0000
,
1001
0000
0002
0010
0010
0013
0001
0000
,
0001
0000
1000
0010
1000
0000
0001
0000
0000
0000
0100
0000
0001
0000
0100
0000
,
0000
0001
2000
0000
3010
0000
0100
0000
,
0001
1000
0000
1000
0010
1000
0001
0001
,
0100
0000
0020
0100
0100
0130
0010
0000
,
0100
0000
0000
0000
1000
0000
0000
0000
1000
0000
0001
0000
0000
0000
1000
0100
,
1000
0110
0010
0001
,
1000
0000
0001
0000
0100
0000
0010
1000
,
0010
0100
0000
0000
0001
0010
0110
1000
,
0100
0010
0001
0000
0100
0000
0001
0010
,
0100
0010
0000
0000
0010
0001
0000
1000
,
0100
0000
0100
0010
0000
0010
0001
0000
,
0001
0010
0000
0000
0000
0100
1000
0200
,
0000
0000
0310
0001
0010
0000
0000
0000
0001
0000
1000
0000
0000
0000
0020
0000
,
0000
0000
0100
0030
0010
0100
0010
0000
,
1000
0100
0010
0000
0001
0000
1000
0010
,
1000
0001
0000
0001
0100
0010
1000
0001
,
0001
0000
1000
0000
0000
0010
0100
0001
,
0001
1000
0000
1000
0100
0010
0000
0010
,
0001
0000
0001
0010
0000
0010
0100
0000
,
0100
1000
0000
0000
0000
0100
0010
0200
,
0000
0000
0310
0001
0010
0000
0000
0000
0001
0000
0100
0000
0000
0000
0020
0000
,
0000
0000
1000
0030
1000
0001
0100
0001
,
0001
0010
0000
0010
0100
0110
0000
1000
,
1000
0002
0000
0003
0000
0000
1000
0100
,
0010
0001
0000
0001
0000
0100
0000
0010
,
0100
0020
0000
0000
0030
0000
0100
0010
,
1000
0000
0001
0000
0000
0000
0011
0000
0000
0000
0001
0010
0001
0000
0000
0000
,
1000
0100
0000
0010
0000
0100
1000
0001
,
0010
0001
0000
0010
0100
1000
0000
0000
,
0001
0000
0201
0000
0001
0300
0001
0000
,
1000
0000
0001
0000
0100
0000
0010
0100
,
0010
0100
0000
0000
0010
0100
0110
0000
,
0001
0000
1000
0000
0001
0000
1000
0100
,
1000
0100
0000
0000
0010
0001
0010
0100
,
0010
0001
1000
0000
0010
0000
0100
0001
,
0100
0010
0000
0010
0100
0010
0000
1000
,
0100
0000
0010
0001
0000
1000
0010
0000
,
0100
0001
0000
0000
1000
0000
1001
0000
,
0001
0000
0100
0010
0100
0002
0000
2000
,
0000
0000
3003
0000
1000
0000
0101
0001
,
0010
0100
1100
0000
0100
0000
0010
0001
,
0100
0010
0000
0010
0100
0001
1001
1000
,
0100
0000
0010
0000
0000
0001
0010
0001
,
0100
0010
0000
0010
1000
0001
0000
0001
,
0010
0000
0100
0010
0000
0001
0100
0000
,
0010
1000
0000
0000
1000
0000
0101
0000
,
1000
0000
0010
1000
0010
2000
0000
0002
,
0000
3003
0010
0001
,
1000
0100
0010
0001
0000
0001
1000
0000
,
0010
0110
0001
0011
,
0001
0000
1000
0100
1000
0000
0000
0000
0001
0000
0100
0000
0000
0000
0100
0000
,
0010
0000
0000
0000
1000
0000
0000
0001
0000
0000
1000
0000
1001
0000
0000
0000
,
0001
0100
0110
0000
0100
1001
0000
0001
,
1000
0000
0110
0000
0001
0000
0001
0010
,
0000
0000
0100
0010
0100
0000
0000
0000
1000
0000
0001
0000
0000
0000
0000
0000
,
0101
0000
1000
1010
0010
0100
0102
0000
,
0000
0000
0000
0000
,
0003
0000
0000
0000
;
