#VERSION:0.83;
#TITLE:Soko ni aru hikari;
#SUBTITLE:;
#ARTIST:Makkachin Kikaku feat. sisi;
#TITLETRANSLIT:;
#SUBTITLETRANSLIT:;
#ARTISTTRANSLIT:;
#GENRE:;
#ORIGIN:;
#CREDIT:from pop n music 22 Lapistoria;
#BANNER:20140730131733!LT_Soko_ni_aru_hikari.png;
#BACKGROUND:;
#PREVIEWVID:;
#JACKET:;
#CDIMAGE:;
#DISCIMAGE:;
#LYRICSPATH:;
#CDTITLE:;
#MUSIC:Soko_ni_aru_hikari.ogg;
#OFFSET:-0.275000;
#SAMPLESTART:57.773998;
#SAMPLELENGTH:17.000000;
#SELECTABLE:YES;
#BPMS:0.000=192.000;
#STOPS:;
#DELAYS:;
#WARPS:;
#TIMESIGNATURES:0.000=4=4;
#TICKCOUNTS:0.000=4;
#COMBOS:0.000=1;
#SPEEDS:0.000=1.000=0.000=0;
#SCROLLS:0.000=1.000;
#FAKES:;
#LABELS:0.000=Song Start;
#BGCHANGES:;
#KEYSOUNDS:;
#ATTACKS:
;

//---------------dance-single - ----------------
#NOTEDATA:;
#CHARTNAME:;
#STEPSTYPE:dance-single;
#DESCRIPTION:;
#CHARTSTYLE:;
#DIFFICULTY:Beginner;
#METER:4;
#RADARVALUES:0.154412,0.230494,0.048398,0.088729,0.000000,134.000000,128.000000,6.000000,11.000000,0.000000,0.000000,0.000000,0.000000,0.000000,0.154412,0.230494,0.048398,0.088729,0.000000,134.000000,128.000000,6.000000,11.000000,0.000000,0.000000,0.000000,0.000000,0.000000;
#CREDIT:;
#NOTES:
// measure 0
0000
0000
0000
0000
,  // measure 1
0000
0000
0000
0000
,  // measure 2
0000
0000
0000
0000
,  // measure 3
0000
0000
0000
0000
,  // measure 4
0000
0000
0000
0000
,  // measure 5
1000
0000
0000
0000
,  // measure 6
0001
0000
0000
0000
,  // measure 7
0100
0000
0000
0000
,  // measure 8
0010
0000
0000
0000
,  // measure 9
2000
0000
0000
3000
,  // measure 10
0002
0000
0000
0003
,  // measure 11
0200
0000
0000
0300
,  // measure 12
0020
0000
0000
0030
,  // measure 13
1000
0000
0001
0000
,  // measure 14
0100
0000
0010
0000
,  // measure 15
1000
0000
0010
0000
,  // measure 16
2020
0000
3030
0000
,  // measure 17
1000
0000
0001
0000
,  // measure 18
0100
0000
0010
0000
,  // measure 19
0100
0000
0010
0000
,  // measure 20
1000
0000
0000
0000
,  // measure 21
0001
0000
0010
0000
,  // measure 22
0100
0000
0010
0000
,  // measure 23
0001
0000
0000
0000
,  // measure 24
1000
0000
0010
0000
,  // measure 25
0100
0000
0000
0000
,  // measure 26
0001
0000
0010
0000
,  // measure 27
0001
0000
0000
0000
,  // measure 28
1000
0000
0010
0000
,  // measure 29
1000
0000
0000
0000
,  // measure 30
0001
0000
0100
0000
,  // measure 31
0010
0000
0000
0000
,  // measure 32
0200
0000
0300
0000
,  // measure 33
0010
0000
0010
0000
,  // measure 34
0010
0000
0000
0000
,  // measure 35
0100
0000
0100
0000
,  // measure 36
0100
0000
0000
0000
,  // measure 37
1001
0000
0000
0000
,  // measure 38
0100
0000
0000
0000
,  // measure 39
0011
0000
0000
0000
,  // measure 40
1000
0000
0001
0000
,  // measure 41
1000
0000
0000
0000
,  // measure 42
0001
0000
0100
0000
,  // measure 43
0001
0000
0000
0000
,  // measure 44
1000
0000
0000
0000
,  // measure 45
1000
0000
1000
0000
,  // measure 46
1000
0000
1000
0000
,  // measure 47
0001
0000
0001
0000
,  // measure 48
0001
0000
1000
0000
,  // measure 49
1000
0000
0000
0000
,  // measure 50
0010
0000
0010
0000
,  // measure 51
0100
0000
0001
0000
,  // measure 52
0100
0000
0010
0000
,  // measure 53
0010
0000
0000
0000
,  // measure 54
0100
0000
0001
0000
,  // measure 55
1000
0000
0001
0000
,  // measure 56
1000
0000
0001
0000
,  // measure 57
0000
0000
0100
0000
,  // measure 58
0010
0000
0100
0000
,  // measure 59
0000
0000
0001
0000
,  // measure 60
1000
0000
0001
0000
,  // measure 61
0000
0000
1000
0000
,  // measure 62
0100
0000
0010
0000
,  // measure 63
0000
0000
0002
0000
,  // measure 64
0003
0000
0010
0000
,  // measure 65
0100
0000
1000
0000
,  // measure 66
0000
0000
1001
0000
,  // measure 67
0000
0000
1001
0000
,  // measure 68
0000
0000
0001
0000
,  // measure 69
0200
0000
0300
0000
,  // measure 70
0000
0000
0100
0000
,  // measure 71
0001
0000
0010
0000
,  // measure 72
0100
0000
1000
0000
,  // measure 73
0000
0000
0100
0000
,  // measure 74
0010
0000
0010
0000
,  // measure 75
0000
0000
0001
0000
,  // measure 76
0000
0000
1001
0000
,  // measure 77
0000
0000
1000
0000
,  // measure 78
0000
0000
0001
0000
,  // measure 79
0010
0000
0001
0000
,  // measure 80
0000
0000
0100
0000
,  // measure 81
0001
0000
0010
0000
,  // measure 82
0001
0000
1000
0000
,  // measure 83
0000
0000
0001
0000
,  // measure 84
0000
0000
0200
0000
,  // measure 85
0000
0000
0310
0000
,  // measure 86
0000
0000
0010
0000
,  // measure 87
0000
0000
0010
0000
,  // measure 88
0000
0000
1000
0000
,  // measure 89
0001
0000
1000
0000
,  // measure 90
0001
0000
0100
0000
,  // measure 91
0001
0000
0100
0000
,  // measure 92
0010
0000
0020
0000
,  // measure 93
0000
0000
0000
0000
,  // measure 94
0000
0000
0000
0000
,  // measure 95
0000
0030
0000
0000
;

//---------------dance-single - ----------------
#NOTEDATA:;
#CHARTNAME:;
#STEPSTYPE:dance-single;
#DESCRIPTION:;
#CHARTSTYLE:;
#DIFFICULTY:Easy;
#METER:8;
#RADARVALUES:0.329565,0.422572,0.177458,0.177458,0.000000,286.000000,264.000000,22.000000,22.000000,0.000000,0.000000,0.000000,0.000000,0.000000,0.329565,0.422572,0.177458,0.177458,0.000000,286.000000,264.000000,22.000000,22.000000,0.000000,0.000000,0.000000,0.000000,0.000000;
#CREDIT:;
#NOTES:
0000
0000
0000
0000
,
0000
0000
0000
0000
,
0000
0000
0000
0000
,
0000
0000
0000
0000
,
0000
0000
0000
0000
,
1000
0000
0100
0000
,
0001
0000
0000
0000
,
0100
0000
1000
0000
,
0020
0000
2030
0000
,
3001
0100
0010
0100
,
0001
1000
0010
0100
,
0010
0010
0010
0010
,
1000
1000
1000
1000
,
0001
0010
0001
0000
,
1000
0010
1000
0000
,
1000
0001
0100
0000
,
1000
0010
1000
0100
,
1010
0000
0100
0000
,
0001
0100
0010
1000
,
1001
0000
0010
0001
,
1000
0010
1000
0001
,
0100
0000
0010
0100
,
0100
0001
1000
0001
,
1000
0000
0010
0100
,
0020
0030
0200
0300
,
0110
0000
0100
0000
,
0001
0000
0010
0000
0001
0000
1000
0001
,
0000
1000
0001
0000
1000
0000
0010
0000
,
1000
0010
0100
0001
,
2000
3000
0002
0003
,
0100
0010
0100
0000
,
0101
0000
0001
0000
1000
0000
0000
0010
,
0200
0000
0301
0000
,
0100
0010
0020
0030
,
1000
0000
0001
0010
,
0100
0010
0001
0000
,
1000
0000
1000
0010
,
1010
0000
0100
0001
,
0101
0000
0110
0000
,
0001
1000
0010
0100
,
0101
0000
0001
1000
,
1100
0100
0010
0000
,
0001
0000
0000
0000
0100
0000
0010
0100
,
0000
0000
0010
0100
0000
0010
0000
1000
,
0000
0100
0010
0000
,
0001
0100
1000
0000
,
1000
0100
0001
0000
,
1001
0000
0001
0100
,
0001
1000
0002
0000
,
0003
1000
0000
0010
0000
0000
0000
0000
,
0100
0000
0000
0000
0010
0000
0000
0100
,
0010
0000
0000
0000
1000
0000
0000
0001
,
1000
0000
0000
0000
0010
0000
0000
0010
,
0000
0020
0000
0030
,
0100
0000
0001
1000
,
0001
0000
1000
0010
,
1000
0010
0100
0010
,
0010
0000
0100
0000
,
0010
0000
0100
0000
,
1100
0000
0100
0010
,
0001
1000
1001
0100
,
2002
3003
1000
0100
,
0200
0000
0310
0000
,
0001
0000
0000
0000
1001
0000
0000
1100
,
0000
0000
0010
0000
,
1000
0000
0001
0010
,
0100
0000
1000
0000
1001
0000
0000
0010
,
0001
0000
0000
0000
1000
0000
0000
0001
,
0100
0000
0000
0000
0001
0000
0000
0001
,
0000
0002
0000
0003
,
1000
0010
0200
0300
,
0001
0010
0200
0300
,
0100
1000
0001
0001
,
0100
0010
0000
0000
,
0020
0000
0130
0000
,
0002
0000
1003
0010
,
0100
0010
1000
0000
,
0001
0010
0001
0100
,
0001
0000
1000
0000
,
0100
0010
0001
1000
,
0001
1000
0020
0000
,
0230
0000
0301
0100
,
0001
1000
0100
0000
,
0010
0000
0001
0100
,
0010
0100
0110
0001
,
1001
0000
1000
0100
,
0110
0000
0001
0100
,
0001
1000
0010
1000
,
0001
0000
0100
0010
,
0110
0000
0010
1000
,
1001
0000
0100
0010
,
0001
1000
0001
1000
,
0010
0100
0220
0000
,
0000
0000
0000
0000
,
0000
0000
0000
0000
,
0000
0330
0000
0000
;

//---------------dance-single - ----------------
#NOTEDATA:;
#CHARTNAME:;
#STEPSTYPE:dance-single;
#DESCRIPTION:;
#CHARTSTYLE:;
#DIFFICULTY:Medium;
#METER:11;
#RADARVALUES:0.475910,0.576234,0.290386,0.298452,0.000000,413.000000,377.000000,36.000000,37.000000,0.000000,0.000000,0.000000,0.000000,0.000000,0.475910,0.576234,0.290386,0.298452,0.000000,413.000000,377.000000,36.000000,37.000000,0.000000,0.000000,0.000000,0.000000,0.000000;
#CREDIT:;
#NOTES:
0000
0000
0000
0000
,
0000
0000
0000
0000
,
0000
0000
0000
0000
,
0000
0000
0000
0000
,
0000
0000
0000
0000
,
1000
0100
0010
0000
,
0001
0010
0100
0100
,
2000
3000
0020
0030
,
0200
0000
0320
0030
,
0100
0000
0010
0100
0010
0100
0010
0000
,
1000
0001
1000
0001
1000
0001
1000
0000
,
0010
0000
0100
0001
0100
0001
0100
0000
,
0010
1000
0010
1000
0010
1000
0010
0000
,
0100
0000
0010
0100
0001
0000
1000
0000
,
0100
0000
1000
0100
0001
0000
0100
0000
,
0010
0000
0001
0010
0100
0000
0010
0000
,
0001
0000
0010
0100
1000
0000
0100
0000
,
0110
0000
0001
0100
,
0001
0000
0100
0000
0010
0000
1000
0001
,
1000
0000
0010
0100
,
0001
0010
1000
0001
,
0100
1000
0010
0100
,
0110
0001
1000
0001
,
1010
0100
0001
0100
,
0002
0003
0200
0300
,
0101
0000
0200
0300
,
0001
0000
0100
0000
0001
0000
1000
0001
,
0000
1000
0001
0010
,
1000
0000
0010
0000
0001
0000
1000
0100
,
2000
3000
0001
0010
,
0100
0010
0100
1000
,
0001
0000
0001
0000
1000
0000
0010
0200
,
0000
0000
0300
0000
0001
0100
0001
0200
,
0000
0300
0010
1000
0020
0000
0000
0000
,
1030
0000
0001
0000
1000
0010
1000
0100
,
0000
0100
0010
0000
0001
0000
1000
0002
,
0000
0003
0100
0001
,
1010
0000
0001
1000
,
1010
0100
0001
0100
,
0110
1000
0010
0100
,
0101
1000
0100
0010
,
0001
0000
0100
0010
0000
0000
0100
0010
,
0000
0000
0100
0000
0010
0100
0010
0200
,
0000
0300
0001
2000
0000
3001
0000
2002
,
0000
3003
0010
0100
,
0001
0100
0001
1000
0001
0000
1000
0000
,
1000
0100
0010
0001
0000
1000
0010
0100
,
0001
0000
1000
0001
0000
0001
0100
0001
,
0000
1000
0010
0100
0000
0010
0200
0000
,
0000
0000
0300
0020
0000
0000
0030
0000
,
0100
0000
0000
0100
0020
0000
0030
1000
,
0002
0000
0003
0000
0110
0000
0000
0001
,
2000
0000
3000
0000
0010
0000
0100
0010
,
0000
0001
0010
0000
0000
0000
0100
0000
,
0010
0100
0010
0000
1000
0000
1001
0000
,
0001
0100
0010
0000
1000
0000
0010
0000
,
1000
0010
0100
0000
0011
0000
0110
0000
,
1000
0001
0100
0001
0100
0000
0011
0000
,
0010
0100
1000
0000
0100
0010
0000
0010
,
0001
1010
0110
0011
,
1010
2000
3002
0000
,
2003
0000
3010
0100
,
0001
0100
0001
0100
0000
0010
1000
0001
,
0010
0000
0001
0100
0000
0110
0000
1001
,
0000
1010
0000
0201
0000
0000
0301
0000
,
1000
0010
0100
0000
0001
0010
0001
0010
,
0100
1000
0100
0000
1001
0000
0000
0010
,
0001
0000
1000
0010
1000
0000
0000
0001
,
0100
0000
0010
0000
0110
0000
0010
0100
,
0000
0001
1000
0000
0000
0000
1000
0000
,
0100
0000
0010
0001
2000
0000
3000
0000
,
0001
0010
0001
0100
0010
0000
0100
0001
,
0100
0000
0100
0010
0100
0000
0002
0000
,
0203
0320
0000
0230
,
0010
0310
0100
1001
,
1001
0001
1000
1010
,
1100
0010
0110
0000
,
0001
0000
1000
0000
0001
0100
0001
0000
,
1000
0010
1000
0000
0100
0000
0000
0000
,
0110
0110
0001
1000
,
1001
1001
2000
0010
,
3010
0000
0200
0001
,
0301
1000
0010
0000
,
0200
0300
0001
0100
,
0001
0100
1001
0001
,
1000
0010
1000
0100
1000
0000
0001
0010
,
0001
0100
1001
0100
,
0001
0100
0001
0010
0001
0000
1000
0010
,
1000
0010
0200
0001
,
0001
0301
1000
0010
,
0100
0001
2000
0100
,
0010
3010
0100
0001
,
0010
0100
0220
0000
,
0000
0000
0000
0000
,
0000
0000
0000
0000
,
0000
0330
0000
0000
;

//---------------dance-single - ----------------
#NOTEDATA:;
#CHARTNAME:;
#STEPSTYPE:dance-single;
#DESCRIPTION:;
#CHARTSTYLE:;
#DIFFICULTY:Hard;
#METER:15;
#RADARVALUES:0.682176,0.921975,0.314585,0.217789,0.201657,592.000000,553.000000,39.000000,27.000000,0.000000,0.000000,0.000000,0.000000,0.000000,0.682176,0.921975,0.314585,0.217789,0.201657,592.000000,553.000000,39.000000,27.000000,0.000000,0.000000,0.000000,0.000000,0.000000;
#CREDIT:;
#NOTES:
0000
0000
0000
0000
,
0000
0000
0000
0000
,
0000
0000
0000
0000
,
0000
0000
0000
0000
,
0000
0000
0000
0000
,
1000
0000
0100
0010
0001
0010
0001
0000
,
1001
0000
0100
1000
0100
1000
0100
0000
,
2000
0000
3010
0100
0020
0000
0130
0001
,
0100
0000
0010
0000
0100
0000
0010
0000
0100
0000
0000
0000
0010
0100
0010
0100
,
0010
0000
0100
0001
0010
0100
0010
0100
,
1000
0001
0010
0001
1000
0010
0100
0010
,
0010
1000
0100
0010
0100
0010
0100
0010
,
0001
0000
1000
0000
0001
0000
1000
0000
0010
0000
1000
0000
0001
1000
0001
1000
,
0001
0000
0110
0100
0010
0000
1010
0000
,
1000
0000
0000
0000
0010
0000
0100
0000
0001
0000
0100
0010
0100
0000
0000
0000
,
0010
1000
0110
0000
1000
0001
1000
0100
,
0010
0000
0001
0100
0020
0000
0130
0000
,
0110
0000
0001
0000
1000
0010
0100
0010
,
0100
0000
0001
0010
0100
0010
0001
0000
,
1010
0000
0010
1000
0010
0100
0001
0100
,
0001
0000
0010
0010
1000
0000
0001
0000
,
0100
0000
1010
0000
0010
0100
0010
0000
,
0110
0000
0001
1000
0001
1000
0001
0000
,
1010
0000
0100
0000
0001
0010
0100
1000
,
0001
0011
1000
0100
,
0101
0000
0001
0000
0100
0010
0100
0000
,
0101
0000
0001
0000
1000
0000
1000
0001
,
0100
0000
0100
0001
0100
0000
0100
0001
,
1000
0000
0010
0100
0001
0000
1000
0100
,
2200
0000
0300
0000
3010
0000
0010
0100
,
0001
1001
0100
1000
,
0001
0000
0001
1000
0001
0000
1000
0001
,
1000
0000
0001
0100
0001
0000
0100
0000
0001
0000
0100
0000
0001
0000
0100
0000
,
0010
0000
0010
1000
0001
0100
0010
0010
,
2000
0000
3000
0000
0001
0010
0100
1000
,
0000
0100
0010
0001
1000
0000
1000
0001
,
0200
0300
0100
0001
,
0220
0330
0001
1000
,
0100
0000
0000
0000
1000
0000
0010
1000
0020
0000
0000
0000
0030
0000
0000
0000
,
0110
0000
0000
0000
1000
0000
0100
0010
0001
0000
0000
0000
0100
0000
0000
0000
,
0001
1000
0100
1000
0001
0000
0100
0000
,
0002
0000
0103
0010
0100
0000
0010
0100
,
0010
0000
0000
0000
0100
0000
0000
0000
0010
0000
0100
0010
0100
0000
0020
0000
,
0000
0030
1000
2002
0000
3003
0000
2002
,
0000
3003
1001
0000
0010
0100
0010
0000
,
1000
0000
0001
0000
1000
0000
0000
0000
1000
0100
1000
0010
1000
0100
1000
0010
,
1000
0100
1000
0010
1000
0000
0000
0000
0010
0000
0010
0000
0100
0000
0100
0000
,
0001
0000
1000
0001
0000
0001
0010
0100
,
0000
0000
1000
0000
0010
0000
0100
0000
0001
0000
0010
0001
0010
0000
0001
0000
,
0000
0011
0000
0210
0000
0310
0001
0000
,
0100
0000
0010
0100
0010
0000
0100
0000
0010
0000
1000
0000
0001
0000
0100
0000
,
0001
1000
1000
0000
0110
0010
0100
0001
,
1000
0010
0010
0000
1001
0000
0110
0110
,
0000
0000
1000
0010
2000
0000
0000
0000
3000
0000
0000
0000
0001
0000
0000
0000
,
0100
0000
0001
0000
0100
0010
0100
0010
0100
0000
0000
0000
0001
0000
0000
0000
,
0001
0100
0010
1000
0001
0000
1000
0000
,
0010
0000
0100
0000
0001
0000
1000
0000
1001
0000
0000
0000
0001
0010
0001
0010
,
0001
0000
0000
0000
0100
0001
0100
0001
0100
0000
0000
0000
0010
0000
0100
0000
,
0010
0000
0100
0010
0100
0000
0000
0000
0010
0000
0010
0000
0100
0000
0001
0000
,
0101
1000
0110
1001
,
0001
0000
0100
0000
0001
0000
0000
0000
0100
0000
0001
0100
0010
0000
0000
0000
,
1000
0000
0010
1000
0001
0000
0000
0000
0100
0000
0010
0000
0100
0010
0100
0000
,
0001
0000
1000
0000
0001
0000
1000
0000
0000
0000
0010
0000
0100
0000
0001
0100
,
0001
0000
0000
0000
0001
1000
0001
1000
0001
0000
1000
0000
0000
0000
0100
0000
,
0000
1010
0000
0101
0000
0000
0100
0000
,
0010
1000
0100
0010
0001
0010
0001
0010
,
0100
0000
1000
0000
0001
0010
0001
0010
0001
0000
0000
0000
0100
0000
0010
0000
,
0101
0000
1000
0010
1010
0000
0001
0100
,
0010
0010
0010
0010
0110
0000
1010
1010
,
0000
0001
0200
0000
0300
0000
0010
0000
,
0100
0010
0100
0010
0100
0000
0000
0000
0020
0000
0000
0000
0130
0000
0000
0000
,
0001
0000
0001
0000
1001
0000
0100
0001
,
0100
0000
0010
1000
0001
0000
0001
0100
,
0010
0000
1000
0001
1000
0001
0100
0000
,
0110
0000
0000
0000
0010
0000
0010
0000
0010
0000
0000
0000
1000
0100
1000
0100
,
1000
0000
0000
0000
0001
0010
0001
0010
0001
0000
0000
0000
0100
0001
0100
0001
,
0100
0001
0100
0001
0100
0001
0100
0001
0100
0000
0000
0000
0000
0000
0000
0000
,
1001
0000
0010
0100
0010
0000
0100
0000
,
0010
0010
1000
0010
,
0100
0010
0100
0000
0002
0000
1003
0001
,
1000
0001
1000
0000
0010
0000
0010
0000
,
0010
0100
0010
0100
0020
0000
1030
0001
,
0000
0001
1000
0000
0020
0000
0130
0000
,
0200
0300
0001
0100
,
0001
0100
0001
0100
0001
1000
0010
1000
0010
0000
0000
0000
1000
0000
0000
0000
,
0010
1000
0010
0000
1000
0000
0001
0100
,
0001
0010
0100
0010
0001
0000
0100
0000
,
0001
0100
0010
0000
1000
0100
0010
0001
,
1000
0000
0010
0100
0010
0000
0000
0000
0200
0000
0000
0000
0001
0000
0000
0000
,
0010
0010
0310
0000
1000
0000
0001
1000
,
0100
0000
0010
0001
2000
0000
0010
0000
,
0100
0100
3100
0000
1000
0001
0100
0001
,
1000
0100
0010
0001
0200
0000
0000
0000
,
0000
0000
0000
0000
,
0000
0000
0000
0000
,
0000
0300
0000
0000
;
