#TITLE:Snowfield Express;
#SUBTITLE:;
#ARTIST:TIME CAPSULE Lab.;
#TITLETRANSLIT:;
#SUBTITLETRANSLIT:;
#ARTISTTRANSLIT:;
#GENRE:;
#CREDIT:from pop n music 21 Sunny Park;
#BANNER:20140314003026!SP_SPUR_FUSION.png;
#BACKGROUND:;
#LYRICSPATH:;
#CDTITLE:;
#MUSIC:Snowfield_Express.ogg;
#OFFSET:-0.355000;
#SAMPLESTART:32.264999;
#SAMPLELENGTH:21.000000;
#SELECTABLE:YES;
#BPMS:0.000000=188.000000
;
#STOPS:
;
#BGCHANGES:;
#KEYSOUNDS:;
#ATTACKS:;

//---------------dance-single - ----------------
#NOTES:
     dance-single:
     :
     Beginner:
     3:
     0.167948,0.257894,0.066233,0.057954,0.000000,142.000000,134.000000,8.000000,7.000000,0.000000,0.000000,0.167948,0.257894,0.066233,0.057954,0.000000,142.000000,134.000000,8.000000,7.000000,0.000000,0.000000:
0000
0000
0000
0000
,
0000
0000
0000
0000
,
0000
0000
0000
0000
,
0000
0000
0000
0000
,
0000
0000
0000
0000
,
0001
0000
0000
1000
,
0000
0000
0000
0000
,
0010
0000
0000
0100
,
0000
0000
0000
0000
,
0002
0000
0000
0003
,
0000
0000
0000
0000
,
2000
0000
0000
3000
,
0000
0000
0000
0000
,
0010
0000
0010
0000
,
0010
0000
0000
0000
,
0100
0000
0100
0000
,
0100
0000
0000
0000
,
0001
0000
0010
0000
,
0100
0000
0000
0000
,
1000
0000
0100
0000
,
0010
0000
0000
0000
,
0001
0000
0010
0000
,
0100
0000
0000
0000
,
1000
0000
0100
0000
,
0001
0000
0000
0000
,
1000
0000
0010
0000
,
0001
0000
0000
0000
,
0100
0000
0001
0000
,
0010
0000
0000
0000
,
1000
0000
0100
0000
,
0010
0000
0001
0000
,
0101
0000
0010
0000
,
2020
0000
3030
0000
,
0100
0000
0000
0000
,
0001
0000
0010
0000
,
0100
0000
0000
0000
,
1000
0000
0001
0000
,
0100
0000
0000
0010
,
0000
0000
0100
0000
,
0100
0000
0000
0010
,
0000
0000
0000
0100
,
0100
0000
0000
0001
,
0000
1000
0000
0010
,
0010
0000
0100
0000
,
0100
0000
1001
0000
,
0200
0000
0300
0001
,
0000
1000
0000
1001
,
0000
0100
0000
0100
,
0000
0010
0000
0000
,
1000
0000
0010
0000
,
1000
0000
0100
0000
,
0010
0000
0001
0000
,
1000
0000
0000
0000
,
0001
0001
0000
0001
,
0000
1000
0000
0100
,
0000
0001
0000
0000
,
1000
1000
0000
0000
,
0001
0000
0010
0000
,
1000
0000
0000
0000
,
0100
0100
0000
0000
,
0010
0000
0001
0000
,
1000
0000
0000
0001
,
0000
0100
0000
0000
,
0010
0010
0000
0000
,
0100
0100
0000
0000
,
0001
1000
0000
0000
,
1000
0001
0000
0000
,
0100
0001
0000
0000
,
0100
0010
0000
0000
,
1000
0000
0001
0000
,
0100
0000
0000
0000
,
0020
0000
0030
0000
,
1000
0000
0001
0000
,
1001
0000
0000
1000
,
0001
0000
0000
0000
,
0110
0000
0000
0001
,
1000
0000
0000
0000
,
0011
0000
0000
1000
,
0001
0000
0000
0000
,
0101
0000
0000
0010
,
1000
0000
0000
0010
,
0100
0000
0000
0001
,
1000
0000
0000
1000
,
0010
0000
0000
0100
,
0001
0000
0000
1000
,
0001
0000
0000
0010
,
0100
0000
0000
1000
,
0001
0000
0000
0000
,
0200
0000
0000
0000
,
0300
0000
0000
0000
;

//---------------dance-single - ----------------
#NOTES:
     dance-single:
     :
     Easy:
     6:
     0.295682,0.367903,0.165582,0.124187,0.000000,250.000000,230.000000,20.000000,15.000000,0.000000,0.000000,0.295682,0.367903,0.165582,0.124187,0.000000,250.000000,230.000000,20.000000,15.000000,0.000000,0.000000:
0000
0000
0000
0000
,
0001
0000
1000
0010
,
0100
0000
0010
0100
,
0001
0000
1000
0010
,
0100
0000
0001
0010
,
0100
0000
1000
0100
,
0010
0000
0001
0100
,
0001
0000
1000
0100
,
0010
0000
0100
0010
,
0002
0000
0000
0003
,
0000
0000
0000
0000
,
2000
0000
0000
3000
,
0000
0000
0000
0000
,
0010
0100
0010
0000
,
0001
1000
0001
0000
,
0100
0010
0100
0000
,
0001
1000
0001
0000
,
0001
0010
0000
0010
,
0001
0000
1000
0000
,
1000
0100
0010
0001
,
1000
0000
0001
0000
,
0101
0000
0100
0001
,
1000
0100
0010
0001
,
0010
0100
1000
0000
,
0001
0000
0110
0000
,
1000
0010
0001
0010
,
1000
0000
0001
0000
,
1000
0010
0001
0010
,
1000
0000
0001
0000
,
1000
0000
1100
0000
,
0010
0000
0011
0000
,
0200
0000
0000
0310
0000
0000
0000
0000
,
0020
0000
0000
0130
0000
0000
0000
0000
,
0100
0000
0001
0000
,
0101
0000
0001
1000
,
0010
0000
1000
0000
,
1010
0000
0001
1000
,
0100
0000
0000
0100
0000
0000
0200
0000
,
0000
0300
0100
0010
,
0001
0000
0000
1000
0000
0000
2000
0000
,
0000
3000
0010
1000
,
0001
0000
0100
0000
,
0001
1000
0010
0100
,
0110
0000
0100
0010
,
0101
0000
0010
0100
,
1100
0000
0000
0100
0000
0000
0200
0000
,
0000
0300
0100
0001
,
0100
0000
0000
1000
0000
0000
2000
0000
,
0000
3000
0001
0010
,
1000
0000
0010
0100
,
1000
0000
0001
0100
,
0010
0000
0101
0000
,
2020
0000
3030
0000
,
0001
0000
0000
0001
0000
0000
0000
0002
,
0000
0000
0003
0000
,
0100
0000
0001
1000
,
0100
1000
0001
0000
,
0001
0010
0001
0000
,
0001
1000
0010
1000
,
0001
0000
0100
0001
,
1000
0000
0001
0010
,
0100
0010
0001
0000
,
1000
0100
1000
0000
,
0010
0100
0010
0000
,
1000
0100
1000
0000
,
0100
0001
0100
0001
,
0100
0000
1000
0001
,
0100
0000
0010
0000
,
0200
0300
0020
0030
,
1001
0000
0000
1001
0000
0000
0000
0000
,
0000
1000
0010
0100
,
0002
0000
1000
0000
,
1000
0003
0100
0000
,
0020
0000
1000
0000
,
0100
0030
0001
0000
,
1000
0000
1001
0000
,
1000
0000
0001
0001
,
1000
0000
0010
1000
,
0001
0000
0100
0001
,
0100
0000
0010
1000
,
0010
0000
0100
0001
,
1000
1000
0001
0001
,
1000
1000
0001
0000
,
1000
0010
1000
0000
,
0010
0100
0010
0000
,
1001
0000
0000
1001
0000
0000
0000
1001
,
0000
0000
0010
1000
,
1001
0000
0000
1001
0000
0000
0000
0101
,
0000
0000
0000
0000
0000
0000
0010
0100
;

//---------------dance-single - ----------------
#NOTES:
     dance-single:
     :
     Medium:
     10:
     0.434062,0.480292,0.240094,0.322885,0.000000,367.000000,338.000000,29.000000,39.000000,0.000000,0.000000,0.434062,0.480292,0.240094,0.322885,0.000000,367.000000,338.000000,29.000000,39.000000,0.000000,0.000000:
0000
0000
0000
0000
,
0001
0000
1000
0100
0000
1000
0010
0100
,
0000
0001
0010
0100
,
1100
0000
0100
0010
0000
0010
0001
0100
,
0000
0001
0010
1000
,
0011
0000
0000
0101
0000
0000
0000
0110
,
0000
0001
1000
0100
,
0010
0000
0001
1000
0000
0001
0100
0001
,
0000
1000
0010
0000
0100
0001
0100
0000
,
0001
0000
0100
0010
0000
0000
0000
0200
,
0000
0000
0000
0300
0010
0000
1000
0000
,
0001
0000
0000
0100
0000
0000
0000
0020
,
0000
0000
0000
0030
0100
0000
0000
0000
,
0010
0000
1000
0000
0010
0100
0010
0200
,
0000
0000
0000
0300
0001
0000
0010
0000
,
0001
0000
1000
0000
0100
0010
0100
0020
,
0000
0000
0000
0030
0001
0000
0000
0000
,
1000
0000
0010
0000
0100
0010
0000
0200
,
0000
0000
0001
0300
1000
0001
1000
0000
,
0001
0000
0100
0010
0000
0100
0000
0202
,
0000
0000
0000
0303
0001
0000
1000
0000
,
1010
0000
0100
0010
0000
0100
0000
2002
,
0000
0000
0000
3003
0000
0000
0001
1000
,
0001
0000
0000
1000
0001
1000
0000
0002
,
0000
0000
0000
0003
0100
0000
0010
1000
,
0010
0000
0100
0001
0100
0000
0010
2000
,
0000
0000
0000
3000
0001
0000
0100
0010
,
1000
0000
0010
0100
0000
0001
0000
2020
,
0000
0000
0000
3030
0001
0000
0100
0000
,
0001
0000
1000
0010
0100
0010
0000
0200
,
0000
0000
0000
0300
0001
0000
0000
0000
,
0200
0000
0000
0320
0000
0000
0230
0000
,
0000
0000
0000
0300
0001
0000
1000
0001
,
1000
0000
0010
0000
0100
0010
0000
0100
,
0000
0001
0001
1000
,
1000
0010
0001
0010
,
0000
1000
2200
3300
,
0010
0000
0001
0100
0000
0001
0200
0000
,
0000
0300
0010
0110
,
1001
0000
0000
1000
0000
0001
2000
0000
,
0000
3000
0010
1010
,
0101
0000
0000
0001
0000
0000
2000
0000
,
0000
3010
0010
1000
,
0001
0000
0100
0010
0100
0000
0010
0100
,
0010
0000
0010
1000
0010
0000
0100
0000
,
0101
0000
0000
0100
0000
0001
2000
0000
,
0000
3000
0010
1100
,
0110
0000
0000
0001
0000
1000
0020
0000
,
0000
0030
0100
0020
,
2030
0000
0000
0000
3001
0100
0000
0002
,
0000
0000
0000
0003
1000
0000
0100
0000
,
0010
0000
0001
0100
0000
0001
0100
0002
,
0000
0000
0000
0003
1000
0000
0010
0100
,
0001
0000
1000
0001
0000
1000
0001
2000
,
0000
0000
0000
3010
0000
0000
0100
0000
,
0110
0000
0000
0001
0000
1000
0000
0010
,
0100
0000
0000
0001
0000
1000
0000
0001
,
0100
0000
0000
0010
0000
0100
0000
0202
,
0000
0000
0000
0303
0001
0000
0001
0000
,
1000
0010
1000
0000
0010
0000
0100
0020
,
0000
0000
0000
0030
0100
0000
0010
0100
,
0010
0100
0010
0000
0000
0000
1000
0001
,
1000
0001
0000
0000
1000
0000
0020
0000
,
0230
0000
0000
0000
0301
0000
1000
0001
,
1000
0000
0100
0010
0001
0000
1000
0000
,
0010
0000
0110
0000
0001
0100
0001
0000
,
0100
0000
0010
1000
0000
0001
0000
1000
,
0002
0000
0003
0000
0100
0000
0010
0200
,
0000
0000
0000
0300
0010
0000
1000
0000
,
1001
0000
0000
1001
0000
0000
0110
0000
,
0000
0110
0000
0000
0010
0000
1000
0001
,
0200
0000
0010
0000
,
0300
0000
0000
0000
0010
0000
1000
0010
,
1000
0000
0000
0100
0000
0010
0000
0001
,
0000
0000
2000
0000
,
3001
0000
0100
0001
0000
1000
0000
1001
,
0000
0000
0001
1000
,
1000
0000
0010
1000
0000
0010
0000
0101
,
0000
0001
0100
0010
,
0100
0000
0010
0100
0000
0010
1000
0010
,
1000
0000
0001
0100
0001
0000
1000
0010
,
1000
0000
0000
0000
0100
0001
0100
0000
,
0001
1001
1000
1010
,
0010
0000
0100
0000
0010
0100
0010
0000
,
0100
0001
1000
0000
0010
1000
0001
0000
,
1000
0000
0001
1000
0000
0001
0000
1001
,
0000
0000
0010
0000
0100
0001
0100
0010
,
0100
0000
0000
0100
0000
0001
0000
0101
,
0000
0000
0100
0010
0100
0000
0100
0020
,
0000
0030
0000
0000
;

//---------------dance-single - ----------------
#NOTES:
     dance-single:
     :
     Hard:
     15:
     0.719099,0.775856,0.298048,0.331164,0.186280,608.000000,572.000000,36.000000,40.000000,0.000000,0.000000,0.719099,0.775856,0.298048,0.331164,0.186280,608.000000,572.000000,36.000000,40.000000,0.000000,0.000000:
// measure 0
0000
0000
0000
0000
,  // measure 1
0001
0000
1000
0100
0000
0010
0001
0010
,  // measure 2
0001
0001
1000
1000
0020
0000
0130
0000
,  // measure 3
0100
0000
0100
0010
0000
0100
0001
0100
,  // measure 4
0000
0001
1000
0010
0010
1000
0100
0000
,  // measure 5
0011
0000
0000
0101
0000
0001
0010
0100
,  // measure 6
1000
1000
0010
0010
0200
0000
0301
0000
,  // measure 7
1000
0010
0001
0010
0000
0010
0100
0001
,  // measure 8
0000
1000
0010
0100
0001
1000
0200
0000
,  // measure 9
0300
0010
0001
1000
0000
0010
1000
0002
,  // measure 10
0000
0103
0010
0100
0001
0010
1000
0010
,  // measure 11
0000
0001
0100
0001
0000
1000
0010
0100
,  // measure 12
0000
0010
1000
0100
0100
0010
0001
1000
,  // measure 13
0000
0001
0100
0001
0000
0100
0010
0200
,  // measure 14
0000
0301
1000
0010
0100
0001
0001
1000
,  // measure 15
0000
0010
1000
0001
0000
0100
0001
2000
,  // measure 16
0000
3001
0010
0001
0010
0100
1000
0000
,  // measure 17
1100
0000
0020
0000
0030
0000
0100
0000
0010
0100
0010
0000
0000
0000
2000
0000
,  // measure 18
0000
0000
3001
0100
0001
0000
1000
0000
0100
0000
0010
0000
0001
0000
0100
0000
,  // measure 19
0002
0000
0103
0020
0000
1030
0002
0000
,  // measure 20
0003
0100
0000
0010
0110
0000
1001
0000
,  // measure 21
1000
0000
0001
0000
0100
0010
0100
0000
0010
0000
1000
0000
0001
0000
0020
0000
,  // measure 22
0000
0001
0031
0001
0000
1000
0100
0010
,  // measure 23
0002
0000
0000
0000
0003
0000
1000
0000
0100
0000
1000
0100
1000
0000
0002
0000
,  // measure 24
0000
0103
0010
0101
0000
0001
0100
0000
,  // measure 25
0010
0000
1000
0001
1000
0000
0000
0000
0100
0000
0010
0000
0001
0000
1000
0000
,  // measure 26
0010
0000
1000
0100
1000
0000
0001
0000
0000
0000
0001
0000
0100
0000
0010
0000
,  // measure 27
2000
0000
3010
0200
0000
0301
0202
0000
,  // measure 28
0303
0000
0001
0010
0001
1000
0100
1000
,  // measure 29
0000
0000
0001
0100
0010
1000
0001
0011
,  // measure 30
0011
0001
0100
0101
0000
0000
0001
1000
,  // measure 31
0100
0010
0100
0010
0000
0010
0022
0000
,  // measure 32
0000
0000
0000
0000
0033
0000
0000
0000
0001
0000
1000
0000
0001
1000
0001
0000
,  // measure 33
1000
0000
0010
0100
0001
0011
0000
0100
,  // measure 34
0010
0000
1000
0001
1000
0000
0001
0000
0100
0000
0010
0000
1010
0000
1010
0000
,  // measure 35
0101
0000
0001
0100
0010
1010
0000
0200
,  // measure 36
0000
0000
0000
0000
0300
0000
0010
0000
0010
0000
0100
0000
0001
0000
1000
0010
,  // measure 37
1000
0000
0000
0000
0001
0100
0001
0000
0000
0000
0001
0000
0200
0000
0000
0000
,  // measure 38
0000
0000
0001
0000
0301
0000
1000
0000
0010
0000
0100
0001
0100
0000
0001
0000
,  // measure 39
1001
0000
0000
0000
1000
0000
0101
0000
0000
0000
0001
1000
0020
0000
0000
0000
,  // measure 40
0000
0100
0130
0001
1000
0010
1010
0000
,  // measure 41
0001
0000
0100
0000
0001
0000
0100
0000
0010
0000
1000
0000
0100
0010
0002
0000
,  // measure 42
0000
0000
0013
0000
0100
0000
1000
0001
,  // measure 43
0100
0000
0010
0100
0000
0010
0100
0000
,  // measure 44
0001
0000
0010
0000
0001
0000
1000
0000
0010
0100
0001
0000
1000
0001
1000
0000
,  // measure 45
0001
0000
0000
0000
0100
0000
0101
0000
0000
0000
1000
0010
0200
0000
0000
0000
,  // measure 46
0000
0000
0001
0000
0301
0000
1000
0000
0010
0000
1000
0000
0100
0000
0010
0001
,  // measure 47
0010
0000
0000
0000
0001
0010
0001
0000
0000
0000
1000
0000
0002
0000
0000
0000
,  // measure 48
0000
0000
1000
0000
1003
0000
0001
0000
0001
0000
0000
0000
0010
0100
0010
0000
,  // measure 49
0001
0000
1000
0000
0100
0000
0010
0000
0001
0100
0001
0000
0100
0000
0020
0000
,  // measure 50
0000
0000
0030
0000
1000
0000
0000
0000
1000
0001
1000
0000
0010
0000
0000
0000
,  // measure 51
0100
0000
0001
0000
0100
0001
0100
0000
0001
0000
0100
0000
0000
0000
0220
0000
,  // measure 52
0000
0000
0000
0330
0000
0000
0010
0000
1000
0000
0000
0000
0010
0000
0100
0000
,  // measure 53
0002
0000
1003
2001
0000
3001
0000
1100
,  // measure 54
0000
0110
0000
0011
0000
0100
0010
0100
,  // measure 55
0010
0000
0000
0000
1000
0000
0001
0000
1000
0001
1000
0000
0010
0000
2000
0000
,  // measure 56
0000
0000
3000
0001
0000
0100
0001
0100
,  // measure 57
0002
0000
0000
1003
0000
0110
0000
0101
,  // measure 58
0000
0000
0001
0000
0000
0000
1000
0010
0100
0000
0000
0000
0001
0010
0001
0000
,  // measure 59
0010
0000
0000
0000
0000
0000
1000
0000
0000
0000
0010
1000
0010
0000
0200
0000
,  // measure 60
0000
0000
0300
0001
0000
0100
0010
0100
,  // measure 61
0001
0000
1000
0000
0010
0000
0100
0000
0000
0000
0010
0000
1000
0001
1000
0000
,  // measure 62
0001
0100
0000
0000
0010
0000
0100
0000
,  // measure 63
0002
0000
0000
1003
0000
0100
1000
0001
,  // measure 64
0010
0000
0001
0100
0000
0100
0001
1000
,  // measure 65
2001
0000
3000
0001
0000
0100
0010
0100
,  // measure 66
0000
0000
0100
0000
1000
0000
0100
0000
0000
0000
0001
0000
0100
0000
0001
0100
,  // measure 67
0002
0000
0000
1003
0100
0010
0001
0200
,  // measure 68
0000
0300
0010
0100
0010
0000
1000
0001
,  // measure 69
0010
0000
0001
0000
1000
0000
0100
0000
0000
0000
0010
0000
0001
0000
1000
0100
,  // measure 70
1000
0000
0010
0000
0000
0000
0000
0000
0010
0000
0000
0000
1000
0001
1000
0000
,  // measure 71
0002
0000
0000
0000
0103
0010
0100
0010
,  // measure 72
1000
0001
0010
0001
0001
1000
0100
0000
,  // measure 73
1000
0000
0100
0110
0000
0010
0001
1000
,  // measure 74
0010
0000
0100
0000
0010
0000
0100
0010
0100
0000
0010
0100
0010
0000
0000
0000
,  // measure 75
1000
0010
0100
0001
1000
1001
0000
0001
,  // measure 76
0100
0000
0010
0000
0010
0000
0100
0000
0001
0000
1000
0010
1000
0000
0010
1000
,  // measure 77
0010
0000
0100
0101
0000
0010
0000
0100
,  // measure 78
0001
1000
0010
1000
0100
0010
0001
0000
,  // measure 79
0100
0000
0010
0000
0010
0000
1001
0000
0000
0000
0010
0000
1000
0010
1000
0010
,  // measure 80
1000
0000
0000
0000
0001
0000
0100
0000
0001
0100
0001
0100
0001
0000
0000
0000
,  // measure 81
1000
0000
0010
0100
0001
0000
0100
0000
0000
0000
0001
0000
1000
0000
0010
0000
,  // measure 82
0100
0001
0101
0010
1000
0010
1000
1010
,  // measure 83
0000
0000
0001
0000
0100
0000
0101
0000
0000
0000
0100
0000
0010
0000
1000
0001
,  // measure 84
0100
0000
0001
0000
1000
0000
0001
0000
1000
0001
0100
0001
0100
0000
0000
0000
,  // measure 85
0010
1000
0010
0100
0000
0001
0010
0011
,  // measure 86
0000
0000
0001
0000
1000
0000
0001
0000
0100
0010
0100
0000
0010
0000
1000
0000
,  // measure 87
0000
0000
0010
0000
0100
0000
0001
0000
0000
0000
0001
0000
0100
0001
0100
0000
,  // measure 88
0000
0000
0010
0000
1000
0000
0010
0000
0100
0001
0100
0000
0001
0000
0020
0000
,  // measure 89
0000
0030
0000
0000
;
