#TITLE:Smiling;
#SUBTITLE:;
#ARTIST:Sota Fujimori feat. Nagisa;
#TITLETRANSLIT:;
#SUBTITLETRANSLIT:;
#ARTISTTRANSLIT:;
#GENRE:;
#CREDIT:from pop n music 21 Sunny Park;
#BANNER:20140314000918!SP_TRICK_POP.png;
#BACKGROUND:;
#LYRICSPATH:;
#CDTITLE:;
#MUSIC:Smiling_--_Sota_Fujimori.ogg;
#OFFSET:-0.356000;
#SAMPLESTART:37.855999;
#SAMPLELENGTH:17.000000;
#SELECTABLE:YES;
#BPMS:0.000000=160.000000
;
#STOPS:
;
#BGCHANGES:;
#KEYSOUNDS:;
#ATTACKS:;

//---------------dance-single - ----------------
#NOTES:
     dance-single:
     :
     Beginner:
     2:
     0.082144,0.094619,0.000000,0.042911,0.000000,67.000000,67.000000,0.000000,5.000000,0.000000,0.000000,0.082144,0.094619,0.000000,0.042911,0.000000,67.000000,67.000000,0.000000,5.000000,0.000000,0.000000:
0000
0000
0000
0000
,
0000
0000
0000
0000
,
0000
0000
0000
0000
,
0000
0000
0000
0000
,
0000
0000
0000
0000
,
0001
0000
0000
0000
,
0001
0000
0000
0000
,
0001
0000
0000
0000
,
1000
0000
0000
0000
,
0001
0000
0000
0000
,
0100
0000
0000
0000
,
0010
0000
0000
0000
,
1000
0000
0000
0000
,
0001
0000
0000
0000
,
0100
0000
0000
0000
,
0010
0000
0000
0000
,
1000
0000
0000
0000
,
0001
0000
0000
0000
,
0001
0000
0000
0000
,
1000
0000
0000
0000
,
1000
0000
0000
0000
,
0100
0000
0000
0000
,
0010
0000
0000
0000
,
0001
0000
0000
0000
,
0001
0000
0000
0000
,
0010
0000
0000
0000
,
0100
0000
0000
0000
,
1000
0000
0000
0000
,
0001
0000
0000
0000
,
1000
0000
0000
0000
,
0001
0000
0000
0000
,
1000
0000
0000
0000
,
0001
0000
0000
0000
,
0010
0000
0000
0000
,
0001
0000
0000
0000
,
1000
0000
0000
0000
,
0000
0000
0000
0000
,
0001
0000
0000
0000
,
0100
0000
0000
0000
,
0001
0000
0000
0000
,
1000
0000
0000
0000
,
0001
0000
0000
0000
,
1000
0000
0000
0000
,
1000
0000
0000
0000
,
0001
0000
0000
0000
,
1000
0000
0000
0000
,
0001
0000
0000
0000
,
0010
0000
0000
0000
,
0001
0000
0000
0000
,
1000
0000
0000
0000
,
0010
0000
0000
0000
,
1000
0000
0000
0000
,
0000
0000
0000
0000
,
0001
0000
0000
0000
,
0010
0000
0000
0000
,
0001
0000
0000
0000
,
0100
0000
0000
0000
,
0001
0000
0000
0000
,
1000
0000
0000
0000
,
0001
0000
0000
0000
,
0100
0000
0000
0000
,
0001
0000
0000
0000
,
1000
0000
0000
0000
,
0010
0000
0000
0000
,
1000
0000
0000
0000
,
0002
0000
0003
0000
,
2000
0000
3000
0000
,
0002
0000
0003
0000
,
2000
0000
3000
0000
,
0001
0000
0000
0000
,
0001
0000
0000
0000
,
1000
0000
0000
0000
,
1000
0000
0000
0000
,
0002
0000
0003
0000
;

//---------------dance-single - ----------------
#NOTES:
     dance-single:
     :
     Easy:
     6:
     0.250110,0.346936,0.180227,0.094404,0.000000,204.000000,183.000000,21.000000,11.000000,0.000000,0.000000,0.250110,0.346936,0.180227,0.094404,0.000000,204.000000,183.000000,21.000000,11.000000,0.000000,0.000000:
0000
0000
0000
0000
,
0000
0000
0000
0000
,
0000
0000
0000
0000
,
0000
0000
0000
0000
,
0000
0000
0000
0000
,
0001
0000
0000
0100
0000
0000
0010
0000
,
0001
0000
0000
0010
0000
0000
1000
0000
,
0001
0000
0000
0100
0000
0000
0000
0000
,
1000
0000
0000
0100
0000
0000
1000
0000
,
0001
0000
0100
0010
,
0100
0000
0110
0110
,
1001
0000
0001
0000
,
1000
0000
1001
1001
,
0110
0000
1000
0010
,
0100
0000
0011
0011
,
0101
0000
0001
0000
,
1000
0000
0020
0000
,
0130
0000
0001
0000
,
1000
0000
0001
0100
,
1000
0000
0100
0000
,
0001
0000
1000
0010
,
0001
0000
0010
0000
,
1000
0000
0100
0010
,
0001
0000
0100
0000
,
0010
0000
0100
0001
,
1000
0000
0001
0010
,
1000
0000
1000
0010
,
0001
0000
0100
0001
,
1000
0000
0010
1000
,
0001
0000
1000
0010
,
0100
0000
0001
0100
,
0010
0000
1000
0100
,
0001
0000
1000
0010
,
0001
0000
1000
0000
,
0001
0000
0100
0010
,
1000
0000
0001
0100
,
0010
0000
1000
0001
,
0001
0000
0000
1000
0000
0000
0000
0000
,
0110
0000
0000
0001
0000
0000
0000
0000
,
1001
0000
0000
0100
0000
0000
0010
0000
,
1000
0000
0000
0010
0000
0000
0100
0000
,
0001
0000
0000
1000
0000
0000
0010
0000
,
1000
0000
0000
0001
0000
0000
1000
0000
,
0010
0000
0000
0100
0000
0000
0001
0000
,
0010
0000
0100
1000
,
0001
0000
0000
1000
0000
0000
0010
0000
,
0001
0000
0000
1000
0000
0000
0100
0000
,
0001
0000
0000
1000
0000
0000
0100
0000
,
0001
0000
0010
0000
,
0022
0000
0033
0000
,
2000
0010
3010
0000
,
0001
0000
0000
0100
0000
0000
0001
0000
,
1000
0000
0000
1000
0000
0000
0100
0000
,
0001
0000
0000
0100
0000
0000
0010
0000
,
0001
0000
0000
1000
0000
0000
0100
0000
,
0100
0000
0000
0010
0000
0000
0001
0000
,
1000
0001
1000
0000
,
0001
0000
1001
0000
,
1000
0000
1100
0000
,
0001
0100
0001
0000
,
1000
0010
1000
0000
,
0002
0000
0103
0000
,
2000
0000
3100
0000
,
0110
0000
0000
0110
0000
0000
0000
0110
,
0000
0000
0000
1001
0000
0000
0000
0000
,
2100
0000
3001
0100
,
0020
0000
0130
0001
,
2000
0000
3010
0100
,
0020
0000
0130
0001
,
1000
0000
0000
0001
0000
0000
1000
0000
,
0001
0000
0000
0100
0000
0000
0010
0000
,
1000
0000
0000
0001
0000
0000
0000
0000
,
1001
0000
0101
0000
,
0020
0000
0030
0000
;

//---------------dance-single - ----------------
#NOTES:
     dance-single:
     :
     Medium:
     10:
     0.452405,0.470681,0.188809,0.145898,0.120151,369.000000,347.000000,22.000000,17.000000,0.000000,0.000000,0.452405,0.470681,0.188809,0.145898,0.120151,369.000000,347.000000,22.000000,17.000000,0.000000,0.000000:
// measure 0
0000
0000
0000
0000
,  // measure 1
0000
0000
0000
0000
,  // measure 2
0000
0000
0000
0000
,  // measure 3
0000
0000
0000
0000
,  // measure 4
0000
0000
0000
0000
,  // measure 5
0001
0000
0010
0100
0000
0000
0011
0000
,  // measure 6
1000
0001
1000
0010
0000
0010
1000
0000
,  // measure 7
0001
0000
0100
0000
0000
0010
0000
0100
0000
0000
0000
0000
0110
0000
0000
0000
,  // measure 8
1000
0000
0001
0000
0100
0000
0000
0010
0000
0000
1000
0000
0001
0000
0000
0000
,  // measure 9
0001
0000
0100
0000
0010
0000
0000
1000
0000
0000
0001
0000
0010
0000
0000
0000
,  // measure 10
0100
0000
1000
0000
0001
0000
0000
0100
0000
0000
0010
0000
1000
0000
0000
0000
,  // measure 11
1001
0000
0000
0000
0100
0000
0001
0000
0100
0000
0000
0010
0000
0000
1000
0000
,  // measure 12
0001
0000
1000
0100
0001
0100
1000
0000
,  // measure 13
0110
0000
0000
0000
0001
0000
1000
0000
0100
0000
0000
0010
0000
0000
0001
0000
,  // measure 14
1000
0000
0000
0000
0001
0000
0000
0100
0000
0000
0010
0000
0100
0000
0000
0000
,  // measure 15
1010
0000
0001
0100
0001
0000
1000
0010
,  // measure 16
1000
0000
0000
0002
0000
0000
0103
0000
0020
0000
0000
0000
1030
0000
0000
0000
,  // measure 17
0100
0010
0001
1000
0000
1000
0010
0100
,  // measure 18
0010
0000
1000
0001
0000
0000
0100
0010
,  // measure 19
0100
0000
0010
1000
0000
0001
0010
1000
,  // measure 20
0010
0000
0001
1000
0000
0010
0010
0000
,  // measure 21
1000
0000
0100
0010
0000
0000
0011
0000
,  // measure 22
1000
0000
0100
0001
0000
0001
0100
0000
,  // measure 23
1000
0000
0010
0100
0000
0100
0010
0000
,  // measure 24
0010
0000
1000
0001
0000
1000
0001
0000
,  // measure 25
1000
0100
0001
0100
0000
0100
1000
0000
,  // measure 26
0010
0001
0000
0010
0001
0000
0010
0000
,  // measure 27
1100
0000
0100
1000
0000
0001
0100
0000
,  // measure 28
1000
0100
0000
0001
0010
0000
0100
1000
,  // measure 29
0001
0000
1000
0010
0000
0010
1000
0000
,  // measure 30
0100
0000
0010
0001
0000
0010
0100
0000
,  // measure 31
1000
0000
0001
0010
0000
0100
1000
0000
,  // measure 32
0001
0000
1000
0010
1000
0000
0100
0001
,  // measure 33
0100
0000
1000
0100
0000
0100
0010
0000
,  // measure 34
0001
0000
1000
0001
1000
0010
0100
0000
,  // measure 35
0002
0000
0103
0000
0010
0000
0100
0010
,  // measure 36
2000
0000
3001
0100
0000
0000
0101
0000
,  // measure 37
1000
0000
0010
0100
0000
0010
0100
0000
,  // measure 38
0210
0000
0000
0310
0000
0000
0010
0000
,  // measure 39
1001
0000
0000
0101
0000
0010
0000
1000
,  // measure 40
0002
0000
0000
2003
0000
0000
3010
0000
,  // measure 41
0100
0010
1000
0010
1000
0000
0001
2000
,  // measure 42
0000
0000
3001
0100
0001
0000
1000
0010
,  // measure 43
0100
0010
1000
0000
0100
0010
0001
1000
,  // measure 44
0010
0000
0100
0000
0010
0100
0001
0000
,  // measure 45
1000
0010
0100
0010
0001
0000
0010
0100
,  // measure 46
0000
0010
1000
0001
0010
0000
0001
0000
,  // measure 47
1000
0010
1000
0000
0010
0100
0001
0100
,  // measure 48
0001
0000
0110
0000
1000
0001
1000
0000
,  // measure 49
0002
0100
0013
0001
,  // measure 50
2000
0001
3010
0100
,  // measure 51
0001
1000
0010
0100
0010
0000
1000
0100
,  // measure 52
1000
0000
0000
0010
0100
0000
0100
0000
,  // measure 53
0101
0000
0001
0000
0100
0010
0100
0000
,  // measure 54
0001
0000
1000
0100
1000
0000
0100
0000
,  // measure 55
0010
0000
0001
0010
0001
0000
1000
0001
,  // measure 56
1000
0000
0001
0100
0000
0100
0010
0000
,  // measure 57
0100
0110
0010
1010
,  // measure 58
1000
0100
0010
0000
0100
0010
0001
0000
,  // measure 59
0001
0110
1000
1100
,  // measure 60
1000
0010
0100
0000
0010
1000
0001
0000
,  // measure 61
2000
0000
0100
0000
3100
0010
1000
0000
,  // measure 62
0020
0000
0100
0000
0130
0001
1000
0000
,  // measure 63
0010
0000
0000
0100
0000
0010
0000
0100
0000
0000
0000
0000
0000
0000
0220
0000
,  // measure 64
0000
0330
0000
2002
0000
3003
1001
0000
,  // measure 65
0001
0000
0000
0000
0000
0100
0000
0001
0000
0000
0000
0000
0100
0000
0000
0000
,  // measure 66
0000
0010
0000
0000
1000
0000
0000
0100
0000
0000
0000
0000
0010
0000
0000
0000
,  // measure 67
0001
0000
0000
0000
0000
1000
0000
0001
0000
0000
0000
0000
0100
0000
0000
0000
,  // measure 68
0000
0010
0000
0000
0100
0000
0000
0001
0000
0000
0000
0000
1000
0000
0000
0000
,  // measure 69
1001
0000
0000
0000
0000
1000
0000
0001
0000
0000
0000
0000
1100
0000
0000
0000
,  // measure 70
0000
0010
0000
0000
0100
0000
0000
0010
0000
0000
0000
0000
1000
0000
0001
0000
,  // measure 71
1000
0000
0000
0000
0000
0001
0000
1000
0000
0000
0000
0000
1000
0000
0000
0000
,  // measure 72
0000
0100
0000
0000
0100
0000
0000
0010
0000
0000
0001
0000
0001
0000
0020
0000
,  // measure 73
0000
0030
0000
0000
0000
0000
0000
0000
;

//---------------dance-single - ----------------
#NOTES:
     dance-single:
     :
     Hard:
     13:
     0.559070,0.725412,0.283213,0.111569,0.360453,456.000000,423.000000,33.000000,13.000000,0.000000,0.000000,0.559070,0.725412,0.283213,0.111569,0.360453,456.000000,423.000000,33.000000,13.000000,0.000000,0.000000:
0000
0000
0000
0000
,
0000
0000
0000
0000
,
0000
0000
0000
0000
,
0000
0000
0000
0000
,
0000
0000
0000
0000
,
0100
0000
0000
0000
0010
1000
0100
0000
0000
0000
0000
0000
1000
0000
0000
0000
,
0001
1000
0000
0000
0010
0000
0100
0010
0000
0000
0010
0000
1000
0000
0100
0000
,
0010
0000
0100
0000
0000
0010
0000
0011
0000
0000
0000
0000
0110
0000
0000
0000
,
1000
0000
1000
0000
0100
0000
0000
0010
0000
0000
0001
0000
1000
0000
0000
0000
,
0001
0000
0100
0000
0000
0010
0000
1000
0000
0000
0010
0000
1000
0000
0100
0000
,
0000
0100
0000
0000
0010
0000
0000
0001
0000
0000
0010
0000
1000
0000
0010
0000
,
0001
0000
0000
0000
1000
0001
0000
0100
0000
0000
0000
0010
0000
0000
1000
0000
,
0000
0001
0000
0000
1000
0000
0000
0010
0000
0000
0001
0000
0010
0000
0100
0000
,
1000
0000
0000
0000
0000
0010
0000
1000
0000
0000
0000
0010
0000
0000
0100
0000
,
0000
0001
0000
0000
0001
0000
0000
1000
0000
0000
0010
0000
0100
0000
0010
0000
,
1000
0000
0000
0000
0001
0000
0100
0000
0001
1000
0000
0000
0010
0000
1000
0000
,
0010
0200
0000
0000
0300
0000
0010
0000
0100
0020
0000
0000
0030
0000
0000
0000
,
0100
0010
1000
0001
0000
1000
0001
0100
,
0010
0000
1000
0001
0100
0000
0010
1000
,
0001
0000
0010
1000
0000
0010
0100
0000
,
1000
0000
0001
1000
0001
0100
0010
0000
,
1000
0000
0000
0010
0000
0000
0010
0000
0000
0000
0000
0000
1010
0000
0000
0000
,
0010
0000
0100
0010
0000
1000
0010
1000
,
0001
0000
0000
0100
0000
0000
0100
0000
0000
0000
0010
0000
1000
0000
0000
0000
,
0010
0000
0000
0100
0000
0000
0001
0000
0000
0000
1000
0000
0001
0000
0000
0000
,
0101
0001
1000
0100
0000
0100
0010
0001
,
0010
0000
1000
1010
0000
0100
0010
1000
,
0010
0000
0100
0001
0000
1000
0010
0000
,
1000
0010
0100
0001
0000
0001
0010
0100
,
1000
0000
0000
1000
0000
0000
1000
0000
0000
0000
0010
0000
1000
0000
0010
0000
,
1000
0000
0010
0001
0000
0010
0100
0001
,
1000
0000
0000
0001
0000
0000
1000
0000
0000
0000
0100
0000
1000
0000
0000
0000
,
0001
0000
0000
1000
0000
0000
0001
0000
0000
0000
1000
0000
0100
0000
0010
0000
,
0011
0000
1000
0100
0000
0010
0001
1000
,
0001
0000
1000
0010
1000
0100
0010
0000
,
0001
0000
0100
0000
0010
0100
0000
0010
0000
0000
0000
0000
0100
0000
0010
0000
,
1000
0000
0001
0000
0100
0010
0000
0100
0000
0000
0000
0000
0010
0000
1000
0000
,
0010
0000
0000
0100
0000
0000
0001
0000
0000
0000
1000
0010
1000
0000
0000
0000
,
0220
0000
0330
1001
0000
0001
0010
0100
,
1100
0000
0000
0100
0000
0100
0000
0100
0000
0000
1100
0000
0010
0000
0001
0000
,
0022
0000
0033
2002
0000
3003
0010
0000
,
0100
0000
0010
0000
1000
0000
0010
0000
1000
0000
0001
0000
0100
0000
0010
1000
,
0002
0000
1003
0100
0010
0100
0010
0001
,
0100
0010
0000
0100
0010
0000
0000
0000
1000
0000
0001
0000
0100
0000
0020
0000
,
0000
0000
0130
0000
0001
0000
0100
0000
0100
0000
0000
0010
0000
0000
1000
0001
,
1000
0010
0100
0010
1000
0100
0001
0100
,
1000
0000
0100
0000
0010
0000
0100
0000
1000
0000
0001
0100
0001
0000
2000
0000
,
0000
0000
3000
0000
1010
0000
0000
0000
0100
0000
0001
0000
0100
0000
0010
0100
,
0010
0000
0000
0000
0010
0000
1000
0000
0001
1000
0001
0000
1000
0000
0000
0000
,
0002
0000
0000
0000
0103
0000
0010
0000
1000
0000
0000
0001
0000
0000
1000
0000
,
0010
0000
0000
0100
0000
0000
0001
0000
0010
0000
0001
0000
0100
0000
0000
0000
,
0010
0000
1000
0000
0001
0000
0100
0001
0100
0000
0000
0000
0010
0000
0100
0000
,
1010
0000
0000
0000
0100
0000
0010
0000
0000
0100
0000
0000
0110
0000
0000
0000
,
0001
1000
0001
0000
0100
0010
0100
0000
,
1001
0000
0000
0001
0000
0000
1000
0000
0001
0000
0100
0010
0100
0000
0000
0000
,
0010
0000
0100
0000
0001
0000
1000
0001
1000
0000
0000
0000
0001
0000
0010
0000
,
0010
0000
0001
0100
0000
0100
0010
0000
,
0001
0000
1000
0000
0010
0000
1010
0010
,
1000
0000
0010
0000
0100
0001
0101
0000
,
0001
0000
1000
0000
0010
0100
0000
0000
1100
0000
0000
0000
0010
0000
0100
0000
,
0001
0000
0000
0000
0100
0000
0000
0000
0010
0100
0010
0000
0100
0000
0000
0000
,
0010
0000
0000
1000
0000
0010
0000
0100
0000
0000
0000
0000
1000
0000
0001
0000
,
0100
0000
0000
0000
0010
0000
0000
0100
0000
0000
0001
1000
0001
0000
0000
0000
,
0101
0000
0000
0011
0000
0011
0000
0011
0000
0000
0101
0000
0000
0000
0100
0010
,
0100
0010
0100
0000
0000
0000
0001
1000
0001
1000
0001
0000
1000
0000
0000
0000
,
1000
0000
0000
0000
0010
0100
0000
0001
0000
0000
0000
0000
0100
0000
0010
0000
,
0000
0110
0000
0000
1010
0000
0000
0100
0000
0000
0001
0000
0010
0000
0001
0000
,
0010
0000
0000
0000
0010
0100
0000
0100
0000
0000
0000
0000
1000
0000
0010
0000
,
0000
0110
0000
0000
0010
0000
0000
1010
0000
0000
1100
0000
0000
0000
0000
0000
,
1001
0000
0000
0000
0001
1000
0000
0010
0000
0000
0100
0000
0010
0000
1000
0000
,
0001
1000
0000
0000
0001
0000
1000
0001
0000
0000
1000
0000
0010
0000
1000
0000
,
0010
0000
0100
0000
0000
0001
0000
0010
0000
0000
0000
0000
0011
0000
0000
0000
,
0000
0110
0000
0000
1100
0000
0000
0010
0000
0100
0001
0000
0100
0000
0002
0000
,
0000
0000
0003
0000
;

//---------------dance-single - ----------------
#NOTES:
     dance-single:
     :
     Challenge:
     16:
     0.874160,0.939753,0.369035,0.060076,1.016993,713.000000,670.000000,43.000000,7.000000,0.000000,0.000000,0.874160,0.939753,0.369035,0.060076,1.016993,713.000000,670.000000,43.000000,7.000000,0.000000,0.000000:
0000
0000
0000
0000
,
0000
0000
0000
0000
,
0000
0000
0000
0000
,
0000
0000
0000
0000
,
0000
0000
0000
0000
,
0100
0000
0000
0000
0010
1000
0100
0000
0000
0000
0010
0000
1000
0001
0000
0001
,
0000
1000
0010
0000
0100
0000
0100
0010
0000
0000
0010
1000
0100
0010
0001
0010
,
0001
0000
0100
0000
0000
0010
0000
0110
0000
0000
0000
0010
0100
0000
0010
0000
,
0000
1000
0100
0010
0100
0000
0010
0001
0000
0001
1000
0000
0100
0010
0001
1000
,
0100
0000
0010
0000
0001
0010
0100
1000
0100
0010
0000
0001
0000
0000
1100
0000
,
0000
0100
0000
0000
0011
0000
0001
0010
0000
0001
0010
0000
0100
0010
0001
0010
,
0001
0000
1000
0000
0001
0100
0010
0010
1000
0001
0000
0001
0000
1000
0001
0000
,
0000
0101
0000
0000
1010
0000
0000
0010
0000
0100
0001
0000
1000
0100
0010
0001
,
1000
0000
0010
0000
0010
1000
0100
1000
0100
0010
0001
0100
0000
0000
0100
0000
,
0000
0101
0000
0000
1010
0000
0000
1000
0000
0000
0010
0100
0001
0010
0100
0010
,
0001
0000
1000
0000
0001
0100
0001
0000
0100
0010
0000
0010
1000
0000
1000
0000
,
0010
0200
0000
0010
0300
0000
0010
0000
0100
0001
0100
0000
0010
1000
0010
0000
,
0100
0000
0001
1000
0001
0000
0100
0000
0001
0000
0001
0000
1000
0000
0100
0000
,
0010
0000
0001
1000
0100
0000
0010
0001
0100
0000
0010
0000
1000
0000
1000
0000
,
1001
0000
0000
0000
0010
0000
1000
0100
0000
0010
0001
0000
0100
0010
0100
0000
,
0001
0000
1000
0000
0001
0100
0000
0100
0001
0000
0100
0010
0100
0000
0010
1000
,
0010
0000
0100
0010
0000
0000
0010
0100
0000
0000
0001
0000
0100
0000
0001
0010
,
0001
0000
1000
0000
0100
0000
0010
0001
0000
1000
0001
0000
0010
0000
1000
0000
,
0010
0000
0001
0100
0000
0000
0100
0001
0000
0000
0010
0000
1000
0000
0010
0000
,
0001
0000
0000
0100
0000
0000
0001
0000
1000
0000
0010
0000
0100
0000
0001
0100
,
0010
1000
0100
0100
0010
0001
0010
1000
,
0010
0000
0001
1000
0001
0000
1000
0001
1000
0000
0010
0000
0100
0000
0001
0000
,
0010
0000
0001
0100
0010
0100
0001
0000
0000
0000
1000
0000
0010
0000
0100
0010
,
1000
0010
0100
0000
0001
0100
0001
0100
0000
0000
0001
0010
0001
0000
1000
0000
,
0010
1000
0100
1000
0010
0000
1000
0010
0000
0000
0010
1000
0000
0000
0010
0000
,
1000
0000
0001
0100
0010
0000
1000
0010
0000
0100
0001
0000
0100
0000
0010
0000
,
0100
0000
0001
1000
0000
0000
1000
0001
0000
0000
1000
0000
0001
0000
0010
0000
,
0001
1000
0001
0000
1000
0001
1000
0001
0000
0000
1000
0100
1000
0100
1000
0100
,
0010
0000
0000
0000
0011
0000
0010
0001
0000
0000
0010
0000
1000
0000
0010
0000
,
0001
1000
0100
0010
1000
0010
0001
0000
,
0001
0000
0100
0000
0010
0100
0000
0010
0100
0000
0010
0000
0100
0000
0010
1000
,
0001
0000
1000
0000
0100
0010
0100
0010
0000
0000
0001
0000
1000
0000
1100
0000
,
0010
0000
1000
0010
0000
0000
0100
0010
0100
0000
0001
0100
0000
0000
0001
0100
,
0020
0000
0000
0000
1030
0000
0001
0100
0000
0100
0001
0000
0010
0000
0100
0000
,
1100
0000
0000
1100
0000
0110
0000
0011
0000
0000
1100
0000
0110
0000
0110
0000
,
0001
0010
0001
0010
0001
0000
1000
0100
1000
0100
0010
0000
0001
0000
1000
0010
,
0100
0000
0010
0000
1000
0000
0001
0000
1000
0001
1000
0001
1000
0000
0010
1000
,
0010
0000
0100
0010
1000
0000
0100
0010
0001
0000
0100
0000
0001
0000
2000
0000
,
3001
0100
0010
0100
0010
1000
0100
0010
0001
1000
0100
0000
1000
0000
0002
0000
,
0003
0000
0100
0001
0100
0000
0010
0000
0100
0000
0001
0010
0100
0000
1000
0001
,
1000
0000
0010
0000
0100
0010
0100
0010
1000
0000
0100
0000
0010
0001
0100
0000
,
1000
0000
0100
0000
0001
0000
0100
0000
0001
0000
0100
0010
1000
0000
0020
0000
,
1030
0100
0010
0001
0010
0100
1000
0100
1000
0010
0100
0000
0010
0000
0100
0001
,
0100
0000
0010
1000
0010
1000
0001
0000
1000
0100
0010
0000
0011
0000
0000
0000
,
2002
0000
3003
0000
0100
0010
0000
0010
0000
1000
0100
0010
0001
0000
1000
0010
,
1000
0000
0001
0100
0001
0000
0100
0010
0000
0010
1000
0000
0100
0010
0100
0010
,
0001
0000
1000
0000
0001
0100
0001
0010
0000
0010
0001
0000
1000
0000
0110
0000
,
0011
0000
0000
0000
0100
0000
0010
0100
0000
0100
0010
0010
0100
0000
0001
0000
,
1001
0000
1000
0000
0101
0000
0010
0100
0000
0010
0100
0000
0010
1000
0001
0000
,
1000
0010
0000
0100
0001
0000
1000
0001
0000
0001
1000
0010
0100
0000
0001
0000
,
1000
0000
0010
0100
0001
0100
0001
0000
1000
0000
0001
0000
0001
0000
0010
0000
,
0100
0000
1000
0000
0001
0000
0100
0010
0000
1000
0001
0010
0001
0000
0000
0000
,
0011
0000
0001
0010
0100
0000
1000
0100
0010
0000
0001
0000
0011
0000
0001
0010
,
0000
0100
1000
0000
0010
0000
0100
0001
0100
0001
0100
0000
0101
0000
0000
0000
,
1100
0000
0110
0000
0010
0100
0000
0001
0100
0000
0001
0000
1000
0000
0100
0000
,
0010
0001
0000
1000
0010
0000
0000
0100
0010
0100
0010
0000
0100
0000
0001
1000
,
0001
1000
0100
1000
0010
0100
0010
1000
0010
0100
0010
0000
0100
0001
0100
0001
,
0000
0100
0010
0100
0010
1000
0010
1000
0000
0001
0010
0001
0010
0001
0010
0000
,
0011
0000
0000
0011
0000
1001
0000
1010
0000
0000
0110
0000
0000
0000
1000
0100
,
0010
0001
1000
0100
0010
0000
0001
0010
0100
1000
0001
0000
0010
0000
0000
0000
,
0101
0000
0000
0000
0000
0100
0001
0100
0000
0000
0000
0000
1010
0000
0110
0000
,
0000
0100
0010
0000
1000
0000
0000
0100
0001
0000
0100
0000
0010
0000
0011
0000
,
1001
0000
0010
0000
0100
0010
0000
0100
0000
0010
0100
0010
0100
0000
0010
0000
,
0000
0100
0001
1000
0001
0000
0000
1001
0000
0001
1000
0000
0001
0010
0001
0010
,
0001
0000
0000
0000
0001
1000
0000
1010
0000
0000
0100
0010
0100
0000
1000
0000
,
0100
0001
0000
0000
1001
0000
1000
0100
0000
0010
0001
0000
1000
0100
0010
0100
,
1000
0000
0100
0000
0000
0110
0000
0011
0000
0000
0000
0001
0010
0001
0000
0000
,
0000
1000
0001
0010
0001
0000
0000
0001
0000
0001
0010
0000
0001
0010
0100
0010
,
0001
0000
0000
0000
;
