#VERSION:0.83;
#TITLE:Show Up!;
#SUBTITLE:;
#ARTIST:3 Majesty;
#TITLETRANSLIT:;
#SUBTITLETRANSLIT:;
#ARTISTTRANSLIT:;
#GENRE:;
#ORIGIN:;
#CREDIT:from pop n music 22 Lapistoria;
#BANNER:20150319032908!LT_Show_Up!.png;
#BACKGROUND:;
#PREVIEWVID:;
#JACKET:;
#CDIMAGE:;
#DISCIMAGE:;
#LYRICSPATH:;
#CDTITLE:;
#MUSIC:Show_Up!-[cut].mp3;
#OFFSET:-0.100000;
#SAMPLESTART:72.739998;
#SAMPLELENGTH:18.000000;
#SELECTABLE:YES;
#BPMS:0.000=132.000;
#STOPS:;
#DELAYS:;
#WARPS:;
#TIMESIGNATURES:0.000=4=4;
#TICKCOUNTS:0.000=4;
#COMBOS:0.000=1;
#SPEEDS:0.000=1.000=0.000=0;
#SCROLLS:0.000=1.000;
#FAKES:;
#LABELS:0.000=Song Start;
#BGCHANGES:;
#KEYSOUNDS:;
#ATTACKS:
;

//---------------dance-single - ----------------
#NOTEDATA:;
#CHARTNAME:;
#STEPSTYPE:dance-single;
#DESCRIPTION:;
#CHARTSTYLE:;
#DIFFICULTY:Beginner;
#METER:2;
#RADARVALUES:0.109696,0.133730,0.034511,0.060394,0.000000,89.000000,85.000000,4.000000,7.000000,0.000000,0.000000,0.000000,0.000000,0.000000,0.109696,0.133730,0.034511,0.060394,0.000000,89.000000,85.000000,4.000000,7.000000,0.000000,0.000000,0.000000,0.000000,0.000000;
#CREDIT:;
#NOTES:
0100
0000
0000
0000
,
0010
0000
0000
0000
,
1000
0000
0000
0000
,
0001
0000
0000
0000
,
2000
0000
3000
0000
,
0000
0000
0001
0000
,
0002
0000
0003
0000
,
0000
0000
1000
0000
,
0001
0000
1000
0000
,
0001
0000
0000
0000
,
1000
0000
0010
0000
,
1000
0000
0000
0000
,
0100
0000
0010
0000
,
0100
0000
0000
0000
,
0010
0000
0001
0000
,
1000
0000
0000
0000
,
1001
0000
0000
0000
,
1000
0000
0001
0000
,
1000
0000
0001
0000
,
1000
0000
0001
0000
,
1000
0000
0000
0000
,
0001
0000
0100
0000
,
0001
0000
0100
0000
,
0001
0000
0000
0000
,
1000
0000
0010
0000
,
1000
0000
0001
0000
,
1000
0000
0001
0000
,
1000
0000
0000
0000
,
0010
0000
1000
0000
,
0010
0000
1000
0000
,
0001
0000
0100
0000
,
0100
0000
0000
0000
,
0010
0000
0000
0000
,
0000
0000
0000
0000
,
1000
0000
0001
0000
,
0100
0000
0000
0000
,
0001
0000
0100
0000
,
0010
0000
1000
0000
,
0002
0000
0003
0000
,
1000
0000
1000
0000
,
2000
0000
3000
0000
,
0001
0000
0001
0000
,
0002
0000
0003
0000
,
0100
0000
0100
0000
,
0100
0000
0000
0000
,
0000
0000
0010
0000
,
0010
0000
0010
0000
,
0000
0000
0000
0000
,
1000
0000
0001
0000
,
1000
0000
0000
0000
,
0010
0000
0010
0000
,
0010
0000
0000
0000
,
2000
0000
3000
0000
,
0002
0000
0003
0000
,
0100
0000
0000
0000
,
0010
0000
0000
0000
,
0110
0000
0000
0000
,
1000
0000
0000
0000
,
1001
0000
0000
0000
,
0001
0000
0000
0000
,
0101
0000
0000
0000
,
0001
0000
0000
0000
,
1000
0000
0000
0000
;

//---------------dance-single - ----------------
#NOTEDATA:;
#CHARTNAME:;
#STEPSTYPE:dance-single;
#DESCRIPTION:;
#CHARTSTYLE:;
#DIFFICULTY:Easy;
#METER:6;
#RADARVALUES:0.279786,0.347699,0.181183,0.258833,0.000000,227.000000,206.000000,21.000000,30.000000,0.000000,0.000000,0.000000,0.000000,0.000000,0.279786,0.347699,0.181183,0.258833,0.000000,227.000000,206.000000,21.000000,30.000000,0.000000,0.000000,0.000000,0.000000,0.000000;
#CREDIT:;
#NOTES:
0200
0000
0320
0000
,
2030
0000
3002
0000
,
2003
0000
0010
0000
,
3010
0000
0002
0000
,
0100
0000
0103
0000
,
0020
0000
0030
0000
,
2000
0000
0000
3002
,
0000
0000
1003
0000
,
1010
1000
1000
0001
,
0001
0100
0010
0010
,
1001
0100
0010
0001
,
1000
0100
0010
0001
,
1001
0100
0100
0010
,
0010
1000
0001
0100
,
1010
1000
0001
0101
,
1000
0000
0100
0000
1000
0010
1000
0000
,
0010
0100
0001
1000
,
1001
0000
0001
0000
0100
0000
0010
1000
,
0010
0000
0100
0001
0100
0000
0001
0000
,
1000
0001
1000
0010
,
0110
0100
0001
1000
,
0001
1000
0100
0001
,
0001
0000
0100
0000
1000
0000
0001
0100
,
0001
1000
1010
0000
,
1001
0000
0001
0000
0100
0010
0100
0000
,
0001
1000
0001
1000
,
1100
0010
0011
0001
,
1001
1000
0100
0010
,
0011
0001
1000
0010
,
0100
0000
0001
0000
1000
0000
0001
0100
,
0001
0000
1000
0010
1000
0000
0001
0000
,
0100
0000
0010
0000
1000
0000
0000
0020
,
0000
0000
0000
0130
0000
0000
0000
0002
,
0000
0000
0000
1003
0000
0000
0000
2000
,
0000
0000
0000
3100
0000
0000
0000
0200
,
0000
0000
0000
0310
0000
0000
0000
0002
,
0000
0000
0000
0013
0000
0000
0000
2000
,
0000
0000
0000
3010
0000
0000
0000
0000
,
0200
0000
0000
0000
0320
0000
0000
1000
,
0030
1000
0002
2003
,
3010
0100
0001
1000
,
0001
0000
1000
0000
0010
1000
0010
0000
,
2000
0000
3001
0000
,
0110
0000
0010
0000
0100
0000
0010
1000
,
0001
0000
0000
1000
0000
0000
0001
0000
,
0000
1000
0010
0000
,
2010
0000
0000
0010
3000
0000
0020
0000
,
0000
0030
0100
0010
,
1020
0000
1030
0000
,
0001
0100
0001
1000
,
0010
0000
0000
0100
0000
0000
0200
0000
,
0000
0310
0000
0010
,
2001
0000
3001
0000
,
0210
0000
0310
0000
,
0100
0010
1000
0000
,
0010
1000
0001
0100
,
0101
0001
1000
0010
,
1000
0010
1000
0100
,
0010
0001
2000
0010
,
3001
0000
0010
0000
0001
0100
0010
0000
,
0100
0010
0200
0010
,
0301
1000
2002
3003
,
1001
0000
0000
0000
;

//---------------dance-single - ----------------
#NOTEDATA:;
#CHARTNAME:;
#STEPSTYPE:dance-single;
#DESCRIPTION:;
#CHARTSTYLE:;
#DIFFICULTY:Medium;
#METER:10;
#RADARVALUES:0.436318,0.462016,0.276088,0.422760,0.004314,354.000000,322.000000,32.000000,49.000000,0.000000,0.000000,0.000000,0.000000,0.000000,0.436318,0.462016,0.276088,0.422760,0.004314,354.000000,322.000000,32.000000,49.000000,0.000000,0.000000,0.000000,0.000000,0.000000;
#CREDIT:;
#NOTES:
0200
0000
0000
0010
0320
0000
0000
1000
,
0030
1000
0001
1000
0001
0100
0010
0100
,
0020
0000
0000
0130
0100
0000
0000
0010
,
0000
0010
1000
0001
1000
0001
0100
0010
,
0200
0000
0310
0200
0000
0310
0200
0000
,
0300
0100
0020
0000
2030
0000
3002
0000
,
2003
0000
3001
0020
0000
0130
0020
0000
,
0000
0031
1000
0001
,
1010
0000
1000
0100
0000
0000
0010
0001
,
0000
0011
0000
2001
0000
3000
0100
0000
,
0010
0001
0010
0001
0000
0000
0001
1000
,
0000
1010
0000
0102
0000
0003
1000
0000
,
1001
0000
0010
0100
0000
0000
0001
1000
,
0000
0110
0000
2001
0000
3000
0010
0000
,
1000
0100
0010
0100
0000
0100
0010
0002
,
0003
0020
0031
0200
1000
0000
0310
0000
,
0110
0000
0100
0001
0000
1000
0010
1000
,
0000
0001
0100
0010
0000
0010
0000
1000
,
0000
0010
0100
0001
0000
1000
0001
0100
,
0000
0001
0010
0100
0000
2000
0000
3000
,
0010
0100
0010
0100
0000
0001
1000
0010
,
0000
0010
1000
0100
0000
0010
0000
0001
,
0000
0010
0100
0000
1000
0100
1000
0100
,
0000
1000
0000
0010
0000
2000
0000
3000
,
1001
0000
0001
0100
0000
0010
0100
1000
,
0000
0100
0001
0100
0000
0001
0000
1000
,
0000
0010
0100
0010
0000
0100
0010
1000
,
0000
0001
0010
0200
0000
0000
0300
0000
,
1000
0100
0010
0001
0000
0010
0100
1000
,
0000
0100
1000
0001
0000
0100
0000
0010
,
0000
1000
0000
0010
1000
0001
0010
0200
,
0000
1300
0000
0100
0000
0010
0001
0011
,
0000
1000
0000
0200
0300
0010
0001
1000
,
0000
1000
0000
0200
0300
0010
0001
2000
,
0000
3010
0100
0010
0000
0100
0010
0210
,
0000
0000
0010
0310
0000
0001
1000
0010
,
0000
1000
0010
0100
0000
1000
0100
0010
,
0000
0000
0001
0000
0010
0000
0000
0000
0100
0000
0000
1000
0000
0000
0010
0000
,
1020
0000
1030
0010
0200
0000
0310
0100
,
0000
0100
0110
0000
0001
0000
1000
0000
,
0120
0000
0130
0001
0100
0000
1000
0010
,
0000
0100
0001
1000
0100
0010
0001
1000
,
2010
0000
0000
0010
3010
0000
0000
0200
,
0300
0010
0100
0010
1000
0001
0010
1000
,
0010
0001
0100
1000
0100
0001
0100
0010
,
1000
0001
1000
0000
0010
0010
0000
0000
,
2010
0000
3010
0020
0000
0130
0200
0000
,
0000
0300
0101
0000
0200
0300
0020
0030
,
2001
0000
0000
3001
1000
0000
0000
0001
,
0000
0100
0100
0010
1000
0001
0010
0001
,
0021
0000
0031
2000
0000
3010
0210
0000
,
0000
0310
0100
0010
,
1000
0001
1000
0001
0010
0100
0010
0001
,
1000
0100
0010
0100
2000
3000
0001
0100
,
0102
0000
0013
0100
0010
0000
0001
1000
,
0000
1010
0000
0102
0000
0003
0100
0010
,
0110
0010
1000
0010
0000
0000
0100
0010
,
0000
1010
0000
2001
0000
3000
0010
0000
,
0011
0001
0001
1000
0000
0000
0010
0100
,
0000
0101
0000
1002
0000
0003
0100
0000
,
0110
0100
0010
1000
0000
0001
0010
0002
,
0000
1003
0100
2000
0000
0000
3001
0000
,
2002
0000
0000
0000
,
3003
0000
0000
0000
;

//---------------dance-single - ----------------
#NOTEDATA:;
#CHARTNAME:;
#STEPSTYPE:dance-single;
#DESCRIPTION:;
#CHARTSTYLE:;
#DIFFICULTY:Hard;
#METER:12;
#RADARVALUES:0.539851,0.652258,0.388249,0.414132,0.056080,438.000000,393.000000,45.000000,48.000000,0.000000,0.000000,0.000000,0.000000,0.000000,0.539851,0.652258,0.388249,0.414132,0.056080,438.000000,393.000000,45.000000,48.000000,0.000000,0.000000,0.000000,0.000000,0.000000;
#CREDIT:;
#NOTES:
// measure 0
0200
0000
0000
0010
0310
0000
0000
1000
,  // measure 1
0000
0001
0100
1000
0100
0001
0010
0100
,  // measure 2
2000
0000
0000
0100
3010
0000
0000
0010
,  // measure 3
0000
0010
0001
0100
1000
0100
0010
0001
,  // measure 4
0200
0000
0301
0200
0000
0301
2000
0000
,  // measure 5
3000
0010
0100
0000
0220
0330
0022
0033
,  // measure 6
2000
0000
3001
0020
0000
0130
2000
0000
,  // measure 7
0000
0000
3000
0000
0001
0000
0000
0000
1000
0000
0001
0000
1000
0001
1000
0000
,  // measure 8
1001
0100
0010
0100
0101
0000
0010
0011
,  // measure 9
0000
0000
0010
0000
0001
0000
2000
0000
0000
0000
3010
0000
0100
0000
0001
0010
,  // measure 10
0100
1000
0010
1001
1001
0000
0010
1010
,  // measure 11
0000
0000
1000
0000
0100
0000
0020
0000
0000
0000
0031
0000
1000
0100
1000
0000
,  // measure 12
0100
1000
0010
0100
0101
0000
0001
0010
,  // measure 13
0100
0000
1000
0000
0000
0000
2001
0000
0000
0000
3001
0000
0100
0010
0100
0000
,  // measure 14
1000
0100
0001
0010
1100
0000
0010
1000
,  // measure 15
0100
0000
0010
0000
0001
0000
1000
0000
0001
0010
0001
0000
1000
0100
1000
0000
,  // measure 16
0010
0100
0010
0100
0000
1000
0010
0100
,  // measure 17
0000
0001
0010
0100
1000
0010
0001
1000
,  // measure 18
0000
0010
0100
0001
1000
1000
0001
0010
,  // measure 19
0100
0001
0010
0100
0000
2000
3100
0010
,  // measure 20
0000
1000
0100
0010
0000
1000
0100
0010
,  // measure 21
0000
0001
0100
0001
0000
0010
0100
0001
,  // measure 22
0000
1000
0100
0010
0100
0010
0001
0100
,  // measure 23
0010
1010
0010
0101
0000
2010
0000
3000
,  // measure 24
1001
0010
0001
0100
0000
1000
0010
0100
,  // measure 25
0000
0010
0001
0100
0000
1000
0100
0010
,  // measure 26
0001
0100
0010
1000
0000
0001
0010
1000
,  // measure 27
0000
0001
0010
0200
0000
0000
1300
0000
,  // measure 28
1100
0100
0010
0001
0000
0100
0001
0100
,  // measure 29
0000
1000
0100
0010
0000
0100
0010
0001
,  // measure 30
0100
0100
0010
0001
1000
0100
0010
0200
,  // measure 31
0301
2000
3010
0200
0301
0010
0100
1100
,  // measure 32
0000
1000
0010
0100
0000
0001
0010
1010
,  // measure 33
0000
1000
0100
0010
0000
0100
0001
0100
,  // measure 34
0000
0001
1000
0001
0000
0100
0010
0100
,  // measure 35
0010
1000
0010
0200
0300
0001
0100
0010
,  // measure 36
0000
1000
0010
0100
0001
1000
1000
0010
,  // measure 37
0000
0000
0100
0000
0001
0000
0001
0000
0100
0000
0000
0010
0000
0000
0100
0000
,  // measure 38
0020
0000
1030
0001
0202
0003
0301
0010
,  // measure 39
0000
0000
0100
0000
1000
0000
0000
0000
0001
0000
1000
0000
0001
0100
0001
0000
,  // measure 40
0200
0000
0301
0100
0001
0000
1000
0010
,  // measure 41
0000
0100
0001
1000
0100
0010
0001
1000
,  // measure 42
2100
0000
0000
3010
1010
0000
0100
0010
,  // measure 43
0000
0010
0100
0010
1010
0001
0010
0001
,  // measure 44
0200
0000
0310
0200
0000
0301
0020
0000
,  // measure 45
0030
0100
1000
0000
0010
0100
0010
0000
,  // measure 46
2000
3000
0010
2020
3030
0100
0202
0000
,  // measure 47
0303
0001
0101
0000
0200
0300
0020
0030
,  // measure 48
2000
0000
0000
3001
0001
0000
1000
0100
,  // measure 49
0000
0100
0010
0001
1000
0100
0010
0100
,  // measure 50
1000
0000
0001
0011
0000
0010
0220
0000
,  // measure 51
0330
0000
1000
0010
0100
0000
0002
0003
,  // measure 52
1001
1001
0100
1010
1010
0100
0101
0101
,  // measure 53
0001
1001
1001
0100
2000
0000
0001
3001
,  // measure 54
0002
0000
0100
0100
0000
0000
0010
0013
,  // measure 55
0000
0000
1000
0000
0001
0000
0200
0000
0000
0000
0310
0100
0010
0000
0100
0010
,  // measure 56
0100
0001
1001
1010
0000
0100
0010
0110
,  // measure 57
0000
0000
0001
0000
1000
0000
0020
0000
0000
0000
1030
0000
0100
0010
0001
0000
,  // measure 58
0011
0001
1100
1100
0000
0010
0100
0101
,  // measure 59
0000
0000
0100
0000
0001
0000
2000
0000
0000
0000
3010
0000
0100
0001
0100
0000
,  // measure 60
0101
0010
0110
1010
0000
1000
0100
0010
,  // measure 61
0000
0000
1000
0000
0010
0000
0002
0000
0000
0000
0103
0000
0001
1000
0001
0000
,  // measure 62
2000
0000
0000
0000
,  // measure 63
3000
0000
0000
0000
;
