#TITLE:Shoujo to tokei to koi dorobou;
#SUBTITLE:;
#ARTIST:MarcheИ;
#TITLETRANSLIT:;
#SUBTITLETRANSLIT:;
#ARTISTTRANSLIT:MarcheN;
#GENRE:;
#CREDIT:from pop n music eclale;
#BANNER:Ec_Shoujo_to_tokei (1) (1).png;
#BACKGROUND:;
#LYRICSPATH:;
#CDTITLE:;
#MUSIC:Shoujo_to_tokei_to_koi_dorobou.ogg;
#OFFSET:-0.082000;
#SAMPLESTART:52.008999;
#SAMPLELENGTH:17.799999;
#SELECTABLE:YES;
#BPMS:0.000000=134.000000
;
#STOPS:
;
#BGCHANGES:;
#KEYSOUNDS:;
#ATTACKS:;

//---------------dance-single - ----------------
#NOTES:
     dance-single:
     :
     Beginner:
     1:
     0.066820,0.079839,0.000000,0.008065,0.000000,58.000000,58.000000,0.000000,1.000000,0.000000,0.000000,0.066820,0.079839,0.000000,0.008065,0.000000,58.000000,58.000000,0.000000,1.000000,0.000000,0.000000:
0000
0000
0000
0000
,
0100
0000
0000
0000
,
0100
0000
0000
0000
,
0001
0000
0000
0000
,
0001
0000
0000
0000
,
1000
0000
0000
0000
,
0001
0000
0000
0000
,
1000
0000
0000
0000
,
0000
0000
0000
0000
,
0001
0000
0000
0000
,
1000
0000
0000
0000
,
0010
0000
0000
0000
,
0010
0000
0000
0000
,
0100
0000
0000
0000
,
0100
0000
0000
0000
,
0100
0000
0000
0000
,
0000
0000
0000
0000
,
0001
0000
0000
0000
,
0001
0000
0000
0000
,
0001
0000
0000
0000
,
1000
0000
0000
0000
,
0001
0000
0000
0000
,
1000
0000
0000
0000
,
0001
0000
0000
0000
,
0000
0000
0000
0000
,
1000
0000
0000
0000
,
0010
0000
0000
0000
,
0100
0000
0000
0000
,
0001
0000
0000
0000
,
1000
0000
0000
0000
,
0001
0000
0000
0000
,
1000
0000
0000
0000
,
0001
0000
0000
0000
,
1000
0000
0000
0000
,
1000
0000
0000
0000
,
0001
0000
0000
0000
,
0001
0000
0000
0000
,
1000
0000
0000
0000
,
0000
0000
0000
0000
,
0001
0000
0000
0000
,
0100
0000
0000
0000
,
0001
0000
0000
0000
,
0100
0000
0000
0000
,
0001
0000
0000
0000
,
1000
0000
0000
0000
,
0001
0000
0000
0000
,
1000
0000
0000
0000
,
0002
0000
0003
0000
,
0000
0000
0000
0000
,
1000
0000
0000
0000
,
0000
0000
0000
0000
,
1000
0000
0000
0000
,
1000
0000
0000
0000
,
0001
0000
0000
0000
,
0000
0000
0000
0000
,
0001
0000
0000
0000
,
0100
0000
0000
0000
,
0001
0000
0000
0000
,
0100
0000
0000
0000
,
0001
0000
0000
0000
,
0000
0000
0000
0000
,
1000
0000
0000
0000
,
0001
0000
0000
0000
,
1000
0000
0000
0000
,
0001
0000
0000
0000
,
1000
0000
0000
0000
,
1000
0000
0000
0000
;

//---------------dance-single - ----------------
#NOTES:
     dance-single:
     :
     Easy:
     3:
     0.165899,0.187702,0.048387,0.032258,0.000000,144.000000,138.000000,6.000000,4.000000,0.000000,0.000000,0.165899,0.187702,0.048387,0.032258,0.000000,144.000000,138.000000,6.000000,4.000000,0.000000,0.000000:
0000
0000
0000
0000
,
0110
0000
0000
0000
,
1001
0000
0000
0000
,
1000
0001
0100
0000
,
0010
0000
1000
0001
,
1000
0000
0000
0000
,
0101
0000
0000
0000
,
1001
0000
0100
0000
,
0010
0000
1000
0000
,
0101
0000
0001
0000
,
1000
0000
0100
0000
,
0010
0000
0001
0000
,
1000
0000
0001
0000
,
1000
0001
1000
0000
,
0001
0100
0001
0000
,
1000
0100
0010
0000
,
0001
0000
0001
0000
,
0001
0010
0001
0000
,
0001
0000
1000
0000
,
0010
0000
1010
0000
,
0001
0000
0001
0000
,
2000
0000
3001
0000
,
0002
0000
0103
0000
,
0020
0000
0030
0000
,
1000
0000
1000
0000
,
0001
0000
0000
0000
,
0100
0000
0010
0000
,
0100
0000
0000
0000
,
0001
0000
1000
0000
,
0001
0000
1000
0000
,
0001
0100
0001
0000
,
1000
0000
0001
0000
,
1000
0010
1000
0000
,
0010
0000
0100
0000
,
0100
0000
0010
0000
,
0100
0000
0001
0000
,
1000
0001
1000
0000
,
0001
0010
0100
0000
,
1000
0000
0000
0000
,
0010
0010
0010
0000
,
0100
0000
0000
0000
,
0001
0001
0001
0000
,
2000
0000
3001
0000
,
0001
0001
0001
0000
,
0100
0000
0000
0000
,
0100
0000
0000
0000
,
0010
0000
0000
0000
,
1000
0001
0100
0000
,
0001
1000
0010
0000
,
0100
0000
0010
0000
,
0010
0000
0000
0000
,
1000
0000
1000
0000
,
0001
0000
0000
0000
,
0001
0100
0001
0100
,
0001
0000
0000
0000
,
1000
0100
1000
0100
,
1000
0000
0000
0000
,
0001
1000
0001
1000
,
0001
0000
0000
0000
,
1000
0100
0010
0000
,
0001
0010
0001
0000
,
1000
0000
0001
0000
,
0100
0000
0000
0000
,
0001
0000
1000
0000
,
0001
0000
0100
0000
,
0010
0000
0100
0010
,
0100
0000
0010
0000
;

//---------------dance-single - ----------------
#NOTES:
     dance-single:
     :
     Medium:
     8:
     0.314516,0.375403,0.104839,0.096774,0.000000,273.000000,260.000000,13.000000,12.000000,0.000000,0.000000,0.314516,0.375403,0.104839,0.096774,0.000000,273.000000,260.000000,13.000000,12.000000,0.000000,0.000000:
0000
0000
0000
0000
,
1001
0000
0000
1001
0000
0000
0010
0000
,
0100
0000
0000
0100
0000
0000
1000
0000
,
0100
0000
0010
0001
,
2000
3000
0001
0100
,
1000
0000
0000
0000
,
0100
0001
1000
0000
,
0100
0010
0001
0000
,
1000
0000
0010
0000
,
0100
0001
1000
0100
,
0001
0100
1000
0000
,
0001
0100
0010
1000
,
0020
0000
0130
0000
,
0000
0100
0000
0001
1000
0000
0001
0000
,
0000
1000
0000
0010
1000
0010
1000
0000
,
0001
0100
0001
0000
1000
0010
1000
0001
,
0000
0001
0100
0010
0100
0010
0100
0000
,
0000
0110
0000
0000
1001
0000
0001
0000
,
2000
0000
3001
0100
0001
0000
0000
1000
,
0010
0000
0100
0010
0100
0000
0001
0100
,
0002
0003
1000
0010
,
0200
0000
0000
0000
0300
0010
0100
0010
,
0200
0000
0000
0000
0300
0001
1000
0001
,
1000
0001
1000
0010
,
0200
0000
0000
0320
0000
0000
0030
0000
,
0000
0100
0010
0100
0000
0001
1000
0001
,
1000
0000
0001
0100
0000
0100
0010
0000
,
0000
1000
0100
0010
,
0001
1000
0000
0010
,
0110
0000
0010
0100
0010
0100
0000
0010
,
0000
1000
0001
1000
0001
0000
0000
1000
,
0000
0001
1000
0001
1000
0000
0010
0000
,
0000
0100
0010
0100
0000
0010
0100
0000
,
0001
0010
0001
0010
0001
0000
0000
0000
,
1000
0100
1000
0100
1000
0000
0000
0000
,
0001
0100
0110
0010
,
1000
0001
1000
0001
0000
0000
0000
0000
,
0100
0000
0010
0000
,
0100
0000
0110
0000
,
0001
1000
0010
0000
,
0010
1000
0001
0000
,
1000
0001
0101
0010
,
1000
0000
0001
0000
,
1000
0100
1000
0100
,
0010
0001
0010
0000
,
0000
0002
0100
0103
,
2000
0010
3010
0002
,
0203
0000
0010
0000
0310
0000
0000
1000
,
0000
0000
0000
0000
,
0010
0100
0010
0100
0010
0100
0000
0001
,
0000
1000
0001
1000
0001
0000
0000
0100
,
0000
0010
0100
0010
1000
0010
0000
0000
,
1000
1001
0101
0001
,
1000
0000
0010
0000
0100
0000
0001
1000
,
0001
0000
1000
0001
1000
0000
0010
0000
,
0100
0001
1000
0010
,
0100
0010
0100
0001
0100
0000
0000
0000
,
0001
1000
0001
1000
0001
0000
0000
0000
,
1000
0010
1000
0010
1000
0000
0000
0000
,
0001
0100
0010
1000
,
0000
0010
0100
0010
0000
0000
0100
0000
,
0110
0010
1000
0001
,
1000
0001
1000
0010
,
0100
0000
0010
0100
0010
0000
0100
0000
,
0010
0100
0010
0100
0010
0000
1000
0000
,
0001
0000
0000
1000
0001
0000
0000
0100
,
0000
0110
0000
0000
0110
0000
0000
0000
;

//---------------dance-single - ----------------
#NOTES:
     dance-single:
     :
     Hard:
     12:
     0.495392,0.536290,0.217742,0.088710,0.169355,430.000000,403.000000,27.000000,11.000000,0.000000,0.000000,0.495392,0.536290,0.217742,0.088710,0.169355,430.000000,403.000000,27.000000,11.000000,0.000000,0.000000:
// measure 0
0000
0000
0000
0000
,  // measure 1
1000
0001
0000
1000
0001
0000
0100
0001
0000
0000
0001
0000
1000
0000
0010
0000
,  // measure 2
0100
0010
0000
0100
0010
0000
1000
0001
0000
0000
1000
0000
0010
0000
0000
0000
,  // measure 3
0010
0000
0100
0010
0100
0000
0001
0000
1000
0000
0000
0000
0001
0000
0000
0000
,  // measure 4
2001
0000
0000
0000
0000
0000
0000
0000
3010
0000
0000
0000
0100
0010
0100
0000
,  // measure 5
0110
0000
0000
0000
,  // measure 6
1001
0000
0000
0000
,  // measure 7
1000
0100
0010
0001
0011
0001
1000
0010
,  // measure 8
0000
0010
0100
0010
0100
0001
1000
0000
,  // measure 9
0001
1000
0010
0100
0001
0100
1000
0000
,  // measure 10
0001
0000
0100
0000
0010
0000
0000
1000
,  // measure 11
0100
0000
0010
0001
1000
0000
0001
0000
,  // measure 12
0100
0000
0000
0000
0010
0100
0010
0000
0100
0000
0000
0000
0000
0000
0000
0000
,  // measure 13
0001
1000
0000
0100
0010
0000
0100
0000
,  // measure 14
0000
0000
0100
0000
0010
0000
0001
0000
1000
0000
0001
0000
0100
0001
0100
0000
,  // measure 15
0001
1000
0010
0100
0001
0000
1000
0010
,  // measure 16
0000
0010
0100
0001
1000
0001
0100
0000
,  // measure 17
0000
0110
0000
0100
0010
1000
0001
0100
,  // measure 18
0010
0010
1000
0100
0020
0000
0030
0001
,  // measure 19
1000
0000
0100
0010
0001
1000
0001
0100
,  // measure 20
0020
0000
0000
0000
0000
0000
0030
0000
0100
0000
0000
0000
0010
0000
0100
0010
,  // measure 21
0200
0000
0300
0001
0000
0001
1000
0100
,  // measure 22
0010
0000
0010
0001
0000
0001
0100
0010
,  // measure 23
1000
0000
0001
0001
0100
0010
1000
0001
,  // measure 24
0200
0000
0000
0000
0000
0000
0302
0000
0000
0000
0003
0000
1000
0001
0000
0000
,  // measure 25
0000
1000
0010
0100
0000
0001
0010
0100
,  // measure 26
1100
0000
0100
0010
0001
0000
1000
0010
,  // measure 27
0110
0000
0100
0010
0000
0000
0100
0010
0000
0000
0010
0100
0000
0000
0001
0000
,  // measure 28
1000
0000
0000
0001
0000
0000
1000
0000
1001
0000
0000
0000
0001
0000
0000
0000
,  // measure 29
0100
0010
1000
0001
0100
0010
0110
0000
,  // measure 30
0100
0001
0100
1000
0001
0000
0000
0001
,  // measure 31
0000
1000
0100
0010
0100
0010
0001
0001
,  // measure 32
0000
1000
0100
1000
0000
0010
0011
0000
,  // measure 33
0001
0000
0100
0010
0000
0000
0100
0010
0000
0000
0100
0000
0110
0000
0000
0000
,  // measure 34
0001
0000
1000
0001
0000
0000
0001
0010
0000
0000
0100
0000
1100
0000
0000
0000
,  // measure 35
0100
0000
0010
0000
0001
1000
0001
1000
,  // measure 36
0010
0100
0010
0010
0000
0100
0010
1000
,  // measure 37
1001
0000
0000
0101
0000
0000
0001
0000
0100
0000
0010
0000
0100
0000
0010
0000
,  // measure 38
0000
0000
0100
0000
0000
0001
0000
0000
0110
0000
0000
0000
0000
0000
0000
0000
,  // measure 39
1000
0001
0000
1000
0001
0000
0100
0001
0000
0000
1000
0000
0010
0000
0100
0000
,  // measure 40
0010
1000
0000
0001
1000
0000
0010
1000
0000
0000
0001
0000
1000
0000
0010
0000
,  // measure 41
0110
0000
0000
0000
0001
0000
1000
0001
1000
0000
0000
0000
0001
0000
0000
0000
,  // measure 42
2000
0000
3010
0100
0010
0000
0100
0001
,  // measure 43
0100
0001
0000
1000
0001
0000
0100
0001
0000
0000
0001
0000
0010
0000
0100
0000
,  // measure 44
1000
0001
0000
0100
0001
0000
1000
0010
0000
0000
0100
0000
0001
0000
0010
0000
,  // measure 45
0000
0000
0110
0000
2000
3000
0200
0300
,  // measure 46
0020
0030
0001
0010
0000
0010
0100
1000
,  // measure 47
0010
0000
0001
0000
0010
0100
0001
0020
,  // measure 48
0000
0000
0000
0000
0000
0030
0000
0000
,  // measure 49
0100
1000
0010
0100
0001
0100
0000
0001
,  // measure 50
0000
0010
0100
0010
0100
0000
0000
1000
,  // measure 51
0000
0001
0100
0010
0100
0001
1000
1000
,  // measure 52
0000
0010
0100
0001
0000
1000
0010
0000
,  // measure 53
0100
0010
0100
0010
0100
0010
0000
0010
,  // measure 54
1000
0001
0100
0001
1000
0100
0010
0000
,  // measure 55
0001
0000
1000
0000
0001
0000
0100
0010
0000
0000
0010
0000
1000
0000
0001
0000
,  // measure 56
0100
0010
0110
0110
0000
0001
1000
0000
,  // measure 57
0001
1000
0100
0010
0001
1000
1100
0000
,  // measure 58
0100
0010
0100
0010
0001
0100
0101
0000
,  // measure 59
0001
1000
0010
1000
0001
0100
0010
0100
,  // measure 60
0000
0010
0100
0010
0000
1000
1010
0000
,  // measure 61
1000
0000
0001
0100
0000
0000
0001
0100
0000
0000
0010
0000
0110
0000
0000
0000
,  // measure 62
1000
0000
0001
1000
0000
0000
0100
0010
0000
0000
0001
0000
0011
0000
0000
0000
,  // measure 63
1000
0000
0001
0000
0100
0010
0100
0000
,  // measure 64
0010
0100
0001
1000
0000
0100
0001
0100
,  // measure 65
1000
0000
0000
0001
0000
0000
0100
0000
0010
0000
0100
0000
0001
0000
0100
0000
,  // measure 66
0000
0000
1010
0000
0000
0101
0000
0000
0011
0000
0000
0000
0000
0000
0000
0000
;
