#TITLE:Senjou no Update;
#SUBTITLE:;
#ARTIST:H.B.Saver feat. Sara Matsumoto;
#TITLETRANSLIT:;
#SUBTITLETRANSLIT:;
#ARTISTTRANSLIT:;
#GENRE:;
#CREDIT:from pop n music 22 Lapistoria;
#MUSIC:Senjou_no_Update.ogg;
#BANNER:20140730131708!LT_Senjou_no_update.png;
#BACKGROUND:;
#CDTITLE:;
#SAMPLESTART:42.857;
#SAMPLELENGTH:13.400;
#SELECTABLE:YES;
#OFFSET:-0.408;
#BPMS:0.000=146.984;
#STOPS:;
#BGCHANGES:;
#FGCHANGES:;

//--------------- dance-single - ----------------
#NOTES:
     dance-single:
     :
     Beginner:
     2:
     0.108069,0.147556,0.016626,0.058191,0,91,89,2,7,0,0,0.108069,0.147556,0.016626,0.058191,0,91,89,2,7,0,0:
0000
0000
0000
0000
,
0000
0000
0000
0000
0000
0000
0000
0001
,
0000
0000
0000
0000
0000
0000
0000
1000
,
0000
0000
0000
0000
0000
0000
0000
0010
,
0000
0000
0000
0000
0000
0000
0000
0100
,
0000
0000
0000
0000
,
0001
0000
0000
0000
,
1000
0000
0000
0000
,
0001
0000
0000
0000
,
0200
0000
0300
0000
,
0110
0000
0000
0000
,
0001
0000
0000
0000
,
1000
0000
0000
0000
,
0010
0000
0000
0000
,
0100
0000
0000
0000
,
0001
0000
0000
0000
,
0001
0000
0100
0000
,
0001
0000
1000
0000
,
0001
0000
0000
0000
,
1000
0000
0000
0000
,
0001
0000
0100
0000
,
0001
0000
0000
0000
,
1000
0000
0010
0000
,
1000
0000
0000
0000
,
0001
0000
0001
0000
,
0001
0000
0000
0000
,
1000
0000
0100
0000
,
1000
0000
0000
0000
,
0001
0000
0100
0000
,
0001
0000
0000
0000
,
1000
0000
0010
0000
,
1000
0000
0000
0000
,
0001
0000
0100
0000
,
0001
0000
0000
0000
,
1000
0000
0000
0000
,
0110
0000
0000
0000
,
0001
0000
0000
0000
,
1000
0000
0000
0000
,
0010
0000
0000
0000
,
0100
0000
0000
0000
,
0010
0000
0000
0000
,
1000
0000
0000
0000
,
0002
0000
0003
0000
,
1000
0000
0000
0000
,
1000
0000
0001
0000
,
1000
0000
0000
0000
,
0001
0000
0001
0000
,
0001
0000
0000
0000
,
0100
0000
0001
0000
,
0100
0000
0000
0000
,
0010
0000
0100
0000
,
0010
0000
0000
0000
,
0100
0000
0000
0000
,
0100
0000
0100
0000
,
0010
0000
0000
0000
,
2000
0000
3000
0000
,
0002
0000
0003
0000
,
0100
0000
0000
0000
,
0020
0000
0030
0000
,
1000
0000
0000
0000
,
2000
0000
3000
0000
,
0001
0000
0100
0000
,
0001
0000
0000
0000
,
0100
0000
0010
0000
,
0100
0000
0010
0000
,
0100
0000
0000
0000
,
0002
0000
0003
0000
,
1000
0000
1000
0000
,
0100
0000
0000
0000
,
0100
0000
0010
0000
,
0010
0000
0000
0000
,
0001
0000
0000
0000
;

//--------------- dance-single - ----------------
#NOTES:
     dance-single:
     :
     Easy:
     6:
     0.260079,0.32691,0.124696,0.174574,0,219,204,15,21,0,0,0.260079,0.32691,0.124696,0.174574,0,219,204,15,21,0,0:
0000
0000
0000
0000
,
0000
0000
0000
0000
0000
0000
0000
0001
,
0000
0000
0000
0000
0000
0000
0000
1000
,
0000
0000
0000
0000
0000
0000
0000
0020
,
0000
0000
0000
0030
0000
0000
0000
0200
,
0000
0000
0000
0300
0000
0000
0000
0000
,
0001
1000
0000
1000
,
0010
0100
0000
0001
,
0100
0010
0000
0100
,
0001
0200
0000
0310
,
0110
1000
0001
0000
,
0001
0100
0020
0030
,
1000
0001
0100
0010
,
0010
0000
0200
0000
,
0310
0010
0010
1000
,
0001
0000
0101
1010
,
0101
0000
0001
1000
,
0001
0000
2000
0000
,
3001
0010
0001
0100
,
1000
0100
0001
0010
,
0001
0100
0010
0100
,
0001
0010
0001
0100
,
1000
0100
0001
1000
,
1001
1001
0001
0100
,
0001
0200
0000
0301
,
0101
0000
0000
0000
,
1000
0010
0100
0000
,
1000
0001
0001
0000
,
0001
0100
0010
0000
,
0001
1000
1000
0000
,
1001
0001
0010
0100
,
1000
0100
0020
0000
,
0031
0010
0100
0000
,
0001
0010
1000
0100
,
0010
0001
0000
0000
,
0200
0300
0020
0030
,
0200
0300
0010
0010
,
1010
0000
0100
0100
,
0101
0000
0010
0100
,
0010
0000
0010
0100
,
0010
0000
0100
0000
,
2010
0000
3001
0001
,
0200
0000
0310
0000
,
1000
0000
0010
1000
,
0010
0000
0001
0100
,
0010
0000
1000
0001
,
1000
0000
0010
1000
,
0010
0000
0001
0100
,
0010
0000
1000
0010
,
0200
0000
0301
0000
,
0100
0110
0110
0000
,
1010
0000
0100
0001
,
0100
0000
0010
0001
,
0100
0000
0100
0010
,
0100
0000
0010
1000
,
0010
0000
0100
0001
,
0100
0000
0010
0001
,
0100
0000
1000
0001
,
2000
0000
3010
0010
,
0010
0000
0100
0000
,
0002
0003
1001
0000
,
0001
0100
0010
0100
,
0001
1000
0010
0100
,
0010
1000
0001
0000
,
0100
0100
0010
0010
,
1000
0001
1000
0001
,
1000
0100
0010
0001
,
2000
0000
0000
3000
0200
0000
0000
0300
,
0020
0000
0000
0030
0002
0000
0000
0003
,
1000
0010
0100
0001
,
0010
0100
0010
0001
,
2000
0000
3000
0000
;

//--------------- dance-single - ----------------
#NOTES:
     dance-single:
     :
     Medium:
     11:
     0.480969,0.531203,0.324208,0.266017,0.120539,405,366,39,32,0,0,0.480969,0.531203,0.324208,0.266017,0.120539,405,366,39,32,0,0:
0000
0000
0000
0000
,
0000
0000
0000
0000
0000
0001
0100
0001
,
0100
0000
0000
0010
0000
1000
0100
0020
,
0000
0000
0000
0031
0000
0010
0100
0010
,
0200
0000
0000
1300
0000
0010
0100
0002
,
0000
0000
0000
1003
0000
0001
0100
0001
,
0100
0000
0010
0000
0000
1000
0100
0010
,
0001
0000
0100
0000
0000
0010
0001
0100
,
0010
0000
0100
0000
0001
0100
0001
0000
,
1000
0110
1001
0010
,
0100
0000
0000
0010
0000
0000
0100
0000
0000
0001
0000
0000
1000
0000
0000
0000
,
0001
0100
0000
0001
0100
0000
0010
1000
,
0000
2000
3000
0010
0100
0010
0000
0010
,
0100
0001
0000
1000
0100
0010
0001
0000
,
0100
0010
0000
0000
0010
0100
1000
0000
,
0001
0010
0000
0000
0010
0100
0010
0000
,
0101
1010
0101
1010
,
0100
0010
0100
0000
0010
0100
0010
0000
,
1000
0000
0000
0010
0000
0000
0100
0000
0001
0000
0000
0100
0000
0000
0010
0000
,
1000
0000
0000
0001
0000
0000
1000
0000
0001
0000
0000
0000
0010
0000
0100
0000
,
1000
0000
0000
0100
0000
0000
0010
0000
0001
0000
0000
0000
0010
0000
0100
0000
,
1000
0000
0000
0010
0000
0000
0100
0000
0001
0000
0000
0100
0000
0000
0010
0000
,
1010
0000
0000
0100
0000
0000
0001
0000
0101
0000
0000
0010
0000
0000
1000
0000
,
1010
0000
0000
0100
0000
0000
0001
0000
0101
0000
0000
0000
0110
0000
0000
0000
,
0101
2010
3001
0201
,
0301
0010
0100
1000
,
0001
0100
0010
1000
0001
0000
1000
0100
,
1100
0000
0001
0010
0002
0000
0103
0000
,
0110
0000
1001
0000
0010
0100
0010
0100
,
0001
0110
1020
0000
,
1030
0000
0010
0100
0001
0000
0100
0010
,
1000
0100
0010
0001
0020
0000
0030
0000
,
1001
0000
0100
0000
0010
1000
0010
0100
,
0020
1000
1030
0001
,
0100
0000
0101
0000
0001
0100
0010
0100
,
0010
0000
0000
0000
1000
0000
0001
0000
1000
0000
0000
0010
0000
0000
0100
0000
,
0020
0000
0030
0100
0010
0100
0001
1000
,
1010
0000
0000
0000
0101
0000
0000
0000
0100
0000
0000
0100
0000
0000
0100
0000
,
0010
0000
1000
0000
0110
0010
0100
0100
,
0010
0000
0000
0000
1000
0000
0000
0000
0001
0000
0000
0100
0000
0000
0001
0000
,
0200
0000
0320
0000
0130
0000
0100
0200
,
0000
0000
0300
0000
0010
0000
0100
0000
0010
0000
0000
0100
0000
0000
0100
0000
,
0020
0000
0000
0000
1030
0001
1000
0010
,
1010
0000
0000
0000
0100
0000
0010
0000
0100
0000
0000
0010
0000
0000
1000
0000
,
0010
0000
0100
0000
0001
0000
0000
0000
0001
0000
0000
0010
0000
0000
0100
0000
,
1000
0000
0001
0000
1000
0010
0010
0000
,
1000
0100
0010
0001
0010
0100
0010
0001
,
0100
0010
0000
0020
0000
0130
0100
0200
,
0000
0000
0300
0000
0000
0000
0010
0000
1000
0000
0000
0010
0000
0000
0200
0000
,
0000
0000
0310
0000
1000
0000
0010
1000
,
0100
0000
0010
0001
0100
0000
0010
0000
,
1010
1000
1000
0000
0001
0100
0001
0010
,
0001
0000
0000
0000
0100
0000
0010
0000
0010
0000
0000
0100
0000
0000
0020
0000
,
0000
0030
0100
0000
0010
0100
0010
0000
,
0101
0000
0010
1000
0001
0000
1001
0000
,
0020
0000
0030
0000
0000
0100
0010
0200
,
0000
0300
0000
0000
0010
0100
0001
0200
,
0000
0000
0300
0000
0110
0000
0000
0000
1000
0000
0000
0001
0000
0000
2000
0000
,
0002
3003
0110
0200
,
0310
0000
0100
0010
0000
0100
0010
0000
0100
0010
0000
0000
0100
0000
0001
0000
,
0200
0000
0000
0300
0101
0000
0001
0000
,
0200
0000
0000
0000
0310
0000
1000
0000
0010
0000
0000
0100
0000
0000
0001
0000
,
0100
0010
1000
0010
0110
0000
0100
0010
,
0020
0000
1030
0000
1000
0010
1000
0010
,
0100
0000
0000
0000
0010
0000
0000
0000
0100
0000
0000
0010
0000
0000
2000
0000
,
0002
3003
1100
1001
,
0101
1010
0101
0011
,
1000
0000
0001
1000
0000
0001
1000
0000
0001
1000
0000
0000
0010
0000
0000
0000
,
0200
0000
0010
0300
0010
0000
0100
0020
,
0000
0000
0030
0000
0100
0000
0010
0000
0100
0000
0000
0010
0000
0000
0100
0000
,
0110
0000
0001
0010
0100
0010
0100
1000
,
0010
0000
0000
0000
;

//--------------- dance-single - ----------------
#NOTES:
     dance-single:
     :
     Hard:
     13:
     0,0,0,0,0:
0000
0000
0000
0000
,
0000
0000
0000
0000
0000
0001
0100
0001
,
0100
0000
0010
1000
0000
1000
0100
0020
,
0000
0000
0031
0000
0100
0000
0001
1000
0000
0010
1000
0000
0100
0000
0010
0000
,
0002
0000
1003
0010
0100
0010
0100
0002
,
0000
1003
0001
1000
0000
0001
0100
0010
,
0120
0000
0000
0000
1030
0000
0001
1000
0000
1000
0001
0000
0100
0000
0010
0000
,
2000
0000
0000
0000
3100
0000
0010
0001
0000
1000
0010
0000
0100
0000
0010
0000
,
0200
0000
0000
0000
0301
0000
1000
0001
1000
0000
0000
0001
0000
0000
0100
0000
,
0020
1030
1001
0010
,
0100
0000
0001
1000
0000
0001
1000
0000
0100
0010
0000
0100
0010
0000
0001
0000
,
1000
0100
1000
0001
0100
0010
0010
2000
,
3000
0002
0003
0200
0300
0010
1000
0010
,
0100
0000
0001
1000
0001
0000
1000
0001
1000
0000
0000
0000
0001
0100
0010
0100
,
0001
0000
1000
0100
0000
1000
0100
0000
0010
0000
0001
0000
1000
0000
0000
0000
,
0001
0000
0001
0010
0000
0010
0100
0000
1000
0000
0000
0000
0010
0000
0100
0000
,
0110
0000
1010
0000
0001
0010
0001
0000
,
1000
0100
1000
0000
0001
0010
0001
0000
,
1000
0000
0010
0100
0000
0001
1000
0000
0001
0010
0001
0010
0001
0000
0000
0000
,
1000
0000
0100
0010
0000
0001
1000
0000
0010
1000
0010
1000
0010
0000
0000
0000
,
1000
0001
0010
0010
0001
0100
0100
0010
,
1000
0000
0001
0100
0001
0000
1000
0000
1000
0000
0010
0100
0010
0000
0010
0000
,
1000
0000
0001
0010
0001
0000
1000
0000
0100
0000
0010
0100
0010
0000
0001
0000
,
1000
0000
0010
0100
0001
0000
1000
0010
0100
0000
0001
0010
0001
0000
1000
0000
,
0001
0200
0000
0000
0010
0000
0301
1000
,
0001
0000
1000
0100
1000
0000
1000
0000
,
0001
0000
0100
0000
0010
0000
1000
0001
0100
0000
0000
0000
0010
0000
0010
0000
,
1001
0000
1000
0000
1000
0000
0010
0100
0020
0000
0000
0000
0130
0000
0001
0000
,
2000
0000
3001
0000
0100
0010
0100
0010
,
0001
0000
1000
0010
1000
0000
0000
0000
0002
0000
0000
0000
0100
0000
0000
0000
,
1003
0000
0010
0000
0100
0000
0001
0100
0001
0000
0000
0000
0100
0000
0010
0000
,
1000
0000
0100
0000
0010
0000
0001
1000
0002
0000
0000
0000
0103
0000
0000
0000
,
1001
0010
0100
0010
0001
1000
0010
0100
,
0020
1030
2000
3001
,
0100
0000
0000
0000
0001
0000
0100
0001
0100
0000
0001
0000
1000
0000
0100
0000
,
0011
0000
0000
0000
1000
0000
0000
0000
0010
0000
0000
0010
0000
0000
0100
0000
,
0010
0000
1000
0000
0001
0000
1000
0001
0010
0000
0100
0000
0001
0000
0100
0000
,
1100
0000
0000
0000
0001
0000
0000
0000
0100
0000
0000
0010
0000
0000
0100
0000
,
0010
0000
1000
0001
0100
0010
0100
0010
,
1001
0000
0000
0000
1000
0000
0000
0000
0001
0000
0000
0100
0000
0000
0010
0000
,
1000
0000
2000
0000
3001
0100
0010
0200
,
0000
0000
0300
0000
0010
0000
0100
0000
0010
0000
0000
0100
0000
0000
0010
0000
,
2010
0000
3002
0000
2003
0000
3010
0100
,
0201
0000
0000
0000
0301
0000
0010
0001
0010
0000
0000
0010
0000
0000
0001
0000
,
1000
0000
0000
0000
0100
0000
0010
0001
1000
0000
0000
0010
0000
0000
0100
0000
,
0001
0000
0000
0000
0001
0000
0000
0000
1000
0000
0010
0100
0010
0000
0000
0000
,
1000
0001
1000
0000
0001
0000
1000
0001
0000
0000
0100
0000
0010
0000
1000
0000
,
0100
0010
0001
1000
0010
0100
0010
0020
,
0000
0000
1030
0000
0000
0000
0010
1000
0001
0000
0000
0010
0000
0000
0100
0000
,
1000
0000
1000
0000
0001
0100
0100
0010
,
0110
0000
0000
0000
0010
0100
0010
0100
0000
0000
0001
0000
0010
0000
0000
0000
,
1001
0001
1000
0001
0001
0100
1000
1000
,
0100
0001
0001
0010
0100
1000
0100
0010
,
0001
0000
0001
0000
1000
0010
0100
0001
,
0101
0000
0000
0000
0100
0001
0100
0001
0000
0000
1000
0000
0001
0000
0100
0000
,
0020
0000
0000
0000
0030
0000
0100
0010
0100
0000
0001
0000
0010
0000
0001
0000
,
1000
0000
0000
0000
1000
0000
0010
0100
0010
0000
0100
0000
0001
0000
0100
0000
,
0010
0000
0000
0000
0100
0000
0010
1000
0010
0000
0000
0100
0000
0000
0001
0000
,
0200
0300
0101
1000
,
0010
0000
1000
0001
0000
0100
0010
0000
1000
0001
0000
0001
1000
0000
0001
0000
,
0100
0000
0010
0100
0010
0000
1000
0000
1001
0000
0000
0000
0001
0000
0000
0000
,
1000
0000
0000
0000
0010
0000
1000
0000
0001
0000
0100
0001
0100
0000
0001
0000
,
0100
0000
0010
0100
0001
0000
1000
0000
0010
0000
0000
0000
0100
0010
0100
0010
,
1000
0001
1000
0000
1000
0010
0100
0001
,
1000
0000
0001
0010
0001
0000
1000
0000
0100
0000
0000
0010
0000
0000
0001
0000
,
0011
0110
1100
1010
,
0101
0000
0001
0100
0010
0000
0010
1000
,
0001
0000
1000
0001
0000
0001
0100
0000
0010
0100
0000
0001
1000
0000
0010
0000
,
0200
0000
0310
0000
0101
0001
1000
0010
,
0100
0000
0000
0000
0001
0000
1000
0000
0100
0000
0000
0010
0000
0000
0001
0000
,
0012
0000
1003
0001
0100
0001
1000
0010
,
0100
0000
0000
0000
;

//--------------- dance-single - ----------------
#NOTES:
     dance-single:
     :
     Challenge:
     16:
     0.81824,0.861854,0.374087,0.257704,0.727391,689,644,45,31,0,0,0.81824,0.861854,0.374087,0.257704,0.727391,689,644,45,31,0,0:
0000
0000
0000
0000
,
0000
0000
0000
0000
0000
0001
0100
0001
,
0100
0000
0010
0000
0100
0000
0010
0100
0000
0010
0100
0000
0010
0000
1000
0000
,
0001
0000
0100
0000
0001
0000
0100
0010
0000
0010
0100
0000
0001
0000
0010
0000
,
0001
0000
1000
0000
0100
0000
1000
0100
0000
0100
0010
0000
0001
0000
1000
0000
,
0010
1000
0010
0000
1000
0000
0010
0000
0100
0000
0001
0000
0100
0000
0001
0000
,
0110
0000
0000
0000
0010
0000
0100
0010
0000
0010
1000
0000
0100
0000
1000
0000
,
1001
0000
0000
0000
0100
0000
0010
0100
0000
0100
0001
0000
1000
0000
0010
0000
,
0100
0000
0010
0100
0010
0000
0100
0001
0100
0000
0010
0100
0010
0000
0100
0000
,
0020
0000
1030
0000
1001
0000
0110
0100
,
0010
0000
0100
0010
0000
0100
0010
0000
1000
0001
0000
1000
0010
0000
0100
0000
,
0001
0000
0100
0001
0000
0100
0001
0000
0101
0000
0110
0000
0110
0000
1001
0000
,
0000
0000
0001
1000
0100
0000
0100
1000
0010
0000
1000
0100
0001
0000
0010
0000
,
0001
0100
1000
0100
1000
0100
0010
0000
0001
0000
1000
0000
0001
0100
0010
0100
,
0001
0000
1000
0010
0000
0100
0001
0000
1000
0100
0000
0100
0010
0000
0001
0000
,
0011
0000
1000
0100
0000
0100
0010
0000
0010
0001
0000
1000
0001
0000
1000
0000
,
0110
0000
0110
0000
0001
1000
1010
0000
,
0100
0000
0010
0000
0011
0000
0000
0000
1000
0000
0001
0000
0010
0001
0010
0001
,
0010
0000
0001
0100
0000
0100
0001
0000
1000
0010
0000
0100
0001
0000
1000
0000
,
0110
0000
0001
0010
0000
0100
0010
0000
0001
0010
0100
0010
0002
0000
0000
0000
,
1003
0000
0010
0100
0000
0010
0100
0000
0001
1000
0001
1000
0001
1000
0001
0000
,
1010
0000
1000
0100
0000
1000
0100
0000
0110
0000
0010
0001
0000
0010
0001
0000
,
0110
0000
1000
0100
0000
1000
0100
0000
1100
0000
0010
0001
0000
0010
0001
0000
,
0011
0000
1000
0001
1000
0000
0001
0100
0001
0000
0010
0100
0010
0000
0100
1000
,
0100
0000
0000
0000
0000
0000
0010
0000
0000
0001
0000
0000
0010
0000
0000
0001
0000
0000
1000
0000
0000
0100
0000
0000
1000
0000
0001
0000
1000
0000
0001
0000
0000
0100
0000
0000
0010
0000
0000
0100
0000
0000
0010
0000
0000
1000
0000
0000
,
0100
0000
0100
0000
0010
0100
0010
0001
1000
0100
0010
0100
2000
0000
3000
0000
,
1010
0000
0010
0100
0010
0000
1000
0100
0010
0000
0001
0000
0010
0000
0100
0000
,
0200
0000
1300
0000
0001
0100
0010
0100
0002
0000
0100
0000
0103
0010
0100
0000
,
0010
0000
1000
0000
0001
0100
0001
0100
0020
0000
0230
0000
2300
0000
3020
0000
,
0130
0000
0010
0100
0010
0000
1000
0000
0010
0100
0010
0000
2000
0000
3000
0000
,
0101
0000
0001
0010
0100
0010
0100
0010
0001
0000
1000
0000
2000
0000
3020
0000
,
1030
0000
0100
1000
0010
0100
0010
0100
0002
0000
0100
0000
0103
0010
1000
0000
,
1001
0000
0001
0010
0100
0010
0001
1000
0010
0000
1000
0000
0001
0000
0200
0000
,
0320
0000
0000
0000
1030
0000
0001
0000
1000
0000
0001
0100
0001
0100
0001
0000
,
0100
0000
0000
0000
0101
0000
0001
0010
0001
0000
0100
0000
0001
0000
1000
0000
,
0010
0100
0000
0010
1000
0000
0001
0100
0001
0000
0000
0100
0000
0000
0010
0000
,
0100
0010
0100
0000
0010
0100
0010
0000
1000
0000
0100
0000
0010
0000
0100
0000
,
1010
0000
0000
0000
0101
0000
0001
0000
0100
0000
0000
0010
0000
0000
0100
0000
,
0010
1000
0010
0000
1001
0000
0001
0100
0010
0000
0110
0000
0010
0000
0110
0000
,
0100
0010
1000
0000
0001
0000
1000
0100
0001
0000
0001
0100
1000
0000
0001
0100
,
0020
0000
0000
0000
0130
0010
0100
0010
0100
0000
0010
0000
1000
0000
0100
0010
,
0001
0010
0001
0000
1000
0000
0010
0100
0010
0100
0010
0100
0010
0000
0100
0000
,
0110
0000
0000
0000
0000
0000
0001
0000
0000
0100
0000
0000
0001
0000
0000
0000
0000
0000
1000
0000
0000
0010
0000
0000
1000
0000
0001
0000
0100
0000
0001
0000
0000
0000
0000
0000
0010
0000
0000
0000
0000
0000
0001
0000
0000
0000
0000
0000
,
0202
0000
0000
0000
0303
0000
0010
0100
0010
0000
0000
0200
0000
0000
0310
0000
,
0110
0000
1000
0100
0010
0001
1000
0001
1000
0000
0000
0010
0000
0000
0100
0000
,
0101
0000
0000
0000
0001
0000
0100
0000
0001
0000
0010
0100
0010
0001
1000
0100
,
1000
0001
0001
0000
0010
0001
0010
0100
0000
0010
0001
0010
0100
0000
1000
0000
,
1100
0000
0001
0000
0100
0010
0100
0010
1000
0000
0100
0000
0010
0001
0100
0000
,
0010
0100
0010
0100
0010
0100
0010
0000
1000
0000
0001
0000
0100
0000
0100
0000
,
0110
0000
0000
0000
0010
0000
1000
0000
0001
0000
0100
0010
0100
0000
0010
0000
,
1100
0000
0010
0000
0001
0010
0001
0010
0000
0001
0010
0001
0100
0000
0010
0100
,
0010
0000
1000
0001
0100
0000
0001
0000
1100
0000
1000
0000
0001
0010
0001
0010
,
0001
0000
1000
0100
1000
0000
0010
0100
0010
0000
0100
0010
0100
0000
0010
0000
,
2001
0000
0001
0000
3001
0000
0000
0000
0100
0000
0001
0010
0100
0000
1000
0000
,
0200
0000
0000
0000
0310
0001
0010
0001
0000
1000
0100
1000
0100
0000
0010
0000
,
0002
0000
0000
0000
1003
0000
0001
0010
0100
0000
0010
0000
0001
0000
1000
0000
,
1010
0000
0000
0000
0100
0000
0010
0100
0001
0000
0100
0000
0001
0000
0100
0000
,
0110
0000
0000
0000
0100
0000
0001
1000
0001
0000
0000
1000
0000
0000
0002
0000
,
0200
0003
0301
0200
,
0310
0000
1000
0010
1000
0001
1000
0010
1000
0001
1000
0000
0001
0000
0001
0000
,
0200
0000
0310
0100
0000
0000
0010
0000
0110
0000
0001
0000
0001
0000
1000
0000
,
1000
0000
0000
0000
0010
0000
0100
0000
0010
0000
0100
0010
0100
0000
0001
0000
,
1000
0000
0010
1000
0010
0000
0100
0000
0110
0000
0001
0000
0100
0001
0100
0001
,
0100
0000
0010
1000
0100
1000
0010
0000
1000
0001
0000
1000
0001
0000
0100
0000
,
0010
0000
1000
0001
0010
0001
0100
0000
0010
0100
0000
0100
0010
0000
0010
0000
,
0200
0320
1030
1100
,
0001
0010
0100
0010
0001
0000
0100
0000
0001
0100
0010
1000
0001
0000
1000
0000
,
0020
0000
1030
0100
0000
0010
0001
0000
0010
0100
0000
0100
1000
0000
0001
0000
,
0101
0000
0001
0100
0001
0000
0100
0000
1001
0000
1000
0100
1000
0001
0010
0001
,
0100
0000
0001
0000
0010
0000
0100
0000
0010
0000
0100
0000
0001
0000
0010
0100
,
0002
0000
0103
0010
1000
0001
0100
0010
,
0200
0000
0300
0000
;
