#VERSION:0.83;
#TITLE:Secret tale;
#SUBTITLE:;
#ARTIST:dj nagureo feat. Sanae Shintani;
#TITLETRANSLIT:;
#SUBTITLETRANSLIT:;
#ARTISTTRANSLIT:;
#GENRE:;
#ORIGIN:;
#CREDIT:from pop n music 9;
#BANNER:dj nagureo feat. Sanae Shintani - Secret tale.png;
#BACKGROUND:;
#PREVIEWVID:;
#JACKET:;
#CDIMAGE:;
#DISCIMAGE:;
#LYRICSPATH:;
#CDTITLE:Popn_music_9_logo_small.png;
#MUSIC:dj nagureo feat. Sanae Shintani - Secret tale.mp3;
#OFFSET:-0.086000;
#SAMPLESTART:65.348999;
#SAMPLELENGTH:15.700000;
#SELECTABLE:YES;
#BPMS:0.000=158.000;
#STOPS:;
#DELAYS:;
#WARPS:;
#TIMESIGNATURES:0.000=4=4;
#TICKCOUNTS:0.000=4;
#COMBOS:0.000=1;
#SPEEDS:0.000=1.000=0.000=0;
#SCROLLS:0.000=1.000;
#FAKES:;
#LABELS:0.000=Song Start;
#BGCHANGES:;
#KEYSOUNDS:;
#ATTACKS:
;

//---------------dance-single - ----------------
#NOTEDATA:;
#CHARTNAME:;
#STEPSTYPE:dance-single;
#DESCRIPTION:;
#CHARTSTYLE:;
#DIFFICULTY:Beginner;
#METER:1;
#RADARVALUES:0.083245,0.094074,0.000000,0.009877,0.000000,59.000000,59.000000,0.000000,1.000000,0.000000,0.000000,0.000000,0.000000,0.000000,0.083245,0.094074,0.000000,0.009877,0.000000,59.000000,59.000000,0.000000,1.000000,0.000000,0.000000,0.000000,0.000000,0.000000;
#CREDIT:;
#NOTES:
0000
0000
0000
0000
,
1000
0000
0000
0000
,
0001
0000
0000
0000
,
1000
0000
0000
0000
,
0010
0000
0000
0000
,
0010
0000
0000
0000
,
0100
0000
0000
0000
,
0001
0000
0000
0000
,
1000
0000
0000
0000
,
1000
0000
0000
0000
,
0010
0000
0000
0000
,
0100
0000
0000
0000
,
0001
0000
0000
0000
,
0001
0000
0000
0000
,
1000
0000
0000
0000
,
1000
0000
0000
0000
,
0001
0000
0000
0000
,
0001
0000
0000
0000
,
1000
0000
0000
0000
,
1000
0000
0000
0000
,
0001
0000
0000
0000
,
0100
0000
0000
0000
,
0010
0000
0000
0000
,
0100
0000
0000
0000
,
0010
0000
0000
0000
,
0001
0000
0000
0000
,
1000
0000
0000
0000
,
1000
0000
0000
0000
,
1000
0000
0000
0000
,
1000
0000
0000
0000
,
0001
0000
0000
0000
,
0001
0000
0000
0000
,
0001
0000
0000
0000
,
0000
0000
0000
0000
,
0001
0000
0000
0000
,
1000
0000
0000
0000
,
1000
0000
0000
0000
,
1000
0000
0000
0000
,
0001
0000
0000
0000
,
1000
0000
0000
0000
,
0001
0000
0000
0000
,
1000
0000
0000
0000
,
0000
0000
0000
0000
,
0001
0000
0000
0000
,
0001
0000
0000
0000
,
1000
0000
0000
0000
,
1000
0000
0000
0000
,
1000
0000
0000
0000
,
0000
0000
0000
0000
,
1000
0000
0000
0000
,
1000
0000
0000
0000
,
0001
0000
0000
0000
,
0001
0000
0000
0000
,
0001
0000
0000
0000
,
0001
0000
0000
0000
,
1000
0000
0000
0000
,
0000
0000
0000
0000
,
0100
0000
0000
0000
,
0100
0000
0000
0000
,
0010
0000
0000
0000
,
0010
0000
0000
0000
,
0100
0000
0000
0000
,
0100
0000
0000
0000
,
0002
0000
0003
0000
;

//---------------dance-single - ----------------
#NOTEDATA:;
#CHARTNAME:;
#STEPSTYPE:dance-single;
#DESCRIPTION:;
#CHARTSTYLE:;
#DIFFICULTY:Easy;
#METER:4;
#RADARVALUES:0.217284,0.251852,0.079012,0.079012,0.000000,154.000000,146.000000,8.000000,8.000000,0.000000,0.000000,0.000000,0.000000,0.000000,0.217284,0.251852,0.079012,0.079012,0.000000,154.000000,146.000000,8.000000,8.000000,0.000000,0.000000,0.000000,0.000000,0.000000;
#CREDIT:;
#NOTES:
0000
0000
0000
0000
,
1000
0000
0100
0000
,
0010
0000
0001
0000
,
0010
0000
0100
0000
,
1000
0000
0000
0000
,
2000
3000
0001
0000
,
0011
0000
0100
0000
,
1100
0000
0100
0000
,
0011
0000
0010
0000
,
0100
0000
1000
0000
,
0010
0100
0010
0000
,
0100
0010
0100
0000
,
0001
0000
1000
0000
,
0001
0000
0000
0000
,
1000
0000
1000
0000
,
0100
0010
0001
0000
,
0001
0010
0100
0000
,
1000
0010
0100
0000
,
0110
0000
0100
0000
,
0100
0000
0001
0100
,
0001
0000
1000
0000
,
0100
0000
0010
0000
,
0001
0000
1000
0000
,
0001
0000
1000
0001
,
1000
0000
0010
0100
,
0010
0000
0001
1000
,
0001
0000
0100
0010
,
0100
0000
1000
0100
,
0010
0000
0010
0000
,
0001
0000
1000
0000
,
1002
0000
1003
0000
,
0100
0000
0010
0000
,
0002
0000
0013
0000
,
0100
0000
1000
0000
,
0010
0100
0010
0000
,
0100
0000
0001
0000
,
0200
0000
0301
0000
,
0020
0000
1030
0000
,
1000
0000
0100
0000
,
1000
0000
0001
0010
,
0001
0000
1000
0000
,
0010
0000
0100
0001
,
0100
0000
0001
0000
,
0100
0100
0100
0000
,
0100
0000
0001
0000
,
1000
0001
1000
0001
,
1000
0000
0010
0000
,
0100
0000
0010
0000
,
1000
0000
0001
0000
,
1001
0000
1000
0000
,
1000
0000
0001
0000
,
1001
0000
0010
0000
,
0100
0000
0001
0000
,
0100
0000
0010
0000
,
1000
0001
1000
0000
,
0010
0010
0010
0000
,
0100
0100
0100
0000
,
0001
0000
1000
0000
,
0001
1000
0001
1000
,
0001
0000
1000
0000
,
0200
0300
0010
0000
,
0020
0030
0001
0000
,
0001
0000
0001
0000
,
2000
0000
3000
1001
;

//---------------dance-single - ----------------
#NOTEDATA:;
#CHARTNAME:;
#STEPSTYPE:dance-single;
#DESCRIPTION:;
#CHARTSTYLE:;
#DIFFICULTY:Medium;
#METER:9;
#RADARVALUES:0.409171,0.441605,0.167901,0.039506,0.000000,290.000000,273.000000,17.000000,4.000000,0.000000,0.000000,0.000000,0.000000,0.000000,0.409171,0.441605,0.167901,0.039506,0.000000,290.000000,273.000000,17.000000,4.000000,0.000000,0.000000,0.000000,0.000000,0.000000;
#CREDIT:;
#NOTES:
0000
0000
0000
0000
0000
0001
0000
1000
,
0000
0000
0000
0010
0100
0000
0100
0010
,
0000
0100
0000
0001
0000
1000
0001
1000
,
0000
0010
0100
0010
0000
0100
0000
0000
,
0001
0100
0001
0100
0000
0010
1000
0010
,
0000
0100
0001
0100
0001
0000
1000
0100
,
0010
0001
0100
0010
,
1000
0100
0010
0000
0100
0000
0101
0000
,
0001
0000
0010
0100
1000
0000
0010
0000
,
0100
0000
0100
0100
0001
0000
1000
0000
,
0010
0000
1000
1000
0010
0000
0100
0000
,
0001
0000
0010
0100
1000
0000
0001
0000
,
1000
0000
0010
1000
0010
0000
0001
0000
,
0010
0000
0100
0010
0100
0000
0000
0000
,
1001
0000
0010
1000
0000
0000
0010
0100
,
0010
0000
0100
0010
0100
0000
0001
0000
,
1000
0000
0010
0100
0001
0000
0000
0000
,
1000
0000
0010
0100
0001
0000
0000
0000
,
0101
0000
0100
0001
0100
0000
0010
0000
,
0110
0000
1000
0001
1000
0000
0100
0000
,
0010
0000
0001
1000
0001
0000
0010
0000
,
0100
1000
0010
0100
,
0001
1000
0001
1000
0000
0010
0000
0100
,
0000
0010
1010
0001
,
1001
0000
0100
0000
0010
0000
0100
0010
,
0100
0000
0010
0100
0010
0000
1000
0000
,
0001
1000
0110
0010
,
0001
0000
1000
0001
1000
0000
0000
0000
,
0010
0000
0100
0010
0100
0000
0001
0000
,
0001
1000
1000
0000
,
1000
0000
0001
0010
0100
0000
0100
0000
,
0100
0000
0100
0010
0001
0000
1000
0000
,
1000
0000
0010
0100
0010
0000
0100
0000
,
0001
0000
1000
0010
1000
0000
0000
0000
,
0010
0000
1000
0010
0100
0000
0010
0000
,
0100
0000
0010
1000
0100
0000
0000
0000
,
1000
0010
0100
0000
,
0001
0010
0000
0100
0000
1000
0000
0000
,
1000
0000
0100
0010
0100
0000
0000
0000
,
1000
0000
0100
0010
0100
0000
0000
0000
,
0001
0000
0010
0100
0010
0000
0000
0000
,
0001
0000
0010
0100
0010
0000
0000
0000
,
0100
0000
0010
0000
,
0001
0100
0100
0010
,
0110
1000
0001
0100
,
0200
0301
1000
1001
,
0110
0000
0010
0000
0010
0000
0100
0010
,
0100
0001
0011
0100
,
1000
0100
1100
0000
,
1000
0010
1000
0010
,
0001
0010
1000
0100
,
0110
0010
0010
0100
,
0110
1000
0001
0100
,
0100
0001
0010
0100
,
1000
0001
1000
0010
,
0010
1000
0010
1000
,
0001
0000
0100
0000
0100
0010
0100
0000
,
0001
0000
1000
0000
,
0001
1001
0100
1000
,
0002
1000
1003
0010
,
0210
0010
0310
0100
,
0001
1000
0001
0010
,
0011
0001
0001
1000
,
2000
0000
0000
0000
3000
0000
0001
0001
;

//---------------dance-single - ----------------
#NOTEDATA:;
#CHARTNAME:;
#STEPSTYPE:dance-single;
#DESCRIPTION:;
#CHARTSTYLE:;
#DIFFICULTY:Hard;
#METER:11;
#RADARVALUES:0.526279,0.504691,0.246914,0.158025,0.004938,373.000000,348.000000,25.000000,16.000000,0.000000,0.000000,0.000000,0.000000,0.000000,0.526279,0.504691,0.246914,0.158025,0.004938,373.000000,348.000000,25.000000,16.000000,0.000000,0.000000,0.000000,0.000000,0.000000;
#CREDIT:;
#NOTES:
// measure 0
0000
0000
0000
0000
0000
0001
0000
1001
,  // measure 1
0000
0000
1000
0010
0100
0000
0100
0010
,  // measure 2
0000
0100
0000
0101
0000
1000
0001
0100
,  // measure 3
0000
0010
1000
0010
0000
0200
0000
0300
,  // measure 4
0001
0100
0001
1000
0001
0010
1000
0010
,  // measure 5
0000
0001
1000
0010
0100
0010
1000
0100
,  // measure 6
0010
0000
0001
1000
0100
0000
0010
0001
,  // measure 7
1000
0000
0010
0000
0100
0010
0000
0100
,  // measure 8
0001
0000
0010
0100
0010
0001
0000
0010
,  // measure 9
0000
1000
0100
0000
1000
0100
0010
0001
,  // measure 10
0010
0000
0010
1000
0010
0001
0000
0002
,  // measure 11
0000
0003
0010
0100
1000
0000
0001
1000
,  // measure 12
0010
0000
1010
0000
1000
0100
0000
0001
,  // measure 13
0100
0000
0100
1000
0000
0000
0100
0010
,  // measure 14
1000
0010
1000
0010
0000
0100
0000
0110
,  // measure 15
0000
0000
0100
0010
0100
0001
0000
1000
,  // measure 16
0001
0000
0010
0100
0010
0000
0100
1000
,  // measure 17
1000
0100
0100
0010
0001
0100
0000
0000
,  // measure 18
0101
0000
0100
0010
0100
0000
0010
1000
,  // measure 19
0010
0000
1001
0000
1000
0001
0000
1000
,  // measure 20
0001
0000
0100
0010
1000
0010
0000
0020
,  // measure 21
0000
0130
0001
1000
0010
0000
0100
0001
,  // measure 22
0100
0000
0001
1000
0010
0100
0000
0200
,  // measure 23
0000
0300
0010
1000
1010
0000
1000
0001
,  // measure 24
1001
0000
0100
0000
0010
1000
0000
0010
,  // measure 25
0200
0000
0310
0010
1000
0000
1000
0100
,  // measure 26
0010
0100
1000
0100
0000
0010
0000
0100
,  // measure 27
1000
0000
1000
0100
1000
0100
0010
0100
,  // measure 28
0010
0000
0001
0010
0100
0000
0010
0001
,  // measure 29
0000
1000
0000
0100
1000
0010
0000
0000
,  // measure 30
2000
0000
3001
0010
0001
0000
0100
0010
,  // measure 31
0110
0000
0100
0020
0000
0030
1000
0100
,  // measure 32
1000
0000
0110
0000
0010
0100
0000
0200
,  // measure 33
0000
0300
0001
0010
0001
0010
0001
0000
,  // measure 34
0020
0000
0130
0001
0100
0000
0010
0000
,  // measure 35
0011
0000
0010
2000
0000
3000
0001
0100
,  // measure 36
0101
0000
0110
0000
0100
0010
0000
0100
,  // measure 37
0010
0100
0000
0100
0010
0100
0000
0010
,  // measure 38
1001
0000
0100
0110
0000
0010
0100
0002
,  // measure 39
0000
0003
0100
0010
0100
0001
0100
0000
,  // measure 40
0101
0000
0010
0100
0000
0100
0000
1000
,  // measure 41
0000
1000
0002
0000
0000
0000
0003
0000
,  // measure 42
0100
0000
0000
0010
0000
0000
0100
0000
0000
0000
0010
0000
0100
0000
0000
0000
,  // measure 43
0001
0000
0010
0001
0010
0001
0000
1000
,  // measure 44
0000
1001
0000
1000
0100
0001
0000
0100
,  // measure 45
0000
0000
1000
0100
1000
0010
0100
0001
,  // measure 46
0000
0011
0000
0110
0000
1000
0001
1000
,  // measure 47
0000
0000
0001
0010
0100
0000
0100
0100
,  // measure 48
0000
1000
2000
0000
3010
0000
0010
0100
,  // measure 49
0001
0010
0001
0010
1000
0010
0001
0010
,  // measure 50
0000
0001
0010
0000
1000
0000
0010
0100
,  // measure 51
0001
0000
0100
0010
0100
0001
0100
0010
,  // measure 52
0000
0001
0010
1000
0001
0100
0000
0100
,  // measure 53
0000
0000
0001
0010
0001
1000
0000
0100
,  // measure 54
0000
1010
0000
0101
0000
0010
0100
0020
,  // measure 55
0000
0030
0000
0100
0000
0001
1000
0010
,  // measure 56
0000
0100
0100
0000
0001
0000
1000
0100
,  // measure 57
0010
0100
0010
0001
1000
1000
0010
0010
,  // measure 58
0000
0010
0200
0000
0000
0300
0000
0000
,  // measure 59
0100
0001
0010
0001
1000
0100
0001
0100
,  // measure 60
1000
0001
0010
0100
0001
0100
1000
0000
,  // measure 61
1000
0000
0010
1000
0100
1000
0001
0000
,  // measure 62
1001
0000
0110
0000
1000
0100
0001
0100
,  // measure 63
0020
0000
0000
0000
0030
0000
0011
0011
;
