#TITLE:Screaming Your Faith!!!;
#SUBTITLE:;
#ARTIST:itoken vs. 96;
#TITLETRANSLIT:;
#SUBTITLETRANSLIT:;
#ARTISTTRANSLIT:;
#GENRE:;
#CREDIT:;
#BANNER:Screaming Your Faith!!!.png;
#BACKGROUND:Screaming_Your_Faith!!!.png;
#LYRICSPATH:;
#CDTITLE:;
#MUSIC:Screaming-Your-Faith -itoken-vs.-96.ogg;
#OFFSET:-0.245000;
#SAMPLESTART:47.636002;
#SAMPLELENGTH:17.100000;
#SELECTABLE:YES;
#BPMS:0.000000=162.000000
;
#STOPS:
;
#BGCHANGES:;
#KEYSOUNDS:;
#ATTACKS:;

//---------------dance-single - ----------------
#NOTES:
     dance-single:
     :
     Beginner:
     3:
     0.120938,0.158731,0.009844,0.088594,0.000000,86.000000,85.000000,1.000000,9.000000,0.000000,0.000000,0.120938,0.158731,0.009844,0.088594,0.000000,86.000000,85.000000,1.000000,9.000000,0.000000,0.000000:
0000
0000
0000
0000
,
0000
0000
0000
0000
,
0000
0000
0000
0000
,
0000
0000
0000
0000
,
0000
0000
2000
0000
,
3000
0000
0002
0000
,
0003
0000
1000
0000
,
1000
0000
0001
0000
,
0000
0000
0002
0000
,
0003
0000
1000
0000
,
0010
0000
1000
0000
,
0001
0000
0100
0000
,
0002
0000
1003
0000
,
0000
0000
0100
0000
,
0000
0000
0010
0000
,
0001
0000
2000
0000
,
3000
0000
1001
0000
,
0000
0000
0001
0000
,
1000
0000
0001
0000
,
0100
0000
0001
0000
,
0000
0000
1000
0000
,
0010
0000
0100
0000
,
0010
0000
2000
0000
,
0000
0000
3001
0000
,
0001
0000
0001
0000
,
0000
0000
0100
0000
,
0000
0000
0010
0000
,
0000
0000
1000
0000
,
0000
0000
0001
0000
,
0100
0000
0001
0000
,
0000
0000
1000
0000
,
0010
0000
1000
0000
,
0000
0000
0001
0000
,
0100
0000
0001
0000
,
1000
0000
0002
0000
,
0003
0000
1000
0000
,
0000
0000
0001
0000
,
1000
0000
0010
0000
,
0000
0000
0010
0000
,
1000
0000
0001
0000
,
0000
0000
0100
0000
,
0100
0000
0100
0000
,
0000
0000
0001
0000
,
0001
0000
0001
0000
,
0000
0000
1000
0000
,
1000
0000
0001
0000
,
0000
0000
1000
0000
,
0001
0000
1000
0000
,
0000
0000
0001
0000
,
0001
0000
1000
0000
,
0000
0000
1000
0000
,
0010
0000
1000
0000
,
0000
0000
0100
0000
,
0100
0000
0100
0000
,
0000
0000
0100
0000
,
0100
0000
0100
0000
,
0000
0000
0010
0000
,
0010
0000
0010
0000
,
0000
0000
0001
0000
,
0001
0000
1000
0000
,
1000
0000
0002
0000
,
0003
0000
0200
0000
,
0000
0000
0000
0000
,
0000
0000
0000
0000
,
0000
0000
0300
0000
;

//---------------dance-single - ----------------
#NOTES:
     dance-single:
     :
     Easy:
     7:
     0.260157,0.380954,0.127969,0.295313,0.000000,185.000000,172.000000,13.000000,30.000000,0.000000,0.000000,0.260157,0.380954,0.127969,0.295313,0.000000,185.000000,172.000000,13.000000,30.000000,0.000000,0.000000:
0000
0000
0000
0000
,
0000
0000
0000
0000
,
0000
0000
0200
0000
,
0300
0000
0002
0000
,
0003
0000
1000
0010
,
1000
0001
0100
0000
,
0001
1000
0010
1000
,
0100
0000
0100
0010
,
0001
0000
2000
0000
,
3002
0000
0203
0000
,
0310
0000
0010
0000
0100
0000
0000
0001
,
2000
0000
0000
3001
2000
0000
0000
3000
,
0002
0000
0103
0000
,
0010
0000
1000
0000
,
0001
0000
0100
0000
0002
0000
0000
1003
,
0002
0000
0000
1003
0020
0000
0000
0030
,
1000
0000
0001
0100
,
0010
1000
1001
0001
,
0100
0010
1001
0001
,
2000
0000
0000
3001
0200
0000
0000
0301
,
2000
0000
0000
3000
0001
0000
0100
0000
,
0020
0030
0010
1000
,
0001
1000
0002
0000
,
2003
0000
0010
0000
,
3001
0000
0210
0000
,
0010
0000
0310
0000
,
1000
0001
2001
0000
,
0001
0000
3001
0000
,
0001
0100
1002
0000
,
1003
0000
0010
1000
,
0001
0100
0201
0000
,
0001
0000
0301
0000
,
0010
1000
0001
0000
,
1000
0010
0200
0300
,
0001
1000
0010
0100
,
0002
0003
1000
0010
,
1010
0000
0100
0001
,
1000
0001
0100
0001
,
1000
0010
1000
0001
,
0101
0000
0010
0100
,
1001
0000
0100
0010
,
0000
1000
0001
1000
,
0000
0001
0200
0000
,
0310
0010
0010
1000
,
0002
0000
1003
0010
,
0100
0001
1001
0000
,
1000
0010
0010
0100
,
0001
1000
1001
1001
,
1001
0000
0010
0000
,
0100
0000
0001
0000
,
1000
0010
1000
0000
,
0001
0100
0001
0000
,
0010
0100
0010
0000
,
0001
0001
0002
0003
,
1000
1000
2000
0000
,
3000
0000
0010
0100
,
0001
0000
1000
1000
,
0010
0000
0200
0000
,
0301
0001
0100
0000
,
0010
0000
1000
0000
,
0001
0000
2000
0000
,
3001
0000
0100
0000
,
0010
0000
0000
0200
0000
0000
0000
0000
,
0000
0000
0000
0000
,
0000
0000
0300
0000
;

//---------------dance-single - ----------------
#NOTES:
     dance-single:
     :
     Medium:
     9:
     0.388126,0.478039,0.108282,0.462658,0.024609,276.000000,265.000000,11.000000,47.000000,0.000000,0.000000,0.388126,0.478039,0.108282,0.462658,0.024609,276.000000,265.000000,11.000000,47.000000,0.000000,0.000000:
0000
0000
0000
0000
,
0000
0000
0000
0000
,
0000
0000
1001
0100
,
0010
0000
1000
0000
0001
0100
0001
0100
,
0000
0010
1000
0000
0002
0000
1000
0000
,
1003
0000
0000
1000
0001
0100
0000
0001
,
1000
0000
0010
0100
0001
0000
1000
0000
,
1000
0000
0000
0001
0100
0001
0000
1000
,
0010
0200
0310
0100
,
0001
1000
0001
0100
,
0010
0000
1000
0000
0002
0000
0003
1000
,
0002
0000
0003
0001
2000
0000
3000
0000
,
0020
0000
0130
0001
,
2000
3001
0200
0310
,
2000
0000
3002
0000
0203
0000
0300
0010
,
0200
0000
0300
0001
2000
0000
3000
0000
,
0001
0000
0100
0001
1000
0000
0001
0100
,
0001
0000
1000
0010
1000
0000
0001
0100
,
0010
0000
1000
0000
0100
0000
0100
0010
,
0002
0000
0003
1000
0020
0000
0030
0000
,
0200
0000
0000
0000
0301
0000
1000
0100
,
0010
0000
0010
0001
1000
0000
0001
0000
,
0100
0000
0010
0100
0020
0000
0030
0000
,
1000
0000
0000
0001
0000
0000
1000
0000
0001
0000
0000
0000
1000
0000
0000
0000
,
0002
0000
2003
0000
,
3010
0000
0100
0001
,
1001
0100
1001
0000
,
0100
0000
0010
0000
,
1000
0001
1000
0000
2002
0000
3003
0000
,
0100
0000
0000
0010
0000
0000
1000
0000
0001
0000
0000
0000
1000
0000
0000
0000
,
0100
0010
0220
0330
,
0022
0000
0033
0000
1000
0000
0100
1000
,
0010
0000
0100
0000
0002
0000
0000
0103
,
0001
0000
1010
0000
2001
0000
0000
3001
,
0100
0000
0000
0000
0010
0000
1000
0000
0001
0000
0000
1000
0000
0000
0001
0000
,
0100
0010
0200
0010
,
0301
0000
1000
0001
,
0100
0010
0100
0001
2000
0000
3000
0001
,
0100
0001
1000
0100
0020
0000
0030
0000
,
0001
0001
1000
1000
,
0001
0000
0001
0000
1000
0010
0100
0000
,
0001
0100
0010
0000
1000
0001
0100
0000
,
0001
0000
0000
0010
0000
0000
0001
0000
0020
0000
0000
0000
0000
0000
0032
0000
,
0000
1003
0200
0000
,
0310
0010
0001
1000
,
0002
0103
0020
1030
,
0002
0000
1003
0000
0100
0010
0001
0000
,
1000
0010
1000
0001
0000
1000
0100
0010
,
0002
0000
0003
0000
1001
0000
0100
0010
,
1000
0000
0001
0100
0001
0000
1000
0100
,
0010
0001
1000
0001
0200
0000
0000
0310
,
0100
0000
0001
0000
1000
0100
0000
1000
,
0001
0100
2002
0000
,
3003
0000
0100
0010
1000
0000
0001
1000
,
0001
1000
0002
0000
,
0003
0100
0010
1000
0001
0000
1000
0000
,
0002
0000
0203
0000
0310
0100
0010
0000
,
1000
0000
0001
0100
0001
0000
1000
0100
,
0010
0100
1000
0000
0001
0000
0010
0001
,
0010
0000
0100
0010
0100
0000
1000
0001
,
1000
0010
0100
0001
2000
0000
0000
0000
,
3020
0000
0000
0000
0000
0000
0030
0000
0100
0000
0000
0010
0000
0000
0100
0000
,
0010
0000
0000
0220
0000
0000
0000
0000
,
0000
0000
0000
0000
,
0000
0000
0000
0330
;

//---------------dance-single - ----------------
#NOTES:
     dance-single:
     :
     Hard:
     13:
     0.577971,0.701123,0.462658,0.364220,0.167344,411.000000,364.000000,47.000000,37.000000,0.000000,0.000000,0.577971,0.701123,0.462658,0.364220,0.167344,411.000000,364.000000,47.000000,37.000000,0.000000,0.000000:
0000
0000
0000
0000
,
0000
0000
0000
0000
,
0000
0000
0000
0000
1001
0000
0100
0010
,
1001
0000
0000
0001
0100
0000
0000
0000
0010
0000
0100
0000
0010
0000
2000
0000
,
0000
3001
0100
0000
0002
0000
0100
0000
,
1003
0000
0000
0010
0000
0100
0000
0001
,
1000
0000
0001
0100
0101
0000
0010
0100
,
1000
0001
0000
1000
0001
0100
0000
0010
,
1000
0001
0200
0000
0310
0000
1000
0100
,
0010
0000
0001
0100
0010
0000
1000
0001
,
0100
0000
0010
0000
2002
0000
3003
0100
,
0010
0100
0000
0001
1000
0001
0000
1000
,
0100
0010
0001
0100
0110
0000
0001
0100
,
0010
0000
1000
0100
0001
0000
0001
0100
,
1000
0000
0010
0000
0200
0000
0300
0001
,
0100
0000
0001
0100
0001
1000
0000
0001
,
0000
1000
0010
0100
0001
1000
0000
0001
,
0100
0001
0000
0100
0001
1000
0000
0100
,
0010
0001
0000
0001
1000
0010
0100
0001
,
0000
1000
0010
0100
0010
0100
0000
0001
,
1000
0001
1000
0010
0200
0000
0300
0010
,
0100
0000
0001
1000
0000
0000
0001
0000
1000
0000
0010
0100
0000
0000
0001
0000
,
1000
0100
0010
0001
2000
0000
0000
0000
,
3001
0000
0000
0101
0000
0000
1010
0000
0101
0000
0000
0000
0002
0000
0000
0000
,
2003
0000
0000
3000
1001
0000
0000
0100
,
0110
0000
0000
1010
0000
0000
0101
0000
0011
0000
0000
0000
0001
0000
0000
0000
,
1000
0000
0010
0100
0010
0000
0000
0000
2000
0000
0000
0000
3000
0000
0001
0000
,
0110
0000
0000
0101
0000
0000
1010
0000
2002
0000
0000
0000
3003
0000
0000
0000
,
0010
0000
0100
0000
0010
0000
0100
0010
0200
0000
0000
0000
0300
0000
0001
0000
,
1001
0000
0000
1010
0000
0000
0011
0000
0101
0000
0000
0000
1000
0000
0000
0000
,
0010
0000
0100
0001
0100
0000
0000
0000
2002
0000
0000
0000
3003
0000
0001
0000
,
0011
0000
0000
0011
0000
0000
0110
0000
0110
0000
0000
0000
0000
0000
0000
0000
,
1001
0000
0100
0000
0020
0000
0030
1000
,
0100
0010
0001
0100
0020
0000
0030
0010
,
1000
0000
0001
0000
0100
0000
0010
0000
0110
0000
0000
1100
0000
0000
0011
0000
,
0011
0000
0000
0110
0000
0000
1001
0000
0210
0000
0000
0000
0010
0000
0000
0000
,
0301
1000
0001
1000
0001
0000
0000
0000
1000
0000
0010
0000
0100
0000
0001
0100
,
0001
0000
1000
0000
0010
0000
0100
0000
0001
0000
1000
0000
0001
0000
0100
0010
,
0100
0001
1000
0001
0200
0000
0310
0100
,
0001
0000
1000
0001
0100
0000
0010
0000
1001
0000
0000
0000
0100
0000
0001
0000
,
2001
0000
0001
0000
3002
0000
0103
0010
,
1000
0000
0001
0000
0100
0000
0010
0100
0020
0000
0000
0000
1030
0000
0001
0100
,
0001
0000
0000
0101
0000
0000
1001
0000
2001
0000
0000
0000
0000
0000
0002
0000
,
3000
0000
0200
0003
0020
0300
0000
0000
,
1030
0000
0101
0000
0001
0010
0100
0010
,
0100
0000
1100
0000
0100
0010
0100
0020
,
0000
0031
0100
0010
2000
0000
3001
0000
,
0100
0010
1000
0001
0000
0001
0100
0010
,
2000
0000
0001
0000
3001
0100
0010
1000
,
0001
0000
0100
0000
0001
0000
2000
0000
0000
0000
3010
0100
0010
0000
0200
0000
,
0000
0000
0301
0000
1000
0000
0001
0000
1000
0000
0001
0100
0001
0000
0100
0000
,
0010
0000
0100
0010
1000
0000
0000
0000
0001
0000
0000
0100
0000
0000
0001
0000
,
0100
0000
0100
0000
0010
0000
0000
0000
1001
0000
0000
0000
0001
0000
0100
0001
,
0000
0000
1000
0000
0010
0000
0100
0001
0000
0000
0001
0000
0010
0000
0100
0010
,
0000
0000
0100
0000
1000
0000
0001
0100
0000
0000
0001
0000
1000
0000
0010
0100
,
0000
0000
0001
0000
1000
0000
0100
0000
1000
0000
0001
0000
0100
0000
0001
0100
,
0000
0000
0001
0000
1000
0000
1000
0000
2010
0000
0000
0000
3001
0000
0100
0001
,
0000
0000
0100
0000
0010
0000
1000
0001
0000
0000
0001
0000
1000
0000
0100
0000
,
0010
0001
0010
0100
0010
0001
0100
1000
,
0000
1000
0100
0001
0000
1000
0010
0100
,
0000
0001
0100
1000
0200
0000
0000
0000
,
0310
0000
0000
0000
0100
0000
0000
0000
0110
0000
0000
0110
0000
0000
0101
0000
,
2002
0000
3003
0002
0000
0000
0000
0000
,
0000
0000
0000
0000
,
0000
0000
0000
0003
;

//---------------dance-single - ----------------
#NOTES:
     dance-single:
     :
     Challenge:
     16:
     0.814221,0.924208,0.196876,0.226407,0.743205,579.000000,559.000000,20.000000,23.000000,0.000000,0.000000,0.814221,0.924208,0.196876,0.226407,0.743205,579.000000,559.000000,20.000000,23.000000,0.000000,0.000000:
// measure 0
0000
0000
0000
0000
,  // measure 1
0000
0000
0000
0000
,  // measure 2
0000
0000
1010
0100
,  // measure 3
0101
0000
0001
0100
0001
0000
0100
0010
1000
0000
0001
0000
0010
0000
0022
0000
,  // measure 4
0030
0000
0013
0000
0110
0000
0000
0000
1000
0000
0001
0000
0100
0000
0001
0010
,  // measure 5
0001
0000
0010
0000
0001
0010
0001
0000
1000
0000
0100
0000
0000
0000
0100
0010
,  // measure 6
0001
0000
1000
0010
0110
0000
0001
1000
,  // measure 7
0010
0100
0101
0110
0010
1000
0000
0001
,  // measure 8
0100
0000
0001
0000
0200
0000
0000
0000
0301
0000
1000
0000
0010
0100
0010
0000
,  // measure 9
1000
0000
0001
0100
0000
0100
0001
0000
1000
0000
0010
0000
0100
0010
1000
0000
,  // measure 10
0001
0000
0100
0001
0100
0001
1000
0000
0010
0000
0100
0000
0001
0100
0001
0000
,  // measure 11
1000
0000
0010
0100
0000
0100
0010
0000
1000
0000
1000
0000
0001
0100
0010
0000
,  // measure 12
1000
0100
1000
0100
0010
0001
0010
0001
1000
0000
0001
0000
0100
0010
0100
0000
,  // measure 13
0001
0000
0100
0001
0000
1000
0001
0000
0100
0000
0010
0000
0100
0001
1000
0000
,  // measure 14
0001
0000
0010
0100
0000
1000
0001
0000
0100
0000
0010
0000
1000
0100
1000
0000
,  // measure 15
0001
0000
0100
0001
0010
0001
0100
0000
0001
0000
0200
0000
0000
0000
0310
0000
,  // measure 16
0100
0000
0001
0100
0001
1000
0010
0100
0001
0000
1000
0000
0100
0010
0001
0000
,  // measure 17
0010
0000
0100
1000
0100
0010
0001
0000
1000
0000
0100
0000
0010
0001
1000
0000
,  // measure 18
0001
0000
0010
0100
1000
0001
0100
0000
0001
0000
1000
0000
0010
0100
0001
0000
,  // measure 19
1000
0000
0100
0010
0100
0010
0001
0000
1000
0000
0001
0000
0100
0010
1000
0000
,  // measure 20
0001
0010
0001
1000
0100
1000
0001
0010
0001
0000
1000
0000
0001
0100
0010
0000
,  // measure 21
1000
0000
0001
0010
0100
1000
0001
0000
1000
0000
0001
0000
0010
0100
1000
0000
,  // measure 22
0001
0000
0010
0100
0010
0100
1000
0000
0002
0000
0000
0000
0003
0000
0000
0000
,  // measure 23
0100
0000
0000
0010
0000
0000
0100
0000
0010
0000
0100
0010
0100
0000
0010
0100
,  // measure 24
0000
0010
0100
0001
1000
0000
0000
0000
0202
0000
0000
0000
0303
0000
0001
0000
,  // measure 25
1000
0000
0000
0010
0000
0000
1000
0000
0001
0000
0100
0000
0010
0000
0100
0010
,  // measure 26
1000
0000
0001
0000
0100
0001
0100
0010
1000
0000
0000
0000
0000
0000
0001
0000
,  // measure 27
0100
0000
0000
0010
0000
0000
1010
0000
1001
0000
0000
0000
0001
0000
0000
0000
,  // measure 28
2000
0000
0000
0000
3010
0100
0010
0000
2000
0000
0000
0000
3000
0000
0001
0000
,  // measure 29
0100
0000
0000
0010
0000
0000
1000
0000
0001
0000
0000
0000
0100
0000
0010
0100
,  // measure 30
0010
0000
0000
0000
1000
0100
0010
0001
0020
0000
0000
0000
0030
0000
0001
0000
,  // measure 31
0100
0000
0000
0110
0000
0000
0100
0000
1001
0000
0001
0000
1000
0001
0100
0001
,  // measure 32
1000
0000
0000
0000
0010
0100
0010
0000
0200
0000
0000
0000
0310
0100
0010
0100
,  // measure 33
0001
0000
1000
0000
0100
0000
0001
0000
0200
0000
0000
0000
1300
0100
0010
0001
,  // measure 34
1000
0000
0001
0100
0001
0100
0010
0000
1010
0000
0000
0100
0000
0000
0010
0000
,  // measure 35
0110
0000
0000
0001
0000
0000
1000
0000
0002
0000
0000
0000
1003
0000
0000
0000
,  // measure 36
1000
0100
0010
0100
1000
0001
0010
0001
0100
0000
0001
0000
1000
0100
1000
0000
,  // measure 37
0001
0010
0001
0010
0001
0000
1000
0000
0010
0000
0100
0000
0001
0100
0010
0000
,  // measure 38
1000
0100
0010
0100
0010
0000
0001
0000
0011
0000
0100
0000
0010
0100
0010
1000
,  // measure 39
0100
0000
0100
0000
0010
0001
0010
0001
1000
0000
0001
0000
0100
0010
0100
0001
,  // measure 40
1000
0001
0010
0100
1000
0001
0000
0100
,  // measure 41
0010
0000
1000
0000
0000
0000
0001
0000
0100
0000
0000
0000
0010
0100
0010
0100
,  // measure 42
0010
0000
0000
0100
0000
0000
0010
0000
1000
0100
1000
0100
1000
0000
0001
0000
,  // measure 43
1000
0100
1000
0100
0010
0000
0001
0000
0100
0010
0100
0010
0001
0010
1000
0000
,  // measure 44
0001
0100
0001
1000
0100
0000
0000
0000
0010
0000
0001
0000
0010
0000
0000
0000
,  // measure 45
1000
0100
0010
0000
0001
0100
0010
2000
,  // measure 46
0000
0000
3001
0100
0001
0000
1000
0010
2000
0000
0000
0000
3001
0000
0000
0100
,  // measure 47
0010
0000
1000
0000
0001
0000
0200
0000
0000
0000
0301
1000
0010
0000
2000
0000
,  // measure 48
0000
0000
3001
0100
0001
0100
0001
0000
1001
0000
1000
0000
0010
0000
0100
0000
,  // measure 49
0001
0000
0001
0000
1000
0000
1000
0000
0010
0000
0100
0010
0100
0000
0002
0000
,  // measure 50
0000
0000
1003
0000
0100
0000
0010
0000
0001
0000
1000
0000
0001
0100
0001
0000
,  // measure 51
1000
0100
1000
0000
0010
0100
0010
0000
0001
0010
0001
0000
0010
1000
0010
0000
,  // measure 52
0100
0001
0100
0001
1000
0000
0001
0100
0010
0000
0000
0000
1000
0000
0001
0000
,  // measure 53
0100
0000
0010
0100
0001
0000
1000
0100
0020
0000
0000
0000
0031
0000
0100
0010
,  // measure 54
1000
0000
0001
0000
0100
0000
0010
0000
1000
0000
0100
0010
0001
0010
0100
0000
,  // measure 55
1000
0000
0001
0100
0010
1000
0001
0000
0100
0000
0010
0000
0100
0000
0001
0000
,  // measure 56
1000
0000
1000
0000
0001
0000
0001
0000
0210
0000
0000
0000
0310
0100
0010
0000
,  // measure 57
1000
0000
0001
0010
0100
1000
0001
0000
1000
0000
0010
0000
1000
0010
0100
0000
,  // measure 58
0001
0000
0010
0001
0100
0010
1000
0000
0001
0000
0100
0010
1000
0001
1000
0001
,  // measure 59
0100
0000
0010
0100
0001
1000
0001
1000
0010
0000
1000
0100
0010
0001
0010
0001
,  // measure 60
1000
0000
1000
0100
0010
0001
1000
0001
0100
0000
0010
0100
0001
0100
0001
0000
,  // measure 61
1000
0000
0010
0100
0010
1000
0001
0000
1000
0000
0000
0001
0000
0000
1001
0000
,  // measure 62
2002
0000
3003
0102
0000
0000
0000
0000
,  // measure 63
0000
0000
0000
0000
,  // measure 64
0000
0000
0000
0003
;
