#TITLE:Sayounara konnichiwa;
#SUBTITLE:;
#ARTIST:hinode155;
#TITLETRANSLIT:Sayounara konnichiwa;
#SUBTITLETRANSLIT:;
#ARTISTTRANSLIT:hinode155;
#GENRE:;
#CREDIT:from pop n music 12;
#BANNER:hinode155 - Sayounara konnichiwa (cut).png;
#BACKGROUND:;
#LYRICSPATH:;
#CDTITLE:;
#MUSIC:hinode155 - Sayounara konnichiwa (cut).mp3;
#OFFSET:-0.136000;
#SAMPLESTART:35.845997;
#SAMPLELENGTH:12.000000;
#SELECTABLE:YES;
#BPMS:0.000000=100.000000
;
#STOPS:
;
#BGCHANGES:;
#KEYSOUNDS:;
#ATTACKS:;

//---------------dance-single - ----------------
#NOTES:
     dance-single:
     :
     Beginner:
     2:
     0.137444,0.177620,0.049339,0.012335,0.000000,78.000000,74.000000,4.000000,1.000000,0.000000,0.000000,0.137444,0.177620,0.049339,0.012335,0.000000,78.000000,74.000000,4.000000,1.000000,0.000000,0.000000:
0000
0000
0000
0000
,
0100
0000
0001
0000
,
1000
0001
1000
0000
,
0001
0100
0001
0100
,
0001
0000
1000
0000
,
1001
0000
0001
1000
,
0001
0000
1000
0010
,
1000
0000
0001
0100
,
0001
0000
1000
1000
,
1000
0000
0001
0001
,
0001
0000
0100
0000
,
0100
0010
0100
0010
,
0100
0000
0110
0000
,
0110
0000
0001
0000
,
1000
0000
1000
0000
,
1001
0000
0001
0000
,
1000
1000
0001
0000
,
0001
0000
1000
0000
,
1000
0001
1000
0000
,
0001
0000
1000
0000
,
0010
0010
0010
0000
,
0100
0000
0010
0000
,
0100
0000
0001
0000
,
1000
0000
1000
0000
,
0001
0000
0001
0000
,
1000
0000
0001
0000
,
0100
0000
0001
0100
,
0001
0000
0000
0000
,
0100
0000
0001
0000
,
1000
0000
0001
0000
,
1000
0000
0001
0000
,
2000
0000
0000
0000
,
3000
0000
0000
0000
;

//---------------dance-single - ----------------
#NOTES:
     dance-single:
     :
     Easy:
     3:
     0.167400,0.197355,0.086343,0.061674,0.000000,95.000000,88.000000,7.000000,5.000000,0.000000,0.000000,0.167400,0.197355,0.086343,0.061674,0.000000,95.000000,88.000000,7.000000,5.000000,0.000000,0.000000:
0000
0000
0000
0000
,
0100
0010
0100
0000
,
1000
0001
1000
0000
,
0001
0100
0010
0100
,
0010
0000
0100
0010
,
0100
0010
1000
0000
,
1000
0100
1000
0100
,
1000
0000
0001
0100
,
0001
0100
0001
0000
,
1001
0000
0001
0001
,
0011
0000
0100
0100
,
1100
0000
0001
1000
,
0001
0000
0100
0001
,
0100
0000
0002
0000
,
2003
0000
3000
0000
,
0110
0000
1001
0000
,
0001
0010
0100
0000
,
1000
0001
1000
0000
,
0001
0010
0001
0010
,
0001
0000
1001
0000
,
1000
0100
1000
0100
,
1000
0000
0001
0010
,
0001
0010
0001
0000
,
2000
0000
3100
0000
,
0002
0000
0013
0000
,
1000
0100
0010
0000
,
0100
0000
0110
0000
,
0100
0100
0100
0000
,
0001
0001
0001
0000
,
1000
0001
1000
0001
,
1000
0001
1000
0000
,
2000
0000
0000
0000
,
3000
0000
0000
0000
;

//---------------dance-single - ----------------
#NOTES:
     dance-single:
     :
     Medium:
     8:
     0.362993,0.374975,0.197355,0.185021,0.000000,206.000000,190.000000,16.000000,15.000000,0.000000,0.000000,0.362993,0.374975,0.197355,0.185021,0.000000,206.000000,190.000000,16.000000,15.000000,0.000000,0.000000:
0000
0000
0000
0000
,
0100
0010
0100
0010
0100
0010
0100
0000
,
0001
0010
0001
0010
0001
1000
0001
0000
,
0001
0001
0001
0000
0100
0100
0100
0000
,
0010
0001
0010
0100
1000
0100
0010
0000
,
0100
0100
0100
0001
0001
1000
1000
0000
,
1000
0100
1000
0100
0100
0010
0001
0000
,
1000
0100
0010
0001
0001
0010
0100
0100
,
0010
0001
0100
0000
0001
0001
0001
0000
,
1001
1000
0100
1000
0110
0010
0001
0010
,
0001
0100
0001
0010
0001
0100
0010
0000
,
1001
1000
0001
1001
,
0011
0000
0100
0001
0100
0100
0001
0001
,
0200
0000
0301
0001
1000
1000
0010
0010
,
0100
0010
0100
0010
0100
0001
0100
0010
,
0110
0000
1000
0001
1001
0000
1000
0100
,
1001
0000
0010
0100
1001
0000
0001
0010
,
0001
0010
0100
0000
2000
0000
3100
0010
,
0001
0010
0001
1000
0100
1000
0010
0100
,
0110
0000
0001
0100
1001
0000
1000
0100
,
1010
0000
0100
0010
1000
0000
0100
0010
,
0100
0010
0001
0000
0010
0000
0100
0010
,
1000
0000
0020
0030
0110
0000
0002
0003
,
2000
0100
0100
3100
0200
0010
0010
0310
,
0020
0001
0001
0031
0001
0000
2000
0000
,
3002
0000
0103
0100
0010
0010
0110
0000
,
0101
0000
0001
0000
0110
0000
0200
0300
,
0020
0000
0100
0000
0130
0000
0100
0010
,
2000
0000
0001
0000
3100
0000
0100
1000
,
0002
0000
0010
0000
0103
0000
0001
0010
,
0200
0000
0010
0000
1300
0100
0010
0000
,
0002
0000
1000
0000
,
0003
0000
0000
0000
;

//---------------dance-single - ----------------
#NOTES:
     dance-single:
     :
     Hard:
     12:
     0.537441,0.532860,0.135682,0.172686,0.635238,305.000000,294.000000,11.000000,14.000000,0.000000,0.000000,0.537441,0.532860,0.135682,0.172686,0.635238,305.000000,294.000000,11.000000,14.000000,0.000000,0.000000:
// measure 0
0000
0000
0000
0000
0000
0000
0000
0000
0000
0000
0000
0000
0000
0000
0000
0000
0000
0000
0000
0000
0010
0100
0000
0010
,  // measure 1
0100
0000
0001
0100
0000
0010
0100
0000
0010
0100
0000
0001
0100
0000
0000
0000
0000
0001
0000
0000
1000
0001
0000
1000
,  // measure 2
0001
0000
0100
0010
0000
0100
0010
0000
1000
0001
0000
0000
0001
1000
0000
0000
0000
0001
0000
0000
0001
1000
0000
0001
,  // measure 3
0100
0000
0001
0100
0000
0100
0000
0000
0001
0100
0000
0001
0100
0000
0001
0100
0000
0000
0000
0000
0010
0100
0000
0010
,  // measure 4
0100
0000
0010
0100
0000
0000
0100
0000
0000
0101
0000
0000
1000
0100
0000
1000
0100
0000
0000
0000
0000
0000
0000
0010
,  // measure 5
0100
0000
0010
0100
0000
0001
0100
0000
0001
0100
0000
0000
0001
0000
0100
0001
0000
0100
0001
0000
0000
0000
0000
1000
,  // measure 6
0100
0000
1000
0100
0000
0010
0001
0000
0010
0001
0000
0000
1000
0000
0100
1000
0000
0100
0000
0000
1000
0100
0000
0000
,  // measure 7
1000
0000
0100
1000
0000
0000
0010
0000
0100
0010
0000
0000
0001
0000
0010
0001
0000
0010
0000
0000
0100
0010
0000
0100
,  // measure 8
0010
0000
0100
0000
0100
0000
0001
0000
0001
1000
0000
0001
0000
0000
1000
0000
,  // measure 9
1001
0000
1000
0100
1000
0100
1000
0000
0010
0100
0010
0100
0010
0000
0100
0000
,  // measure 10
0001
0010
0001
0010
0001
0000
0010
0000
0001
0000
0100
0001
0010
0000
0000
0000
,  // measure 11
0110
0000
0000
0100
0000
0010
1000
0000
0000
0100
0000
0000
0001
0000
0000
0100
0000
1000
0010
0000
1000
0001
0000
0000
,  // measure 12
0010
0000
0001
0010
0000
0001
0000
0000
0000
0000
0000
0000
0100
0000
0001
0100
0000
0000
0001
0000
0100
0000
0000
0000
,  // measure 13
0201
0000
0000
0000
0000
0000
0301
0000
0000
0001
0000
0010
0100
0000
1000
0100
0000
0010
0001
0000
1000
0010
0000
0000
,  // measure 14
0100
0000
0000
0010
0000
0000
0100
0000
0000
0000
0000
0000
0010
0000
0000
0100
0000
0000
0010
0000
0000
0000
0000
0000
0100
0000
0000
0000
0000
0000
0001
0000
0000
0000
0000
0000
0100
0000
0000
0000
0000
0000
0010
0000
0000
0000
0100
0000
,  // measure 15
0010
0000
0000
0000
0000
0000
1000
0000
0000
0001
0000
1000
0001
0000
0000
0100
0000
0000
0100
0000
0010
0000
0000
0010
,  // measure 16
0100
0000
0010
0100
0000
0010
0100
0000
0001
0100
0000
0010
1000
0000
0000
0100
0000
0010
0100
0000
0000
0001
0000
0010
,  // measure 17
0001
0000
0000
0000
0000
0000
0102
0000
0000
0000
0000
0000
2003
0000
0000
0000
0000
0000
3000
0000
0010
0000
0000
0100
,  // measure 18
0010
0000
0001
0010
0000
0100
0010
0000
0001
0010
0000
0100
0010
0000
0000
1000
0000
0100
0010
0000
0000
0100
0000
0000
,  // measure 19
0110
0000
0000
0000
0000
0000
0001
0000
0000
0100
0000
0010
1000
0000
0000
0000
0000
0000
1000
0000
0000
0100
0000
0010
,  // measure 20
0001
0000
0000
0001
0000
0010
0100
0000
0000
0010
0000
0001
0100
0000
0010
0000
0000
0100
0000
0000
0010
0100
0000
0010
,  // measure 21
0100
0000
0000
0000
0000
0000
0110
0000
0000
0000
0000
0000
0020
0000
0000
0000
0000
0000
0130
0000
0010
0100
0000
0010
,  // measure 22
2000
0000
0000
3000
0000
0000
0010
1000
0000
0000
0000
0000
0010
0000
0000
0000
0000
0000
0100
0001
0000
0000
0000
0000
,  // measure 23
2000
0100
0100
3100
0100
1000
0010
0100
,  // measure 24
0010
0001
0100
0100
0001
0010
2000
0000
,  // measure 25
3002
0000
0000
0000
0000
0000
0103
0000
0100
0000
0000
0010
0000
0000
0000
0000
0000
0000
0110
0000
0000
0000
0000
0000
,  // measure 26
0101
0000
0000
0000
0000
0001
0000
0000
0100
0000
0000
0000
0110
0000
0000
0000
0000
0000
0100
0000
0100
0000
0000
0000
,  // measure 27
0020
0000
0100
0000
0130
0000
0100
0010
,  // measure 28
2000
0000
0000
0100
0000
0000
3100
0000
0000
0010
0000
0000
0001
0000
0000
1000
0000
0000
0100
0000
0100
1000
0000
0000
,  // measure 29
0002
0000
0013
0100
0010
1000
0010
0001
,  // measure 30
0200
0000
0000
0310
0000
0000
0200
0000
0000
0301
0000
0000
1001
0000
0000
1000
0000
0000
0100
0000
0010
0001
0000
0000
,  // measure 31
2000
0000
0000
0000
,  // measure 32
3000
0000
0000
0000
;
