#TITLE:Sayonara sanctuary;
#SUBTITLE:;
#ARTIST:Parquets;
#TITLETRANSLIT:;
#SUBTITLETRANSLIT:;
#ARTISTTRANSLIT:;
#GENRE:;
#CREDIT:from pop n music 11;
#BANNER:Parquets - Sayonara Sanctuary.png;
#BACKGROUND:;
#LYRICSPATH:;
#CDTITLE:;
#MUSIC:Parquets - Sayonara Sanctuary.mp3;
#OFFSET:-0.114000;
#SAMPLESTART:0.011000;
#SAMPLELENGTH:17.000000;
#SELECTABLE:YES;
#BPMS:0.000000=155.000000
;
#STOPS:
;
#BGCHANGES:;
#KEYSOUNDS:;
#ATTACKS:;

//---------------dance-single - ----------------
#NOTES:
     dance-single:
     :
     Beginner:
     4:
     0.177190,0.216138,0.084090,0.115624,0.000000,118.000000,110.000000,8.000000,11.000000,0.000000,0.000000,0.177190,0.216138,0.084090,0.115624,0.000000,118.000000,110.000000,8.000000,11.000000,0.000000,0.000000:
// measure 0
0000
0000
0000
0000
,  // measure 1
0000
0000
0000
0000
,  // measure 2
0000
0000
0000
0000
,  // measure 3
0000
0000
0000
0000
,  // measure 4
1001
0000
0001
0000
,  // measure 5
1000
0000
0000
0000
,  // measure 6
1001
0000
0001
0000
,  // measure 7
1000
0000
0010
0000
,  // measure 8
0200
0000
0301
0000
,  // measure 9
1000
0000
0001
0000
,  // measure 10
0010
0000
0100
0000
,  // measure 11
1000
0100
0010
0000
,  // measure 12
0001
0000
1000
0000
,  // measure 13
0002
0003
1000
0000
,  // measure 14
1001
0000
0000
0000
,  // measure 15
0110
0000
0100
0000
,  // measure 16
0010
0000
0100
0000
,  // measure 17
0001
0000
1000
0100
,  // measure 18
0010
0000
0001
0000
,  // measure 19
1000
0000
0001
0010
,  // measure 20
0001
0000
1000
0000
,  // measure 21
0001
0000
1000
0000
,  // measure 22
0001
0000
1000
0000
,  // measure 23
0001
0000
0000
0000
,  // measure 24
2000
0000
0000
3000
,  // measure 25
0001
0000
0001
0000
,  // measure 26
2000
0000
3000
0000
,  // measure 27
0001
0001
0001
0000
,  // measure 28
1000
1000
1000
0000
,  // measure 29
0010
0000
0100
0000
,  // measure 30
0010
0000
0100
0000
,  // measure 31
0000
0000
0001
0000
,  // measure 32
1001
0000
1000
0000
,  // measure 33
0002
0003
1000
0100
,  // measure 34
0010
0000
0100
0000
,  // measure 35
1000
0000
0001
1000
,  // measure 36
0001
0000
1001
0000
,  // measure 37
0000
1000
0000
0000
,  // measure 38
0011
0000
0001
0000
,  // measure 39
0000
1000
0000
0000
,  // measure 40
0002
0000
0000
0003
,  // measure 41
1000
1000
0100
0100
,  // measure 42
0020
0000
0000
0030
,  // measure 43
0001
0000
1000
0000
,  // measure 44
0001
0001
0000
0000
,  // measure 45
0001
0001
0000
0000
,  // measure 46
0100
0100
0100
0000
,  // measure 47
0010
0000
0000
0001
,  // measure 48
2000
0000
3000
0000
,  // measure 49
0001
0001
0010
0010
,  // measure 50
0200
0000
0000
0300
,  // measure 51
1000
0000
0001
0000
,  // measure 52
0100
0100
0100
0000
,  // measure 53
0001
0000
0001
0000
,  // measure 54
1000
1000
0001
0000
,  // measure 55
0001
0000
1000
0000
,  // measure 56
2000
0000
3000
0000
,  // measure 57
1001
0000
0001
0000
,  // measure 58
2000
0000
0000
3000
;

//---------------dance-single - ----------------
#NOTES:
     dance-single:
     :
     Easy:
     6:
     0.300322,0.378406,0.126135,0.147158,0.000000,200.000000,188.000000,12.000000,14.000000,0.000000,0.000000,0.300322,0.378406,0.126135,0.147158,0.000000,200.000000,188.000000,12.000000,14.000000,0.000000,0.000000:
0000
0000
0000
0000
,
0000
0000
0000
0000
,
1000
0000
0000
0001
0000
0000
1000
0000
,
0000
0010
0000
0000
0100
0000
0100
0000
,
0110
0000
0000
1001
0000
0000
0011
0000
,
0000
0011
0000
0000
1000
0000
0001
0000
,
1001
0000
0000
0101
0000
0000
0001
0000
,
0000
0100
0000
0000
0002
0000
0003
0000
,
1000
0000
0000
0100
0000
0000
0010
0000
,
0000
0001
0000
0000
1000
0000
0001
0000
,
1000
0000
0000
0001
1000
0000
0001
0000
,
0000
1000
0000
0000
0100
0000
0010
0000
,
0011
0000
0000
0002
0000
0003
0000
0000
,
2000
3001
0100
0001
,
0100
0000
0010
0000
,
0100
0010
0000
0100
0000
0010
0000
0100
,
0002
0000
0003
2000
0000
3000
0002
0000
,
0003
0100
0000
0000
0010
0000
0100
0000
,
0100
0000
0000
0001
0000
0000
1000
0000
,
0000
0010
0000
0000
0100
0000
0010
0000
,
0101
0000
0000
0001
0000
0000
0010
0000
,
0000
0100
0000
0000
1000
0000
1000
0000
,
1000
0000
0000
0100
0000
0000
0010
0000
,
0001
0000
0000
0000
1000
0001
0000
0000
,
0002
0000
0100
0013
,
0100
0001
1000
0100
,
0010
0100
1000
0100
,
0100
0100
1000
0001
,
0100
0000
0100
0000
0001
0000
1000
0100
,
1000
0001
0100
0010
,
0100
0000
0000
0001
0000
0010
0000
0100
,
0000
1000
0000
0010
0000
0100
0000
0000
,
0101
0000
0000
0001
0000
0000
0100
0000
,
0010
0000
0000
0100
0000
0000
0010
0000
,
1000
0100
0010
0000
,
0002
0003
1000
0100
,
0100
1000
0100
0010
,
0001
0100
0010
0000
,
0100
0001
0010
0001
,
0010
0100
1000
0000
,
0001
0001
0001
1000
,
0100
1000
1000
1000
,
0001
0010
0001
0001
,
0001
0100
0010
0100
,
0010
0010
0010
0000
,
0110
0000
0000
0100
0000
0000
0010
0000
,
0220
0000
0000
0000
0330
0000
0000
0010
,
0000
0100
0010
0000
0000
0000
1000
0000
,
0001
0001
0001
1000
,
0010
0100
0010
0010
,
0020
0030
0100
0001
,
1000
0100
0001
0000
,
1100
0000
0000
1000
0000
0100
0000
0010
,
0000
0000
0020
0030
,
0100
0000
1000
0000
0100
0000
0000
0010
,
0000
0100
0000
1000
0000
0000
0000
0000
,
0002
0003
1000
0000
,
0001
0010
0001
0000
,
2000
0000
0000
0001
0000
0000
0001
0000
,
3000
0001
0000
0000
0001
0000
0001
0000
,
0001
0000
0000
0000
;

//---------------dance-single - ----------------
#NOTES:
     dance-single:
     :
     Medium:
     10:
     0.460994,0.504541,0.273293,0.178692,0.010511,307.000000,281.000000,26.000000,17.000000,0.000000,0.000000,0.460994,0.504541,0.273293,0.178692,0.010511,307.000000,281.000000,26.000000,17.000000,0.000000,0.000000:
0000
0000
0000
0000
,
0000
0000
0000
0000
,
0100
0000
0000
0001
0000
0000
0100
0000
,
0010
0010
0010
0010
0000
0100
0001
0100
,
0110
0000
1000
0001
1000
0000
0011
0000
,
0001
0011
0000
0001
1000
0000
0001
0100
,
0001
0000
0100
0101
0000
0000
0001
0000
,
0100
0010
0000
0010
0200
0001
0300
0001
,
1000
0000
0100
1000
0000
0010
0010
0000
,
0100
0001
0000
0001
2000
0000
3010
0100
,
0010
0000
0100
0001
1000
0000
1001
0000
,
0000
0000
1100
0000
0000
0000
0000
0000
0100
0000
0000
0010
0000
0000
0001
0000
,
0011
0000
0000
0002
0000
0003
0000
0000
,
1000
0000
0001
0000
0100
0000
0001
0001
,
0100
0000
0100
0010
0010
0000
0100
0001
,
0001
0000
0100
0000
0010
0100
0010
0100
,
0002
0000
0003
1100
0000
0000
0011
0000
,
0000
0100
0001
0100
0010
0000
0100
0000
,
0101
0000
0000
0001
0000
0001
1000
0000
,
0000
0010
0100
0010
0100
0000
0010
0000
,
0101
0000
0000
0001
1000
0000
0010
0100
,
0010
0000
0000
1000
0100
0010
0001
0000
,
2000
0000
3001
0002
0000
0003
0010
0000
,
0001
0000
1001
0000
1000
0001
0000
0100
,
0002
0100
0010
0003
,
0100
0000
0001
0010
0100
0000
0100
0010
,
0001
0000
0100
0010
1000
0000
0010
0000
,
0100
0010
1000
0000
0010
0000
0100
0010
,
1000
0100
0001
0010
0001
0000
1000
0001
,
1000
0000
0000
0000
0001
0000
0000
0000
0100
0000
0000
0010
0000
0000
0100
0000
,
0002
0000
0003
0001
0000
0011
0000
0110
,
0000
1000
0010
0110
0000
0100
0000
0001
,
0202
0000
0303
0000
0010
0000
0100
0010
,
0010
0000
0001
0100
0001
0100
0010
0000
,
1000
0000
0000
0000
0010
0100
0001
0100
,
0001
0000
1000
0001
1000
0010
0100
0000
,
0100
0000
0001
0100
0010
0001
0010
0100
,
0000
0000
0100
0010
0100
0000
0000
0000
,
0101
0000
0000
0000
0010
0100
0001
0100
,
0000
0010
0100
0010
0100
0000
0001
0000
,
1001
0000
1000
0100
1000
0000
1000
0100
,
0010
0000
0100
0000
0110
0000
1000
0100
,
1000
0000
1000
0100
0010
0000
0100
0000
,
0101
0000
0010
0100
0010
0000
0100
0000
,
0010
0000
0000
0100
0010
0000
0100
0000
,
0110
0000
0010
0100
0000
0010
0100
0000
,
0201
0000
0000
0001
0300
0000
0001
0000
,
0000
0100
0100
0010
0100
0000
0001
0000
,
0200
0000
0001
0000
0301
0000
1000
0100
,
0010
0000
0100
0010
0001
0000
0010
0001
,
2000
0000
3001
0100
0001
0000
0001
0000
,
2000
3100
0010
0001
,
1001
0000
0000
1000
0100
0010
0000
0011
,
0000
0001
0010
0001
0010
0001
0010
0000
,
0001
0000
1000
0100
1000
0100
1000
0010
,
0000
0100
0010
0000
0200
0000
0300
0000
,
0101
0000
0000
0101
0000
0000
0001
1000
,
0001
0010
0002
0003
,
2000
0000
0000
0001
0000
0000
0001
0000
,
3000
0001
0000
0000
0100
0000
0001
0000
,
0100
0000
0000
0000
;

//---------------dance-single - ----------------
#NOTES:
     dance-single:
     :
     Hard:
     13:
     0.594637,0.662210,0.325849,0.210225,0.136646,396.000000,365.000000,31.000000,20.000000,0.000000,0.000000,0.594637,0.662210,0.325849,0.210225,0.136646,396.000000,365.000000,31.000000,20.000000,0.000000,0.000000:
0000
0000
0000
0000
,
0000
0000
0000
0000
,
0101
0000
0000
0000
0000
0000
0010
0000
0000
0000
0000
0000
0100
0010
0100
0010
,
0100
0000
0010
0000
0100
0000
0020
0000
0030
0000
0100
0001
0100
0000
0001
0000
,
0110
0000
1000
1100
0000
0010
0011
0000
,
0100
0110
0000
0001
1000
1001
1001
0100
,
0101
0000
0000
0000
0100
0000
0110
0000
0000
0000
0000
0000
0100
0010
0100
0010
,
0100
0010
0000
0010
2000
0001
3000
0001
,
1001
0000
0000
0000
0100
0000
1000
0000
0010
0000
0010
0000
0010
0000
0100
0001
,
0100
0000
0001
0000
0000
0000
0001
0000
1000
0000
0100
0000
0010
0000
0100
0010
,
0001
0000
0100
0001
0100
0000
0001
0000
1000
0000
0100
0000
1000
0000
0100
1000
,
0100
0000
1100
0000
0000
0000
0100
0000
0101
0000
0010
0000
0100
0000
0001
0010
,
0001
0000
0000
0000
0001
1000
0001
0000
0000
0000
1000
0000
1001
0000
0000
0000
,
1000
0100
0001
0100
0010
0000
0001
0100
,
0200
0000
0301
0010
0100
0001
0100
0000
,
0011
0000
0100
0100
0010
0100
0010
0100
,
0002
0000
0003
1100
0000
0000
0011
0000
,
0000
0110
0001
0100
0010
1000
1100
0000
,
0001
0010
0100
0001
1000
0010
0100
1000
,
0000
0000
0010
0000
0100
0000
0010
0000
0101
0000
0000
0010
0000
0000
0001
0100
,
0001
0000
0100
0001
0000
0001
0010
0100
,
0020
0030
0000
0001
0000
0010
0001
0100
,
2000
0000
3001
0020
0000
0030
0100
0001
,
0100
0000
1001
0000
1000
0001
0000
0100
,
0002
0000
0100
0000
0100
0000
0103
0001
,
0100
0000
0001
1000
0100
0000
0010
0001
,
0100
0000
0100
0010
1000
0000
0010
0100
,
0001
0010
1000
0010
0001
0000
0100
0010
,
2000
0000
3001
0010
0001
0000
1000
0100
,
0010
0000
0001
0000
0100
0000
0010
0000
0100
0000
0000
0010
0000
0000
0100
0000
,
0002
0000
0003
0001
0000
0110
0000
0011
,
0000
0000
1000
0000
0010
0000
0110
0000
0000
0000
0100
0001
0100
0000
0000
0000
,
0202
0303
0000
0001
0010
0000
0100
0010
,
0001
0000
0001
0010
0000
0100
0010
0001
,
0100
0000
0001
0010
0100
0000
0010
0001
,
0010
0100
0010
0001
0010
0000
0100
0010
,
0011
0000
0001
0010
0100
1000
0010
0100
,
0000
0000
0100
0000
0110
0000
0000
0000
0100
0000
0000
0000
0001
0100
0001
0100
,
0001
0000
0000
1000
0010
0100
0001
0100
,
0000
0010
0100
0010
0100
0001
1000
0001
,
1001
0000
1000
0100
0010
0000
0001
0100
,
0010
0000
0101
0000
0110
0000
0002
0003
,
2000
3000
1000
0100
0010
0001
0100
0001
,
0100
0000
0010
0100
0010
1000
0001
0000
,
0010
0010
0000
0100
0100
0000
0100
0000
,
1000
0010
0010
0100
0100
0010
0100
0000
,
0200
0000
0300
0001
1000
0001
1000
0002
,
0000
0000
0103
0000
0100
0000
0000
0000
0001
1000
0001
1000
0001
1000
0001
0000
,
0020
0000
0031
0000
0010
0000
0100
1000
,
0001
0010
0100
0010
0001
1000
0001
0000
,
2000
0000
3001
0100
0001
0100
0001
0000
,
2000
0000
0000
0000
3100
0000
1000
0000
0010
0000
0100
0000
0001
1000
0001
1000
,
0001
0000
1000
1000
0100
0010
0000
0011
,
0000
0000
0001
0000
0010
0000
0001
0000
0010
0000
0000
0000
0010
0001
0010
0001
,
0010
0000
0100
0010
0001
0100
1000
0010
,
0000
0000
1000
0000
0100
0000
0000
0000
0001
0100
0001
0100
0001
0000
0000
0000
,
0100
0001
0001
0100
0010
0010
1000
0001
,
0100
0010
1001
0000
,
2000
0000
0000
0001
0000
0000
0010
0000
,
3000
0001
0000
0000
0100
0000
0001
0000
,
0100
0000
0000
0000
;
