#TITLE:Sasurai;
#SUBTITLE:;
#ARTIST:PON;
#TITLETRANSLIT:;
#SUBTITLETRANSLIT:;
#ARTISTTRANSLIT:;
#GENRE:;
#CREDIT:;
#BANNER:Ec_Sasurai.png;
#BACKGROUND:;
#LYRICSPATH:;
#CDTITLE:;
#MUSIC:Sasurai.ogg;
#OFFSET:-0.133000;
#SAMPLESTART:41.898998;
#SAMPLELENGTH:16.000000;
#SELECTABLE:YES;
#BPMS:0.000000=168.000000
;
#STOPS:
;
#BGCHANGES:;
#KEYSOUNDS:;
#ATTACKS:;

//---------------dance-single - ----------------
#NOTES:
     dance-single:
     :
     Beginner:
     2:
     0.076343,0.129843,0.025050,0.058450,0.000000,64.000000,61.000000,3.000000,7.000000,0.000000,0.000000,0.076343,0.129843,0.025050,0.058450,0.000000,64.000000,61.000000,3.000000,7.000000,0.000000,0.000000:
0000
0000
0000
0000
,
0000
0000
0000
0000
,
0000
1000
0000
0000
,
0000
0100
0000
0000
,
0000
0010
0000
0000
,
0000
0001
0000
0000
,
0000
0001
0000
0000
,
0000
0010
0000
0000
,
0000
0100
0000
0000
,
0000
1000
0000
0000
,
0000
0001
0000
0000
,
0000
0001
0000
0000
,
0000
0000
0000
0000
,
0000
1000
0000
0000
,
0000
0000
0000
0000
,
0000
0010
0000
0000
,
0000
0100
0000
0000
,
0000
0010
0000
0000
,
0000
0010
0000
0000
,
0000
0100
0000
0000
,
0000
0010
0000
0000
,
0000
1000
0000
0000
,
0000
0001
0000
0000
,
0000
1000
0000
0000
,
0000
0100
0000
0000
,
0000
1000
0000
0000
,
0000
0100
0000
0000
,
0000
1000
0000
0000
,
0000
0001
0000
0000
,
0000
0002
0000
0000
,
0000
0000
0003
0000
,
0000
2000
0000
0000
,
0000
0000
3000
0000
,
0000
0001
0000
0000
,
0000
0001
0000
0000
,
0000
0001
0000
0000
,
0000
0000
0000
0000
,
0000
1000
0000
0000
,
0000
1000
0000
0000
,
0000
0001
0000
0000
,
0000
0001
0000
0000
,
0000
0100
0000
0000
,
0000
0001
0000
0000
,
0000
1000
0000
0000
,
0000
0001
0000
0000
,
0000
0001
0000
0000
,
0000
0001
0000
0000
,
0000
0000
0000
0000
,
0000
1000
0000
0000
,
0000
0000
0000
0000
,
0000
0110
0000
0000
,
0000
0000
0000
0000
,
0000
0001
0000
0000
,
0000
0000
0000
0000
,
0000
0100
0000
0000
,
0000
0000
0000
0000
,
0000
0010
0000
0000
,
0000
0010
0000
0000
,
0000
0010
0000
0000
,
0000
0010
0000
0000
,
0000
1000
0000
0000
,
0000
1000
0000
0000
,
0000
1000
0000
0000
,
0000
2000
0000
0000
,
0000
0000
3000
0000
,
0000
0000
0000
0002
,
0000
0000
0000
0000
,
0003
0000
0000
2000
,
0000
0000
0000
0000
,
3000
0000
0000
0002
,
0000
0000
0000
0000
,
0003
0000
0000
0200
,
0000
0000
0000
0000
,
0300
0000
0000
0010
,
0000
0000
0000
0110
,
0000
0000
0000
0100
,
0000
0000
0000
0010
,
0000
0000
0000
1001
;

//---------------dance-single - ----------------
#NOTES:
     dance-single:
     :
     Easy:
     5:
     0.198015,0.298722,0.175351,0.158651,0.000000,166.000000,145.000000,21.000000,19.000000,0.000000,0.000000,0.198015,0.298722,0.175351,0.158651,0.000000,166.000000,145.000000,21.000000,19.000000,0.000000,0.000000:
0000
0000
0000
0000
,
0000
0000
0000
0000
,
0000
1000
0000
0010
,
0000
0100
0000
0001
,
0000
0010
0000
0100
,
0000
0010
0000
0100
,
0000
2000
0000
3001
,
0000
0010
0000
0001
,
0000
0100
0000
0010
,
0000
2000
0000
3001
,
0000
0200
0000
0000
,
0000
0310
0000
0000
,
0000
0100
0000
0000
,
0000
1000
0000
0001
,
0000
0100
0000
0000
,
0000
0010
0000
0100
,
0000
0100
0000
0010
,
0000
0110
0000
1001
,
0000
0110
0000
0000
,
0000
0100
0000
0000
,
0000
0010
0000
0010
,
0000
1000
0000
1000
,
0000
0001
0000
0001
,
0000
1000
0000
0100
,
0000
0110
0000
0010
,
0000
0001
0000
1000
,
0000
2200
0000
3300
,
0000
1000
0000
0100
,
0000
0001
0000
0100
,
0000
1000
0000
1000
,
0000
0001
0000
0001
,
0000
1000
0000
1100
,
0000
0100
0000
0010
,
0000
0011
0000
0001
,
0000
1000
0000
0100
,
0000
0001
0000
0100
,
0000
2000
0000
3000
,
0000
0001
0000
0101
,
0000
1000
0000
1010
,
0000
0100
0000
0001
,
0000
0001
0000
0001
,
0000
0100
0100
0100
,
0000
0001
0000
1000
,
0000
0010
0010
0010
,
0000
0100
0000
0001
,
0000
2000
0000
3000
,
0000
0001
0000
0100
,
0000
0002
0000
0003
,
0000
1000
0000
0000
,
0000
0110
0000
0000
,
0000
0011
0000
0000
,
0000
0101
0000
0100
,
0000
0001
0000
0001
,
0000
1000
0000
1000
,
0000
0100
0000
0100
,
0000
0010
0000
0010
,
0000
0001
0000
0001
,
0000
0011
0000
0001
,
0000
1100
0000
1000
,
0000
0011
0000
0001
,
0000
1100
0000
0011
,
0000
1001
0000
1000
,
0000
0002
0000
0003
,
0000
1000
0000
0100
,
0000
2000
0000
3001
,
0000
0100
0000
0001
,
0100
0001
0000
2000
,
0000
3200
0000
1300
,
0001
1000
0000
0002
,
0000
0203
0000
0301
,
1000
0001
0000
0200
,
0000
0320
0000
0130
,
0010
0100
0000
0001
,
1000
0010
0000
1000
,
0100
1000
0000
0010
,
0000
0100
0000
0120
,
0000
0000
0000
0130
,
0000
1001
0000
2002
,
0000
0000
0000
0000
,
0000
0000
3003
0000
;

//---------------dance-single - ----------------
#NOTES:
     dance-single:
     :
     Medium:
     10:
     0.410345,0.597445,0.526052,0.384102,0.000000,344.000000,281.000000,63.000000,46.000000,0.000000,0.000000,0.410345,0.597445,0.526052,0.384102,0.000000,344.000000,281.000000,63.000000,46.000000,0.000000,0.000000:
0000
0000
0000
0000
,
0000
0000
0000
0000
,
0000
0000
2000
0000
3000
0010
0010
0000
,
0100
0001
0200
0000
0301
0010
0010
0000
,
0100
0100
1000
0000
0001
0000
0101
0000
,
0010
2010
0000
3010
,
0100
0000
2001
0000
3000
0001
0001
0000
,
1000
0010
2000
0000
3001
0010
0001
0000
,
0100
0010
0100
0000
0010
1000
0010
0000
,
1000
0001
1000
0000
0001
0000
0100
0000
,
0010
0200
0000
0320
,
0030
0000
1010
0000
0000
0100
0000
0000
,
0000
0002
0000
0000
0000
0000
0003
0000
,
1000
0000
1000
0000
0001
0001
0000
0100
,
0000
0020
0000
0000
0030
0000
0100
0000
,
0000
0010
0100
0100
,
0001
0000
0201
0000
0000
0301
0001
0000
,
0000
0000
1010
0000
0000
1001
0000
0000
,
0011
0000
0000
1001
0000
0000
1100
0000
,
0000
2020
0000
0000
0000
0000
0000
0000
,
3030
0000
0020
0000
0030
0100
0020
0000
,
0030
1000
0001
1001
,
1000
0001
0100
0000
0001
0000
1010
0000
,
1001
0001
1000
0210
,
0300
0000
0010
0000
0001
0010
0001
0000
,
1000
1100
0100
1010
,
0100
0101
0010
1010
,
0001
0201
0000
0310
,
0000
2000
0000
3020
,
0030
1010
0100
0101
,
0001
0010
0001
0010
0001
0020
0000
0000
,
0030
0100
1100
0101
,
0010
0000
0100
0000
0010
0200
0000
0000
,
0300
0011
0101
1100
,
0001
0100
0001
0100
0001
0200
0000
0000
,
0300
0001
0001
0100
,
0100
1000
1000
0100
,
0001
1001
1001
0101
,
1001
0110
1001
1010
,
0110
0201
0000
0310
,
0110
0001
1000
0001
,
1000
0001
0100
0010
,
0100
0001
1000
0010
,
1000
0100
1000
0010
,
0100
0001
0010
1000
,
0010
0001
1000
0010
,
0100
0002
1000
0103
,
1000
0020
1000
0130
,
0001
0010
1100
0011
,
0000
0100
0000
0110
,
0000
0001
0000
1001
,
0000
0202
0303
0220
,
0330
2020
3030
0202
,
0303
1000
0000
2000
,
3000
0001
0000
0002
,
0003
0200
0000
0320
,
0030
1001
0001
0001
,
1000
0001
0100
0010
0100
0002
0000
0000
,
0003
1000
0100
1000
0000
0001
0100
0001
,
0000
0100
0020
0000
0030
0100
0001
0000
,
1000
0000
1100
0000
0100
0010
0100
0000
,
0010
0001
0010
0000
0001
0000
1000
0000
,
0001
0100
0010
0000
1000
0000
1010
0000
,
0010
2002
0000
3003
,
0000
0200
0001
0310
,
1000
1000
0000
1001
,
0001
0000
0101
0000
0001
1000
0001
0010
,
0001
2000
0000
0000
3000
0000
1001
0000
,
0100
0101
0001
1010
,
1000
0020
0000
0000
0030
0000
0110
0000
,
1000
0000
0110
0000
0010
0100
0010
0100
,
0001
0200
0000
0000
0300
0000
0001
0000
,
0010
0010
0100
1000
,
0010
0010
1000
1100
,
0110
0011
1001
1100
,
0110
0101
0001
0200
,
0000
0010
0310
0001
,
1000
0001
1000
0000
0001
0100
0020
0000
,
0000
0000
0000
0000
,
0000
0000
0030
0000
;

//---------------dance-single - ----------------
#NOTES:
     dance-single:
     :
     Challenge:
     14:
     0.652495,0.730210,0.158651,0.217101,0.463427,547.000000,528.000000,19.000000,26.000000,0.000000,0.000000,0.652495,0.730210,0.158651,0.217101,0.463427,547.000000,528.000000,19.000000,26.000000,0.000000,0.000000:
0000
0000
0000
0000
,
0000
0000
0000
0000
,
0000
0000
0000
0000
1000
0000
0000
0000
0001
0000
0100
0000
0001
0000
1000
0100
,
1000
0000
0001
0000
0200
0000
0000
0000
0301
0000
0010
0001
0010
0000
0001
0000
,
1000
0100
1000
0000
0020
0000
0000
0000
0130
0000
0001
0100
0001
0000
1000
0010
,
1000
0000
0001
0000
0020
0000
0000
0000
0031
0000
0100
0001
0010
0000
0001
0000
,
0100
0000
0010
0000
0200
0000
0000
0000
0301
0000
0100
0001
0100
0000
0010
0000
,
1000
0000
0100
0000
0020
0000
0000
0000
0031
0000
0100
0010
0100
0000
0001
0000
,
0100
0000
0001
0000
1000
0000
0001
0100
0001
0000
0010
0001
0010
0000
0000
0000
,
0001
0000
0000
0000
2000
0000
0000
0000
0000
0000
0000
0000
3010
0100
0010
0100
,
0010
0000
0100
0000
0010
0000
0100
0001
0100
0000
0001
0100
0001
0000
0100
0000
,
0010
1000
1001
0000
0000
0001
0000
1000
,
0000
0010
0100
0001
0000
1000
0100
0010
,
0001
0000
1000
0000
0010
0100
0000
0100
,
0000
0020
0000
0000
0030
0100
0100
0000
,
0000
0000
0000
0000
0010
0000
0000
0000
1001
0000
0000
0000
0100
0000
0000
0010
,
0000
0100
0020
0000
0030
0100
0001
0000
,
0010
0000
0100
1000
1000
0010
0100
0001
,
0100
0010
1000
1000
0010
0100
0001
0010
,
0100
0000
0020
0000
0000
0000
0030
0000
0000
0000
0001
1000
0001
1000
0000
0001
,
0000
1000
0010
0000
0110
0000
0000
0000
0001
0000
1000
0000
0020
0000
0000
0000
,
0030
0000
0100
0010
0100
0010
1000
0000
,
0001
0010
0101
0000
0001
0010
0100
0000
,
1000
0100
0010
0000
0001
0010
0101
0000
,
0010
0100
1000
0000
0010
0100
0001
0101
,
0000
0000
0000
0000
1000
0000
0010
0100
0000
0000
0010
0000
0200
0000
0000
0000
,
0310
0000
0101
0000
0010
0000
1000
0100
,
1000
0000
0000
0000
0001
0000
0000
0100
0010
0000
1000
0000
0010
0000
0000
0100
,
0010
0000
1000
0000
0001
0000
0000
0000
0010
0000
0001
0000
0010
0000
0001
1000
,
0001
1000
0001
1000
0001
0000
0000
0000
1000
0000
0000
0000
0010
0000
0000
0000
,
0100
0001
0100
0010
0100
0001
2000
3000
,
0001
0010
0001
0010
0001
0000
0000
0000
1000
0000
0010
0000
0100
0000
0000
0000
,
0001
0010
1000
0010
0001
0200
0000
0300
,
0010
0100
0010
1000
0010
0000
0000
0000
1000
0000
0000
0000
0100
0000
0000
0000
,
0001
0100
0010
0001
0010
0002
0000
0003
,
1000
0110
0001
1000
,
0010
0000
0100
0000
0001
0000
0000
0000
1000
0000
0000
0000
0010
0100
0001
0100
,
0001
2000
3020
0230
,
0302
0000
1003
0000
1100
0000
0001
0100
,
0101
0000
0001
0000
1000
0000
0000
1000
0000
0000
1000
0000
0001
0000
0000
0000
,
0100
0000
0000
0000
0001
0000
1000
0010
1000
0000
0000
0000
0001
0000
0100
0010
,
1000
0000
0000
0000
0001
0100
0001
0100
0010
0000
1000
0000
0001
0000
0000
0000
,
1000
0000
0010
0000
0200
0000
0000
0000
0301
0010
0001
0010
0001
0000
0000
0000
,
1000
0000
0010
0000
1000
0100
1000
0100
0010
0001
0010
0001
0010
0000
0000
0000
,
0001
0000
0000
0000
0100
0000
0010
0100
0010
0000
0100
0000
0010
0100
0010
0100
,
0010
0000
0000
0000
1000
0100
1000
0100
1000
0100
1000
0100
2000
0000
0000
0000
,
3000
0000
0000
0000
0001
0010
0001
0010
0001
0000
0010
0001
0010
0001
0010
0000
,
0001
0000
0000
1000
0010
0100
0001
1000
0000
0001
0100
0010
,
1000
0010
0000
1000
0000
0010
0100
0010
0000
0110
0000
0000
,
0000
0001
0000
0001
0000
0100
0010
1000
0000
1001
0000
0000
,
0000
0001
0000
0101
0000
0010
0100
1000
0000
0100
0000
0000
,
0000
0010
0000
0011
0000
0001
0100
0010
0000
1000
0100
0010
,
0001
0000
0000
1001
0000
0001
0100
0010
0100
0001
0000
0000
,
0000
1000
0000
0100
0000
0010
0001
0010
0001
0100
0000
0010
,
0000
1000
0000
0001
0000
0100
0001
0100
0010
0100
0000
0000
,
0000
0000
0000
0000
0010
0000
0000
0000
0000
0000
0000
0000
1000
0000
0000
0000
0010
0000
0000
0000
1000
0000
0000
0000
0001
0000
0000
0000
1000
0000
0000
0000
0000
0000
0000
0000
0001
0000
0000
0100
0000
0000
0001
0000
0000
0100
0000
0000
,
0010
1000
0010
1000
0100
0000
0000
0000
0010
0000
0001
0000
0000
0000
1000
0000
,
0010
0100
0010
0010
0100
0002
0000
0003
,
0000
1000
0010
0100
0000
0001
0010
0100
,
0000
0000
1000
0000
0010
0000
0100
0010
0100
0000
0001
0000
0011
0000
0000
0000
,
0000
0000
0001
0000
0100
0010
1000
1000
,
0000
0000
0001
0000
0001
0000
0000
0100
0000
0000
0010
0000
0110
0000
0000
0000
,
0001
1000
0001
0000
0100
0001
0100
0010
,
1000
0000
0000
0000
0001
0000
0000
1000
0001
0000
0100
0000
0010
0000
0000
1000
,
0010
0000
0100
0000
0002
0000
0000
0000
0103
0000
0010
0000
0100
0010
0100
0010
,
1000
0010
1000
0010
0100
0000
0000
0000
0000
0000
0000
0000
0010
0000
0000
0000
,
1000
0001
0100
0000
0010
1000
0010
0100
,
0010
0000
0200
0000
0000
0000
0300
0000
0001
0000
0100
0001
0100
0000
0000
0000
,
0010
1000
0001
0000
1000
0100
0010
0001
,
1000
0000
0200
0000
0000
0000
0300
0000
0010
0000
0001
0010
0001
0000
0000
0000
,
1000
0000
0010
0000
0100
0001
0100
0010
,
0100
0002
0000
0003
1000
0000
0110
0000
,
0001
0000
0000
0000
1000
0000
0000
0000
0010
0000
0000
0000
0100
0000
0000
0010
,
0100
0001
0001
1000
0010
0100
0001
0000
,
0110
0000
0000
0000
0100
0000
0010
0000
0100
0010
0100
0000
0001
0000
1000
0000
,
0001
0000
1000
0010
1000
0000
0010
0000
0010
0000
0100
0001
0100
0000
0010
0000
,
0100
0000
0001
1000
0010
0000
1000
0000
0100
0000
0000
0000
0010
0001
0010
0000
,
0001
0000
1000
0100
1000
0000
0000
0000
0001
0100
0010
0100
0020
0000
0000
0000
,
0000
0000
0000
0000
,
0000
0000
0030
0000
;

//---------------dance-single - ----------------
#NOTES:
     dance-single:
     :
     Hard:
     11:
     0.427045,0.464679,0.141951,0.283901,0.154476,358.000000,341.000000,17.000000,34.000000,0.000000,0.000000,0.427045,0.464679,0.141951,0.283901,0.154476,358.000000,341.000000,17.000000,34.000000,0.000000,0.000000:
// measure 0
0000
0000
0000
0000
,  // measure 1
0000
0000
0000
0000
,  // measure 2
0000
0000
0000
0000
2000
0000
0000
0000
3000
0000
0010
0000
0010
0000
0000
0100
,  // measure 3
0000
0000
0001
0000
0100
0000
0000
0001
0000
0000
0100
0000
0010
0000
0000
1000
,  // measure 4
0000
0010
2000
0000
3000
0000
0101
0000
,  // measure 5
0001
0010
0200
0000
0300
0000
1000
0000
,  // measure 6
0100
0000
1000
0000
0002
0000
0000
0000
0003
0000
1000
0000
0001
0000
0000
1000
,  // measure 7
0000
0000
0010
0000
1000
0000
0000
0001
0000
0000
0100
0000
0001
0000
0000
0100
,  // measure 8
0000
0000
0010
0000
0100
0000
0000
0010
0000
0000
1000
0000
0010
0000
0000
0100
,  // measure 9
0000
0000
0001
0000
0100
0000
0000
0100
0000
0000
0010
0000
0100
0000
0000
0000
,  // measure 10
0010
0000
0100
0010
0100
0000
0010
0100
,  // measure 11
0010
0000
1010
0000
0000
0100
0000
0100
,  // measure 12
0000
0002
0000
0000
0000
0000
0003
0000
,  // measure 13
1000
0000
1000
0000
0001
0100
0000
0100
,  // measure 14
0000
0020
0000
0000
0030
0000
0100
0000
,  // measure 15
0000
0000
0000
0000
0010
0000
0000
0000
0100
0000
0000
0000
0100
0000
0000
0001
,  // measure 16
0000
0001
0200
0000
0000
0310
0010
0000
,  // measure 17
0000
0000
1000
0010
1000
0001
0000
0100
,  // measure 18
0001
0100
0010
1000
0000
0010
1000
0000
,  // measure 19
0020
2000
0000
0000
0030
0000
0010
0000
,  // measure 20
3000
0000
0000
0000
0020
0000
0000
0000
0030
0000
0100
0000
0010
0000
1000
0001
,  // measure 21
0000
0001
1000
0000
0010
0000
0100
0000
,  // measure 22
0001
0100
0010
0000
1000
0010
0100
0000
,  // measure 23
0001
0010
0001
0000
1000
0000
0100
0010
,  // measure 24
0100
0010
0001
0000
1000
0001
1000
0000
,  // measure 25
0010
1100
0100
0002
,  // measure 26
0103
0000
0101
0000
0010
0000
1000
0100
,  // measure 27
0010
0000
0000
0000
0001
0000
0000
1000
0000
0000
0010
0000
1000
0000
0000
0001
,  // measure 28
0000
1000
0002
0000
0103
0000
0020
0000
,  // measure 29
0000
0030
1000
0000
0100
0000
0010
0000
,  // measure 30
0001
0010
0001
0010
0100
2000
0000
3000
,  // measure 31
0000
0100
0010
0001
,  // measure 32
1000
0010
0100
0001
1000
0002
0000
0003
,  // measure 33
0000
0011
1000
0010
,  // measure 34
0100
0001
0100
0010
0100
0020
0000
0030
,  // measure 35
0100
0000
0010
0000
1000
0010
0100
0000
,  // measure 36
0100
0002
0003
1000
,  // measure 37
0001
0000
1000
0100
0010
0000
0011
0000
,  // measure 38
1001
0200
0320
2030
,  // measure 39
3010
0000
0100
0000
0010
0000
0000
0100
0000
0000
0010
0000
0100
0000
0000
0000
,  // measure 40
0110
0000
0000
0000
0001
0000
0000
1000
0000
0000
0001
0000
1000
0000
0000
0000
,  // measure 41
0000
0000
0000
0000
0001
0000
0000
0100
0000
0000
0010
0000
1000
0000
0000
0000
,  // measure 42
0000
0000
0000
0000
0100
0000
0000
0010
0000
0000
0001
0000
1000
0000
0000
0000
,  // measure 43
0000
0000
0000
0000
0010
0000
0000
1000
0000
0000
1000
0000
0010
0000
0000
0000
,  // measure 44
0100
0000
0000
0000
0001
0000
0000
1000
0001
0000
1000
0000
0001
0000
0000
0000
,  // measure 45
0100
0000
0000
0000
0001
0000
0000
1000
0010
0000
1000
0000
0010
0000
0000
0000
,  // measure 46
0100
0000
0000
0000
0010
0000
0000
0100
0010
0000
0100
0000
0001
0000
0000
0000
,  // measure 47
1000
0020
0000
0230
,  // measure 48
0301
0010
0001
0011
,  // measure 49
0000
0100
0010
0110
,  // measure 50
0000
0001
0100
1001
,  // measure 51
0000
1000
0000
0020
,  // measure 52
0030
0000
0000
1000
0000
0010
0000
0100
0000
0010
0000
0000
,  // measure 53
0000
0100
0000
0001
0000
0100
0000
0010
0000
2000
0000
0000
,  // measure 54
3000
0000
0000
0001
0000
0010
0000
0100
0000
1000
0000
0000
,  // measure 55
0000
0001
0000
0010
0000
0001
0000
0010
0000
0002
0000
0000
,  // measure 56
0000
0000
1003
0000
0010
0100
0000
0010
,  // measure 57
1000
0001
0000
1000
0100
0010
0000
0000
,  // measure 58
0000
0001
0100
0010
0000
0100
0010
0010
,  // measure 59
0000
0000
0100
0000
0010
0000
0000
0100
0000
0000
0010
0000
0200
0000
0000
0000
,  // measure 60
0300
0000
0001
0100
0010
0000
0100
0010
,  // measure 61
0000
0110
0000
1001
,  // measure 62
0001
1000
0001
0000
1000
0000
0010
1000
,  // measure 63
0010
2002
0000
3003
,  // measure 64
0001
0210
0000
0320
,  // measure 65
0000
0000
0000
0000
0030
0000
0000
0000
0000
0000
0000
0000
1000
0000
0000
0001
,  // measure 66
0000
0000
0000
0000
0100
0000
0000
0001
0000
0000
0000
0000
1000
0000
0010
0000
,  // measure 67
0100
0000
0002
0000
0000
0000
0000
0000
0003
0000
0000
0000
1000
0000
0000
0010
,  // measure 68
0000
0000
0000
0000
0100
0000
0000
0010
0000
0000
0000
0000
1000
0000
0100
0000
,  // measure 69
0010
0002
0000
0000
0003
0000
0100
0000
,  // measure 70
0010
0100
0010
0000
1000
0100
1000
0100
,  // measure 71
0010
0001
0000
0000
1000
0000
0100
0000
,  // measure 72
0010
0001
0101
2000
,  // measure 73
0000
0000
3000
0000
0010
0100
0010
0000
,  // measure 74
0100
0001
0100
0000
1001
0000
1000
0100
,  // measure 75
0010
0000
0000
0000
0001
0000
1000
0001
0000
0000
1000
0000
0100
0000
0000
0000
,  // measure 76
0010
0001
1000
0000
0010
0000
0100
0010
,  // measure 77
1000
0010
0100
0000
0001
0100
0002
0000
,  // measure 78
0000
0000
0000
0000
,  // measure 79
0000
0000
0003
0000
;
