#TITLE:Sakurairo no Melody;
#SUBTITLE:;
#ARTIST:penoreri feat.ayu;
#TITLETRANSLIT:;
#SUBTITLETRANSLIT:;
#ARTISTTRANSLIT:;
#GENRE:;
#CREDIT:;
#MUSIC:Sakurairo_no_Melody.ogg;
#BANNER:Ec_Sakurairo_no_Melody (2).png;
#BACKGROUND:;
#CDTITLE:;
#SAMPLESTART:77.901;
#SAMPLELENGTH:17.000;
#SELECTABLE:YES;
#OFFSET:-0.096;
#BPMS:0.000=122.262
,33.625=200.000
;
#STOPS:;
#BGCHANGES:;
#FGCHANGES:;

//--------------- dance-single - ----------------
#NOTES:
     dance-single:
     :
     Beginner:
     4:
     0.139914,0.184693,0.042215,0.059102,0,116,111,5,7,0,0,0.139914,0.184693,0.042215,0.059102,0,116,111,5,7,0,0:
0000
0000
0000
0000
,
0000
0000
0000
0000
,
0000
0000
0000
2000
,
0000
0000
3000
0002
,
0000
0000
0003
0000
,
0000
0000
0000
0000
,
0000
0200
0000
0300
,
0000
0000
0000
0000
,
0000
0000
0000
0000
,
0000
0000
0000
0100
,
0000
0010
0000
1000
,
0000
0001
0000
1000
,
0000
0001
0000
0000
,
0000
0000
1000
0000
,
0100
0000
0010
0000
,
0001
0000
1000
0000
,
0001
0000
1000
0000
,
0000
0000
0000
0000
,
0000
0000
0001
0000
,
0100
0000
0010
0000
,
0000
0000
1000
0000
,
0001
0000
0100
0000
,
0000
0000
0001
0000
,
0001
0000
0001
0000
,
0000
0000
1000
0000
,
1000
0000
1000
0000
,
0000
0000
0010
0000
,
0100
0000
0010
0000
,
0100
0000
0010
0000
,
0000
0000
0000
0000
,
0000
0000
0110
0000
,
0010
0000
0010
0000
,
0000
0000
1000
0000
,
0001
0000
1000
0000
,
0000
0000
0001
0000
,
0100
0000
0001
0000
,
0100
0000
0001
0000
,
0000
0000
1000
0000
,
0000
0000
1001
0000
,
0000
0000
0110
0000
,
0000
0000
0001
0000
,
0000
0000
1000
0000
,
0000
0000
0010
0000
,
0010
0000
0100
0000
,
0100
0000
0001
0000
,
1000
0000
0001
0000
,
0000
0000
0100
0000
,
0100
0000
0100
0000
,
0010
0000
1000
0000
,
0000
0000
0001
0000
,
0000
0000
0000
1000
,
0000
0000
0000
0001
,
0000
0000
2000
0000
,
0000
0000
3000
0000
,
0001
0000
0001
0000
,
0000
0000
1000
0000
,
1000
0000
0010
0000
,
0000
0000
0000
0000
,
0100
0000
0200
0000
,
0300
0000
0010
0000
,
1000
0000
0010
0000
,
0000
0000
0010
0000
,
1000
0000
0001
0000
,
0000
0000
0010
0000
,
1000
0000
0010
0000
,
0000
0000
0100
0000
,
0200
0000
0000
0300
,
0000
0000
0010
0000
,
0100
0000
0001
0000
,
0000
0000
1000
0000
,
0001
0000
1000
0000
,
0000
0000
0001
0000
,
0000
0000
0100
0000
,
0000
0000
0110
0000
,
0000
0000
0010
0000
,
0100
0000
0010
0000
,
1000
0000
0001
0000
,
0000
0000
1001
0000
,
1000
0000
0001
0000
,
0000
0000
1000
0000
,
0001
0000
1000
0000
,
0000
0000
0010
0000
,
0010
0000
0100
0000
,
0000
0000
0100
0000
,
0001
0000
0100
0000
,
0001
0000
0200
0000
,
0000
0000
0000
0000
,
0000
0000
0300
0000
;

//--------------- dance-single - ----------------
#NOTES:
     dance-single:
     :
     Easy:
     6:
     0.226757,0.295508,0.025329,0.135089,0.012665,188,185,3,16,0,0,0.226757,0.295508,0.025329,0.135089,0.012665,188,185,3,16,0,0:
0000
0000
0000
0100
,
0000
0010
0000
1000
,
0000
0001
0000
1000
,
0000
0000
0000
0000
0000
0000
0000
0010
0000
0000
0000
0000
0000
0000
0000
0000
0000
0000
0000
0000
0000
0000
0000
0000
0000
0000
0000
0000
0000
0000
0000
0000
0000
0200
0000
0000
0000
0000
0000
0000
0000
0000
0000
0000
0000
0000
0000
0000
,
0000
0000
0000
0000
,
0000
0300
0000
0000
0000
0000
0000
0000
0000
0000
0000
0000
0001
0000
0000
0000
,
0000
1000
0000
0010
,
0000
0000
0200
0000
0000
0000
0000
0000
0000
0000
0000
0000
0300
0002
0000
0000
,
0000
0000
1003
0000
,
0100
0000
0000
0100
0000
0000
0000
0000
,
0010
0000
0000
0200
0000
0000
0300
0000
,
0001
0000
1000
0000
,
0010
0000
0000
0200
0000
0000
0300
0020
,
0000
0030
1010
0000
,
0100
0000
0000
0001
0000
0000
0000
0000
,
1000
0000
0010
0100
,
0010
0000
0000
0200
0000
0000
0000
0302
,
0000
0000
0003
0000
,
0000
0000
0100
0000
,
0010
0000
1000
0000
,
0001
0000
0100
0010
,
1000
0000
0001
0000
,
1000
0000
0010
0000
,
0000
0000
0100
0000
,
0010
0000
1000
0000
,
0001
0000
0010
0000
,
0000
0000
0100
0000
,
0000
1000
0000
0000
,
0100
0000
0010
0000
,
0001
1000
0001
0000
,
0000
1000
1000
0000
,
0001
0000
0100
0001
,
0100
0000
0010
0000
,
1000
0000
0001
0100
,
0001
0000
1000
0000
,
0100
0000
0010
0001
,
0010
0000
0100
0000
,
1000
0000
0001
0100
,
0001
0100
0001
0000
,
1000
0000
1000
0100
,
1000
0010
1000
0000
,
0100
0000
0110
0000
,
0001
0000
1000
0001
,
0001
0000
1000
0000
,
0100
0000
0010
0000
,
0001
0000
1000
0000
,
0010
0000
0200
0000
,
0310
0000
0000
0010
0000
0000
0000
0000
,
1000
0000
0001
0000
,
0100
0000
0000
0010
0000
0000
0000
0000
,
1000
0000
0001
0000
,
0000
0100
0000
0010
,
0010
1000
0000
0010
,
0010
0100
0000
0000
,
0001
0000
1000
0000
,
0010
0000
0100
0000
,
0002
0000
1003
0000
,
0100
0000
0000
0010
0000
0000
0000
0000
,
0001
0000
1000
0001
,
1000
0000
0010
0100
,
0010
0000
1000
0000
,
0001
0100
0010
0000
,
1000
0000
0001
0000
,
0100
0010
0100
0001
,
1000
0000
0000
0001
0000
0000
0000
0000
,
1000
0100
0010
0001
,
0000
0000
0000
0001
0000
0000
0000
0000
,
1000
0001
1000
0000
,
0001
0000
0100
0000
,
0010
0010
1000
0000
,
0010
0000
0000
0100
0000
0000
0000
0000
,
0001
1000
0001
0000
,
1000
0000
0010
0000
,
0100
0000
0001
0000
,
0100
0000
0001
0001
,
0000
0000
1000
0100
,
1000
0000
0000
0002
0000
0000
0003
0000
,
0100
0000
0020
0000
,
0030
0000
0000
0200
0000
0000
0000
0000
,
0300
0000
1001
0000
,
0001
0000
0000
1000
0000
0000
0000
0001
,
0000
0000
1000
0100
,
1000
0000
0001
0010
,
0001
0010
0001
0000
,
0100
0000
0000
0020
0000
0000
0000
0230
,
0000
0000
0000
0300
0002
0000
0000
0000
,
0000
0000
0000
0000
,
0000
0000
0003
0000
;

//--------------- dance-single - ----------------
#NOTES:
     dance-single:
     :
     Medium:
     9:
     0.335311,0.369385,0.10976,0.236407,0.033772,278,265,13,28,0,0,0.335311,0.369385,0.10976,0.236407,0.033772,278,265,13,28,0,0:
0000
0000
0000
0000
0000
0000
0000
0000
0000
0000
0000
0000
0000
0000
0000
0000
0000
0000
0000
0000
0000
0000
0000
0220
0000
0000
0000
0000
0000
0000
0000
0000
,
0000
0330
0000
0100
,
0010
1000
0001
1000
,
0001
0000
0000
0000
0010
0000
0000
0000
0000
0000
0000
0000
0000
0002
0000
0000
0000
0000
0000
0000
0000
0000
0023
0000
0000
0000
0000
0000
0000
0000
0000
0000
,
0000
0000
0000
0000
,
0030
0001
0000
0000
0000
0000
0000
0000
0000
0000
0000
0000
0000
0000
0000
0000
0000
0000
0000
0000
0000
0000
0000
0100
0000
0000
0000
0000
0000
0000
0000
0000
,
0010
0000
0000
0000
0000
0000
0000
0000
0200
0000
0000
0000
0000
0000
0000
0000
0000
0300
0000
0000
0010
0000
0000
0000
1000
0000
0000
0000
0000
0000
0000
0000
,
0000
0000
0000
0000
0002
0000
0000
0000
0000
0000
0000
0000
0000
0000
0000
0000
0000
0000
0000
0000
0003
0100
0000
0000
0000
0000
0020
0000
0000
0000
0000
0000
,
0000
0000
0000
0000
0000
0000
0000
0000
0000
0100
0000
0000
0000
0000
0000
0000
0130
0000
0000
0000
0000
0000
0000
0000
0010
0000
0000
0000
0000
0000
0000
0000
,
1000
0000
0001
0100
0000
0000
0010
0000
,
1000
0000
0000
0001
0000
0000
1000
0000
,
0001
0100
0110
0010
,
0100
0000
0000
0020
0000
0030
0000
0200
,
0000
0300
0000
0000
1010
0000
0100
0000
,
0001
0000
0000
0001
0000
0000
1000
0000
,
0100
0000
0010
0000
0002
0000
0103
0010
,
0000
0100
0000
0020
0000
0000
0000
2000
,
0030
0000
0000
3000
0000
0001
0000
0001
,
0000
0100
0000
0000
0000
0000
0010
0000
,
0100
0001
1000
0100
,
0001
0000
0100
1000
,
0100
0000
0001
0100
,
1000
0100
0010
0000
,
0010
0001
0100
0010
,
1000
0010
1000
0000
,
0010
0001
0010
0001
,
0010
0000
1000
0000
0001
0000
0000
0100
,
0000
0001
0000
1000
,
0100
0100
0010
0000
,
0001
0000
1000
0002
0000
0000
1003
0000
,
0010
0100
0000
0001
,
0001
0000
0000
0100
0000
0000
0001
0000
,
0100
0000
0010
0000
1000
0000
0001
0200
,
0000
0300
0001
0100
,
0010
1000
1100
0000
,
0100
0010
0001
0000
,
0001
0010
0100
0000
,
1000
0001
0100
0010
,
0001
0000
0010
0000
0100
0000
0000
0001
,
0000
0000
0000
1000
0000
0000
0000
0010
,
0000
0000
0100
0000
,
0100
0000
0010
0100
0010
0000
1000
0000
,
0001
1000
0001
0000
,
0001
0000
0000
1000
0000
0000
0010
0000
,
0100
0000
0000
0000
0001
0000
0000
1000
,
0000
0001
0000
1000
0000
0000
0000
0000
,
0010
0000
0100
0000
0001
0000
1000
0010
,
1000
0000
0000
0110
0000
0000
0010
0000
,
1000
0000
0012
0000
,
0103
0000
0000
0010
0000
0000
0010
0000
,
1000
0001
0000
1001
,
0001
0000
0100
0001
0000
0000
0010
0000
,
0001
0000
1000
0000
0010
0000
0100
0010
,
0000
0100
0000
0010
0000
0100
0000
0000
,
0002
0003
1000
0000
,
0010
0100
0002
0003
,
2000
0000
3000
0000
0010
0000
0100
0010
,
0000
1000
0000
0020
0000
0000
0030
0000
,
0100
0101
0101
0000
,
1000
0010
1000
0100
,
0010
0000
0000
0001
0000
1000
0000
0000
,
0001
0100
0110
0000
,
1001
0000
0000
0001
0000
0000
1000
0000
,
0010
0100
0001
0000
,
1000
0000
0000
0001
0000
0001
0000
0000
,
1000
0000
1000
0000
0001
0000
0000
0001
,
0000
0100
0000
0010
0000
0000
0000
0000
,
1000
0100
0010
0000
,
0001
0000
0000
0100
0000
0010
0000
0000
,
1000
0000
0010
0000
1000
0000
0001
0100
,
0001
0000
0000
0200
0000
0000
0300
0000
,
0010
0100
1001
0000
,
1000
0001
0010
0100
,
1000
0100
0010
0001
,
0100
0000
0000
0001
0000
1000
0000
0000
,
0001
1000
0100
0100
,
1000
0000
0000
2001
0000
0000
0000
0000
,
3001
0000
0200
0000
,
0310
0000
0000
0020
0000
0000
0000
0000
,
1030
0000
0001
0000
1000
0000
0001
0100
,
0001
0000
0000
2000
0000
0000
3000
0020
,
0000
0030
1000
0100
,
0100
1000
0001
0010
,
0010
0000
0001
0000
1000
0000
0000
0100
,
0000
0010
0000
0002
0000
0000
0003
2000
,
0000
0000
0000
3000
0002
0000
0000
0000
,
0000
0000
0000
0000
,
0000
0000
0003
0000
;

//--------------- dance-single - ----------------
#NOTES:
     dance-single:
     :
     Hard:
     11:
     0.426979,0.480201,0.143533,0.329281,0.033772,354,337,17,39,0,0,0.426979,0.480201,0.143533,0.329281,0.033772,354,337,17,39,0,0:
0000
0000
0000
0000
0000
0000
0000
0000
0000
0000
0000
0000
0000
0000
0000
0000
0000
0000
0000
0000
0000
0000
0000
0220
0000
0000
0000
0000
0000
0000
0000
0000
,
0000
0330
0000
0100
,
0010
1000
0001
1000
,
0001
0000
0000
0000
0010
0000
0000
0000
0000
0000
0000
0000
0000
0002
0000
0000
0000
0000
0000
0000
0000
0000
0023
0000
0000
0000
0000
0000
0000
0000
0000
0000
,
0000
0000
0000
0000
,
0030
0001
0000
0000
0000
0000
0000
0000
0000
0000
0000
0000
0000
0000
0000
0000
0000
0000
0000
0000
0000
0000
0000
0100
0000
0000
0000
0000
0000
0000
0000
0000
,
0010
0000
0000
0000
0000
0000
0000
0000
0200
0000
0000
0000
0000
0000
0000
0000
0000
0300
0000
0000
0010
0000
0000
0000
1000
0000
0000
0000
0000
0000
0000
0000
,
0000
0000
0000
0000
0002
0000
0000
0000
0000
0000
0000
0000
0000
0000
0000
0000
0000
0000
0000
0000
0003
0100
0000
0000
0000
0000
0020
0000
0000
0000
0000
0000
,
0000
0000
0000
0000
0000
0000
0000
0000
0000
0100
0000
0000
0000
0000
0000
0000
0130
0000
0000
0000
0001
0000
0000
0000
0010
0000
0000
0000
0100
0000
0000
0000
,
1000
0000
0001
0100
0000
0010
1000
0000
,
1000
0001
0000
0001
0000
0100
1000
0000
,
0001
0000
0010
0000
1000
0000
0010
0100
,
0000
0010
0000
0100
0000
0001
0000
1000
,
0002
0000
0003
0001
2000
0000
3010
0000
,
0100
0001
0000
0002
0000
0000
1003
0000
,
0100
0010
0001
0000
1000
0000
0100
0010
,
0000
0100
0010
0002
0000
0000
0000
1003
,
2000
0000
0000
0000
3000
0001
0000
0100
,
0000
0010
0000
0100
0010
0000
0010
0000
,
1000
0000
0001
1000
0000
0000
0001
1000
,
0000
0010
0000
0010
0100
0000
0001
0010
,
0000
0010
0001
0000
1000
0000
0010
0000
,
0100
0000
0001
0000
1000
0000
1000
0100
,
0000
0000
0100
1000
0000
0000
0001
0000
,
0010
0000
0100
0010
0000
0100
0020
0000
,
0030
0100
1000
0001
,
0001
0000
1000
0000
0100
1000
0100
1000
,
0000
0010
0100
0000
0000
0000
0000
0000
,
0001
1000
0002
0000
,
0103
0000
0010
0200
0000
0300
0001
0000
,
1000
0010
0110
0001
,
0100
0000
0010
1000
0000
0000
0100
0010
,
0000
0001
0000
1000
0001
0000
0001
2000
,
0000
3010
0100
0001
,
0010
0100
2000
0000
,
3010
0100
0010
0100
0000
0001
1000
0000
,
0001
0000
0100
0001
0000
1000
0010
0000
,
0100
0110
1000
1001
,
1001
0000
0001
0000
0011
0000
0000
0001
,
0010
0000
0000
0100
1000
0000
0000
0100
,
0010
0000
0000
0010
0002
0000
1000
0000
,
1003
0000
0010
0100
0000
0000
0010
0000
,
1000
0001
0000
1000
,
0010
0000
0100
0010
0000
0010
1000
0000
,
0000
0001
0010
0001
0010
0000
0001
1000
,
0000
1000
0000
0100
0000
0010
0100
0000
,
1000
0001
1001
0100
,
0010
0000
1000
0002
0000
0000
0103
0000
,
0010
1000
0001
0010
,
0001
0000
0100
0010
0000
0010
1000
0000
,
0001
0010
0000
0011
,
0011
0000
0001
0010
0000
0001
0010
0000
,
0000
0001
1000
0001
0100
0000
0010
1000
,
0000
1001
0000
0001
0000
0100
0010
0000
,
0100
0010
1000
1001
,
0001
0110
0010
1000
,
2000
0000
0001
0000
3001
0000
0100
0010
,
0000
1000
0001
2000
0000
0000
0000
0000
,
3002
0103
0201
0000
,
0310
0000
1000
0000
0001
0000
0000
1000
,
0020
0000
0030
0100
0020
0000
0030
0000
,
1000
0000
0001
0000
2000
0000
3000
0001
,
0200
0000
0300
0010
0200
0000
0300
0000
,
0001
0000
0010
0000
1100
0000
0000
0100
,
0010
0001
0000
0002
0000
0000
1003
0000
,
0100
0000
1000
0010
1000
0000
0001
0001
,
0000
1000
0000
0100
0000
0010
0001
0000
,
1000
0000
0010
0000
1010
0000
0000
0100
,
0002
0000
0003
1000
0020
0000
0030
0000
,
0100
0000
0001
0000
1000
0000
0010
0100
,
0000
0010
0100
0020
0000
0000
0030
0000
,
0100
0000
0010
0000
1001
0000
0000
0001
,
1000
0000
0000
0001
0100
0000
0000
0001
,
0010
0000
0000
0100
1000
0000
0000
0000
,
0001
0000
0000
1000
0100
0000
0000
0000
,
0010
0001
0002
0000
,
1003
0000
0000
0200
0000
0000
0300
0000
,
0020
0000
0000
0030
0001
0000
1000
0000
,
0001
0100
0000
0020
0000
0000
0030
0000
,
0000
0000
1000
0000
0001
0000
1000
0010
,
0000
0100
0000
0001
0000
1000
0000
0010
,
0100
0001
0011
0001
,
1000
0001
0000
2000
0000
0000
0010
0000
,
3010
0000
0100
0001
0100
0000
0010
0100
,
0000
0010
0000
1000
0000
0001
0000
1000
,
0002
0000
0003
1000
0002
0000
0000
0000
,
0000
0000
0000
0000
,
0000
0000
0003
0000
;

//--------------- dance-single - ----------------
#NOTES:
     dance-single:
     :
     Challenge:
     14:
     0.59946,0.701832,0.126646,0.202634,0.168862,497,482,15,24,0,0,0.59946,0.701832,0.126646,0.202634,0.168862,497,482,15,24,0,0:
0000
0000
0000
0000
0000
0000
0000
0000
0000
0000
0000
0000
0000
0000
0000
0000
0000
0000
0000
0000
0000
0000
0000
0220
0000
0000
0000
0000
0000
0000
0000
0000
,
0030
0010
0320
0000
0030
1000
1000
0000
,
0010
0000
1000
0001
0100
0001
1000
0000
,
0001
0000
0000
0000
0010
0000
0000
0000
0000
0000
0000
0000
0000
0200
0000
0000
0000
0000
0000
0000
0000
0000
2300
0000
0000
0000
0000
0000
0000
0000
0000
0000
,
3001
0000
0000
0000
0000
0000
0000
0000
0010
0000
0000
0000
0000
0001
0000
0000
0000
0000
0010
0000
0000
0000
0000
0100
0000
0000
0000
0000
0010
0000
0000
0000
,
0000
0000
0001
0000
0000
0000
0000
0000
0000
0000
0000
0000
0000
0000
0000
0000
0000
0000
0000
0000
0000
0000
0000
0100
0000
0000
0000
0000
0000
0000
0000
0000
,
0010
0000
1000
0010
1000
0001
0100
0000
,
0100
0000
0000
0000
0002
0000
0000
0000
0000
0000
0000
0000
0000
0000
0000
0000
0000
0000
0000
0000
0003
0100
0000
0000
0000
0000
0020
0000
0000
0000
0000
0000
,
0000
0000
0000
0000
0000
0000
0000
0000
0130
0000
0010
0100
0010
0000
0100
0010
,
0100
0000
0001
1000
0001
0000
1000
0000
0000
0000
0010
0000
1000
0000
0010
0000
,
1000
0001
0000
0101
0000
0100
1000
0001
,
0100
0000
0010
0000
1000
0000
0010
0100
,
0000
0010
1000
0001
0000
0001
0010
1000
,
0010
0000
0001
0001
1000
0000
0010
0000
,
0100
0001
0000
0001
0100
0000
0010
0100
,
0010
0000
1001
0000
1000
0100
0010
0100
,
1000
0100
0010
0002
0000
0100
0000
1003
,
0020
0000
0000
0000
0030
1000
0000
0100
,
0000
0010
0000
0001
1000
0000
0010
0000
,
1000
0000
0001
1000
0001
0000
0100
0010
,
0100
0010
0000
0100
0001
0000
1000
0010
,
0000
0010
0100
0000
0001
0010
0001
0000
,
0100
0000
0010
0000
1000
0000
0100
0100
,
0000
0000
0100
1000
0000
0000
0001
0000
,
0010
0000
0001
0010
0000
0100
0010
0000
,
0001
1000
0100
0010
0001
0000
0001
1000
,
0010
1000
0001
0000
0100
0010
0100
0001
,
0000
0010
0100
0000
1000
0100
0010
0000
,
0001
1000
1002
0000
,
0103
0000
0010
0020
0000
0030
0100
0000
,
0001
0000
1000
0000
0110
0000
0001
0100
,
0010
0000
0010
1000
0000
1000
0100
0010
,
0000
0001
0000
1000
0001
0000
1000
0002
,
0000
0000
0100
0000
0013
0000
1000
0100
,
0010
0010
0001
0000
2000
0000
0000
0000
,
3010
0100
0010
0100
0001
0000
1000
0100
,
0001
0000
0100
0001
0000
0100
1000
0000
,
0010
0100
0010
0100
0001
0000
1000
0100
,
1000
0000
0000
0000
0001
0000
0010
0001
0010
0000
0001
0000
0001
0000
0100
0000
,
0010
0000
1000
0000
1000
0000
0100
0000
0010
0000
0010
0000
0001
0100
0001
0000
,
0010
0000
0001
0010
0200
0000
0300
0000
,
1000
0000
0100
0000
0010
0000
0100
0000
0000
0000
0010
0000
0001
0010
0001
0010
,
0001
0000
1000
0100
1000
0000
0100
0000
,
0010
0000
0010
0001
0000
0010
1000
0000
,
0000
0001
0100
0010
0001
0000
0001
1000
,
0010
1000
0100
0010
0000
0010
0001
0000
,
1000
0000
0100
0000
1001
0000
0100
0010
,
0100
0000
1000
0002
0000
1003
0010
0000
,
0100
0000
0010
0100
0010
0000
0010
1000
,
0001
0100
0001
0100
0001
0000
0100
0000
0000
0000
0010
0000
1001
0000
0000
0000
,
1000
0100
1000
0010
1000
0000
0000
0000
0001
0000
0000
0000
0100
0000
0000
0000
,
0010
0000
0001
0010
0000
1000
0010
0000
,
0000
0001
0010
0100
1000
0000
0010
0001
,
0000
1001
0000
0001
0000
0100
0010
0010
,
0100
0000
0001
0010
0001
0010
0001
0000
0010
0000
0000
0000
1001
0000
0000
0000
,
0100
0010
0110
0000
1000
0100
1100
0000
,
0001
0010
0011
0000
0001
0010
0100
0010
,
0000
0001
1000
0020
0000
0000
0030
0000
,
0100
0000
0010
0000
0100
0000
0000
0000
0010
0100
0010
1000
0010
0100
0000
0000
,
0000
0000
0001
0000
1000
0000
0100
1000
,
0020
0000
0130
0100
0000
0010
0010
0000
,
1000
0000
0001
0000
2000
0000
3001
0001
,
0000
0100
0010
0100
0000
0010
0100
0010
,
0000
0000
1000
0000
0010
0000
0000
1000
0100
0000
0000
0000
0010
0000
0001
0000
,
1000
0001
0000
0001
0000
1000
0100
0000
,
0100
0010
0001
0010
1000
0000
0001
0100
,
0000
1000
0010
0100
0000
0010
0001
0010
,
0001
0000
0010
0000
1010
0000
0000
0100
,
0002
0000
0103
0100
0000
0001
0100
0000
,
0100
0010
1000
0000
1000
0010
0010
0100
,
0000
0110
0000
0002
0000
1000
1003
0100
,
0100
0000
0010
0000
0001
0000
0010
0000
0001
0000
0000
0000
1000
0001
1000
0000
,
0000
0100
0001
0000
0000
0001
0100
0001
,
0010
0000
0100
1000
0100
0000
0000
0000
1000
0000
0000
0000
0100
0000
0000
0000
,
0001
0000
0000
0000
0000
0000
0000
0000
0000
1000
0000
0000
0100
0000
0010
0000
0001
0000
0010
0000
0001
0000
1000
0000
,
0100
0000
1000
0000
0100
0000
0010
0000
0000
0000
0000
0000
0002
0000
0000
0000
0000
0000
0103
0000
0000
0010
0000
0000
,
0100
0000
0010
0100
0010
0000
1000
0000
0000
0000
0001
0000
1000
0000
0000
0000
,
0002
0000
0000
0003
0100
0000
0010
0000
,
1000
0100
0000
0010
0000
0010
0001
0000
,
1000
0100
1000
0000
0001
0000
0010
0010
,
0000
0100
0000
0010
0001
1000
0010
0010
,
0100
0001
0010
0001
0010
0000
0000
0000
0001
0000
0000
0000
1000
0000
0000
0000
,
1000
0100
1000
0100
0000
0010
0001
0010
,
0001
0000
0100
0001
0100
0010
0010
0110
,
0000
0000
0100
0010
0100
0000
0010
0000
0000
0000
0001
0000
0010
0000
1000
0000
,
0002
0000
0103
0010
0100
0000
0010
0000
0200
0000
0000
0000
0000
0000
0000
0000
,
0000
0000
0000
0000
,
0000
0000
0300
0000
;
