#TITLE:Sajin kagerou;
#SUBTITLE:;
#ARTIST:猫叉Master;
#TITLETRANSLIT:;
#SUBTITLETRANSLIT:;
#ARTISTTRANSLIT:Nekomata Master;
#GENRE:;
#CREDIT:from pop n music 21 Sunny Park;
#BANNER:20160605175303!SP_CONTEMPORARY_NATION_6.png;
#BACKGROUND:;
#LYRICSPATH:;
#CDTITLE:;
#MUSIC:Sajin_kagerou.ogg;
#OFFSET:-0.355000;
#SAMPLESTART:45.355000;
#SAMPLELENGTH:17.000000;
#SELECTABLE:YES;
#BPMS:0.000000=90.000000
;
#STOPS:
;
#BGCHANGES:;
#KEYSOUNDS:;
#ATTACKS:;

//---------------dance-single - ----------------
#NOTES:
     dance-single:
     :
     Beginner:
     3:
     0.114316,0.142783,0.039226,0.164750,0.000000,102.000000,97.000000,5.000000,21.000000,0.000000,0.000000,0.114316,0.142783,0.039226,0.164750,0.000000,102.000000,97.000000,5.000000,21.000000,0.000000,0.000000:
0000
0000
0000
0000
,
0000
0000
0000
0000
,
0001
0000
0000
0000
,
1000
0000
0000
0000
,
0020
0030
0000
0000
,
0200
0300
0000
0000
,
0002
0003
0000
0000
,
2000
3000
0002
0003
,
1000
0000
0000
0000
,
0100
0000
0010
0000
,
1000
0000
0001
1000
,
0001
0000
0100
0010
,
0010
0000
1000
0000
,
1001
0000
0110
0000
,
1000
0000
0001
0000
,
0100
0000
0110
0000
,
0020
0030
0000
0000
,
2000
3000
0001
0100
,
0020
0030
0100
0000
,
0100
0001
1000
0000
,
0020
0030
1000
0100
,
0020
0030
0001
0100
,
0001
0000
1000
0010
,
0100
0000
0002
1003
,
2000
3000
0010
0100
,
0020
0030
0200
0300
,
0010
1000
0010
0000
,
0101
0000
2000
3001
,
0002
0000
0003
0000
,
1001
0000
1000
0010
,
2000
3000
0001
0100
,
0001
0000
0100
0010
,
0200
0000
0300
0000
,
0010
0000
0000
0000
,
0100
0010
0100
0010
,
0100
0000
0001
0000
,
1000
0010
1000
0010
,
1000
0000
0001
0000
,
0100
0001
0100
0001
,
0100
0000
0010
0000
,
1000
0100
0010
0000
,
0001
0100
0010
0100
,
0010
0000
0000
0000
,
2000
0000
3000
0000
,
0002
0000
0003
0000
,
0200
0000
0300
0000
;

//---------------dance-single - ----------------
#NOTES:
     dance-single:
     :
     Easy:
     7:
     0.279066,0.288704,0.235357,0.211821,0.000000,249.000000,219.000000,30.000000,27.000000,0.000000,0.000000,0.279066,0.288704,0.235357,0.211821,0.000000,249.000000,219.000000,30.000000,27.000000,0.000000,0.000000:
0000
0000
0000
0000
,
0000
0000
0000
0000
,
0001
0000
0100
0000
0010
0100
0010
1000
,
0010
0000
0110
0000
0100
0001
0100
0010
,
0100
0000
1001
0000
1000
0100
0010
0001
,
1000
0000
1010
0000
0001
0010
0100
1000
,
0010
0000
0101
0000
1000
0100
0010
0001
,
0100
0000
0011
0000
0001
0010
0100
1000
,
0100
0000
0000
0000
,
0100
0000
0110
0000
0001
0000
1000
0100
,
1000
0010
0100
0000
0001
0000
1001
0000
,
1000
0000
0100
1000
0100
0000
0010
0001
,
0010
0100
1000
0000
1000
0010
0100
0000
,
1001
0000
0001
0100
0110
0000
1000
0000
,
0100
0110
0011
1000
,
1001
0000
0001
1000
0010
0000
0100
0000
,
0010
0000
0110
0000
0001
0000
1000
0010
,
2000
0000
3001
0100
0002
0000
0103
0010
,
2000
0000
3010
0100
0002
0000
1003
0000
,
0110
0000
0101
0000
1000
0000
0010
1000
,
0001
1000
0100
0000
1000
0000
0110
0000
,
0002
0000
1003
0001
2000
0000
3010
0000
,
0100
0010
0001
1000
0200
0000
0310
0000
,
0001
0000
1000
0010
0200
0000
0301
0100
,
0020
0000
1030
0000
0010
0100
0010
0100
,
0002
0000
0003
0000
0100
0010
0100
0000
,
0020
0000
1030
0100
0010
0000
0001
0100
,
0101
0000
0010
1000
0020
0000
0130
0000
,
0002
1000
1003
0001
,
2001
0000
3010
0000
0100
0001
0010
0001
,
2000
0000
3010
0100
0010
0000
0100
0010
,
0200
0000
0301
0000
0100
0010
0100
0010
,
0200
0001
0301
1000
,
0020
0030
0200
0300
,
0110
0000
0010
0000
0100
0010
1000
0000
,
0001
0000
0100
0001
0100
0001
1000
0000
,
1000
0110
1000
1001
,
0010
0011
0010
1001
,
0100
0000
0010
0000
1000
0001
0100
0000
,
0010
0000
1000
0000
0010
0100
0001
0010
,
0100
0100
0011
0100
,
1001
0010
0011
0001
,
2200
0000
0300
0000
0100
0100
3100
0000
,
0022
0000
0030
0000
0010
0010
0013
0000
,
0220
0000
0030
0000
0010
0010
0310
0000
,
2002
0000
3000
0000
1000
1000
0100
0000
,
0003
0000
0000
0000
;

//---------------dance-single - ----------------
#NOTES:
     dance-single:
     :
     Medium:
     9:
     0.391141,0.378925,0.290273,0.313809,0.050994,349.000000,312.000000,37.000000,40.000000,0.000000,0.000000,0.391141,0.378925,0.290273,0.313809,0.050994,349.000000,312.000000,37.000000,40.000000,0.000000,0.000000:
0000
0000
0000
0000
,
0000
0000
0000
0000
,
0001
1000
0100
0010
0001
0100
0010
1000
,
1001
0001
0100
0010
1000
0100
0010
0001
,
1001
1000
0010
0100
0010
1000
0010
1000
,
0101
0001
0010
0001
1000
0100
0010
0001
,
1001
0010
0100
0001
1000
0100
1000
0100
,
0011
0001
0100
0001
0100
0100
0010
0010
,
0100
0000
0000
0000
,
0110
0000
0100
0010
1001
0000
0001
0100
,
0010
0000
0110
0100
0100
0000
0110
0010
,
0010
0000
1001
0000
0100
0010
0100
0010
,
0101
0000
1010
0000
0001
0100
0001
1000
,
1001
0000
0010
0100
1010
0000
0100
0001
,
0101
1010
2002
3003
,
0100
0000
0100
0010
1010
0000
0100
0001
,
0200
0300
0010
1000
0001
0100
0010
1000
,
2010
0000
3001
0100
0201
0000
0301
0010
,
1001
1000
0010
0100
0001
1000
1010
0100
,
0102
0000
0103
0010
0100
0100
0010
0010
,
1000
0001
0100
0001
1001
0000
1000
0010
,
1020
0000
1030
0100
0020
0000
0031
1000
,
0010
0100
0010
1000
0001
0100
0110
0010
,
1001
0100
0010
0001
0200
0000
0310
0100
,
0001
1000
0001
0000
0010
0100
0010
0000
0001
0000
1001
0000
0100
0010
0100
0000
,
0002
0000
0000
0000
0103
0000
0010
0100
0020
0000
0000
0000
1030
0000
0001
0000
,
1000
0010
0100
0001
1000
0001
1000
1000
,
0001
0000
0001
0000
0100
0000
0010
0100
0010
0000
1000
0000
0001
0000
0100
0001
,
0200
0000
0310
1000
1001
0001
0100
0010
,
0210
0000
0000
0000
0301
0000
1000
0010
2000
0000
0000
0000
3001
0000
0100
0000
,
0010
1000
0001
0010
0210
0000
1300
0001
,
0200
0000
0000
0000
0301
0000
0100
0001
0100
0000
0010
0000
1000
0000
0001
0000
,
2001
0000
3001
0000
0100
0010
0110
0100
,
0001
1000
0001
0100
,
0110
0000
1000
0001
0100
0001
1000
0010
,
0200
0001
0001
0001
0301
1000
0100
0000
,
0011
0001
2000
0000
3010
0100
0100
0001
,
2000
0000
0000
0000
3001
0000
0100
0000
0001
0000
1000
0010
1000
0000
0001
0000
,
0102
0000
0103
0010
1000
0001
1000
0010
,
0020
0100
1000
1000
0130
0001
0100
0000
,
0020
0000
1030
0001
1001
0100
0010
1000
,
0002
0000
0103
0010
0100
0001
1000
0100
,
0010
0000
0001
1000
0100
0000
0010
0000
0200
0300
2000
3000
0020
0030
0200
0300
,
0001
0000
0100
0001
0100
0000
0010
0000
2000
3000
0002
0003
2000
3000
0002
0003
,
0100
0000
0010
0100
0001
0000
1000
0000
0002
0003
0020
0030
0200
0300
2000
3000
,
0001
0000
0100
0010
1000
0000
0010
0000
0200
0300
0002
0003
2000
3000
0020
0000
,
0030
0000
0000
0000
;

//---------------dance-single - ----------------
#NOTES:
     dance-single:
     :
     Hard:
     13:
     0.505457,0.487189,0.470714,0.368726,0.407952,451.000000,391.000000,60.000000,47.000000,0.000000,0.000000,0.505457,0.487189,0.470714,0.368726,0.407952,451.000000,391.000000,60.000000,47.000000,0.000000,0.000000:
// measure 0
0000
0000
0000
0000
,  // measure 1
0000
0000
0000
0000
,  // measure 2
0001
0000
0110
0000
0010
0100
0010
1000
,  // measure 3
0020
0030
0100
0000
0001
0010
0100
1000
,  // measure 4
0200
0310
0011
0001
0100
0010
0100
0001
,  // measure 5
1100
0000
1000
0000
0010
0000
0100
0000
0001
0000
1000
0010
0100
0000
0010
0000
,  // measure 6
1001
0100
0010
0100
0001
1000
0001
1000
,  // measure 7
0110
0000
0001
1000
0001
0000
1000
0000
0010
0100
0001
0000
0100
0001
0010
0000
,  // measure 8
0002
0000
0000
0000
0003
0000
0000
0000
0100
0010
0000
0100
0000
0000
0010
0100
,  // measure 9
0110
0100
0001
0100
0101
0010
1010
0100
,  // measure 10
0000
0100
0010
0100
0000
0000
0010
0000
0000
0100
0000
0000
0101
0000
0000
0001
0000
0000
1001
0000
0001
0000
0010
0000
,  // measure 11
0100
0000
1000
0010
0100
0000
0001
0000
0101
0000
0010
0000
0100
0000
0100
0000
,  // measure 12
0000
0000
0001
0000
0100
0000
0001
0000
0000
0000
0000
0000
1000
0000
0000
0000
0000
0000
0010
0000
0000
0100
0000
0000
0110
0000
0000
0000
0000
0000
0001
0000
0000
0000
0000
0000
1000
0000
0000
0000
0000
0000
0001
0000
0000
0000
0000
0000
,  // measure 13
0200
0000
0000
0000
0000
0000
0310
0000
0000
0000
0000
0000
0100
0000
0000
0000
0000
0000
0001
0000
0000
0000
0000
0000
1001
0000
0000
0000
0000
0000
1000
0000
0000
0010
0000
0000
0100
0000
0000
0000
0001
0000
0000
0000
0100
0000
0000
0000
,  // measure 14
0110
0000
0000
0000
0000
0000
0000
0000
0100
0000
0000
0000
0000
0000
0000
0000
0010
0000
0000
0000
0000
0000
0000
0000
1010
0000
0000
0000
0000
0000
0001
0000
0000
0100
0000
0000
0001
0000
0000
0000
0000
0000
1000
0000
0000
0010
0000
0000
,  // measure 15
0100
0000
0000
0000
0000
0000
0000
0000
0001
0000
0000
0000
0000
0000
0000
0000
0100
0000
0000
0000
0000
0000
0000
0000
0101
0000
0000
0000
0000
0000
1000
0000
0000
0100
0000
0000
0010
0000
0000
0000
0000
0000
0001
0000
0000
0000
0000
0000
,  // measure 16
1001
0000
1000
0100
0010
0001
1000
0000
0001
0010
0100
0010
0001
0000
1000
0010
,  // measure 17
2010
0000
3010
0100
0002
0000
1003
0010
,  // measure 18
0100
0000
0000
0000
0000
0000
0010
0000
0000
0000
0000
0000
0100
0000
0000
0000
0000
0000
0010
0000
0000
0000
0000
0000
0200
0000
0000
0000
0000
0000
0000
0000
0000
0000
0000
0000
0000
0000
0000
0000
0000
0000
0000
0000
0000
0000
0000
0000
0301
0000
0000
0000
0000
0000
0000
0000
0000
0000
0000
0000
0100
0000
0000
0000
0000
0000
0000
0000
0000
0000
0000
0000
0010
0000
0000
0000
0000
0000
0000
0000
0000
0000
0000
0000
0000
0000
0000
0000
0000
0000
0000
0000
0000
0000
0000
0000
0010
0000
0000
0000
0000
0000
0000
0000
0000
0000
0000
0000
1000
0000
0000
0000
0000
0000
0000
0000
0000
0000
0000
0000
0001
0000
0000
0000
0000
0000
0000
0000
0000
0000
0000
0000
0000
0000
0000
0000
0000
0000
0000
0000
0000
0000
0000
0000
0100
0000
0000
0000
0000
0000
0000
0000
0000
0000
0000
0000
0000
0000
0000
0000
0010
0000
0000
0000
0000
0000
0000
0000
0000
0000
0000
0000
0000
0000
0000
0000
1000
0000
0000
0000
0000
0000
0000
0000
0000
0000
0000
0000
0000
0000
0000
0000
,  // measure 19
2002
0003
3001
0100
0020
0000
0130
0001
,  // measure 20
1000
0001
1000
0001
1000
0000
0000
0000
0001
0000
0100
0000
0001
0000
0000
0000
1000
0000
0010
0000
1000
0000
0000
0000
0001
0000
0000
0000
0100
0000
0000
0000
,  // measure 21
0020
0000
0000
0000
0000
0000
0000
0000
0000
0000
0000
0000
0130
0000
0000
0000
0000
0000
0001
0000
0000
1000
0000
0000
0002
0000
0000
0000
0000
0000
0000
0000
0000
0000
0000
0000
1003
0000
0000
0000
0010
0000
0000
0000
0100
0000
0000
0000
,  // measure 22
0110
0000
0000
0000
0000
0000
0000
0000
0010
0000
0000
0000
0000
0000
0000
0000
0100
0000
0000
0000
0000
0000
0000
0000
2002
0000
0000
0000
0000
0000
0003
0000
0000
0000
0000
0000
3100
0000
0000
0000
0000
0000
0010
0000
0000
0100
0000
0000
,  // measure 23
0001
0000
0000
0000
1000
0000
0000
0000
0010
0000
0000
0000
0202
0000
0000
0003
0000
0000
0301
0000
0000
1000
0000
0000
,  // measure 24
0001
0000
0100
0020
0000
0000
0000
0000
0000
0130
0000
0000
0100
0000
0000
0100
0000
0000
0010
0000
0100
0010
0000
0000
,  // measure 25
0201
0000
0000
0000
0000
0000
0000
0000
0301
0000
0000
0000
1000
0001
1000
0001
2000
0000
0000
0000
3000
0000
0000
0000
0001
0000
0100
0000
0010
0000
0000
0000
,  // measure 26
0101
0000
0000
1000
0000
0010
1000
0000
0010
1000
0000
0001
0200
0000
0010
0300
0000
0000
0010
0000
0000
1000
0000
0000
,  // measure 27
1002
0000
0000
0000
0000
0000
0103
0000
0000
0010
0000
0100
0020
0000
0000
0000
0000
0000
0130
0000
0000
1001
0000
0000
,  // measure 28
1100
0000
0000
0000
0000
0000
0001
0000
0000
0000
0100
0000
0010
0000
0000
0000
0100
0000
0010
0000
0000
0000
0000
0000
0100
0000
0000
0110
0000
0000
0000
0000
0000
0000
0001
0000
0100
0000
0000
0000
0000
0000
0010
0000
0000
0000
0000
0000
,  // measure 29
2000
0000
0000
0000
0000
0000
0000
0000
3001
0000
0000
0000
0001
1000
0001
1000
0002
0000
0000
0000
0003
0000
0000
0000
1000
0000
0100
0000
0010
0000
0000
0000
,  // measure 30
0011
0000
0000
1000
0000
0010
0100
0000
0100
0010
0000
1000
0020
0000
0100
0030
0000
0000
0100
0000
0000
0010
0000
0000
,  // measure 31
2000
0000
0000
0100
0000
0000
3100
0000
0000
0010
0000
0001
2000
0000
0000
0010
0000
0000
3001
0000
0000
0101
0000
0000
,  // measure 32
0011
0000
0000
0100
0000
0010
0100
0000
0010
0100
0000
0000
0101
0000
0000
1010
0000
0000
0101
0000
0000
1000
0000
0000
,  // measure 33
0020
0000
0000
0000
0000
0000
0000
0000
0000
0000
0000
0000
0000
0000
0000
0000
0000
0000
0000
0000
0000
0000
0000
0000
0000
0000
0000
0000
0000
0000
0000
0000
0000
0000
0000
0000
0000
0000
0000
0000
0000
0000
0000
0000
0000
0000
0000
0000
0130
0000
0000
0000
0000
0000
0000
0000
0000
0000
0000
0000
0000
0000
0000
0000
0000
0000
0000
0000
0000
0000
0000
0000
0000
0000
0000
0000
0000
0000
0000
0000
0000
0000
0000
0000
0010
0000
0000
0000
0000
0000
0100
0000
0000
0000
0000
0000
0010
0000
0000
0000
0000
0000
0000
0000
0000
0000
0000
0000
0000
0000
0000
0000
0000
0000
0000
0000
0000
0000
0000
0000
0000
0000
0000
0000
0000
0000
0000
0000
0000
0000
0000
0000
0000
0000
0000
0000
0000
0000
0000
0000
0000
0000
0000
0000
0100
0000
0000
0000
0000
0000
0000
0000
0000
0000
0000
0000
0000
0000
0000
0000
0010
0000
0000
0000
0000
0000
0000
0000
0100
0000
0000
0000
0000
0000
0000
0000
0000
0000
0000
0000
0000
0000
0000
0000
0010
0000
0000
0000
0000
0000
0000
0000
,  // measure 34
0100
0000
0000
0000
0000
0001
2000
0000
0000
3000
0000
0010
0200
0000
0000
0310
0000
0000
0002
0000
0000
0000
0000
0000
,  // measure 35
1003
0000
0000
0010
0000
0100
0020
0000
0000
0030
0000
0100
0020
0000
0000
0030
0000
1000
0001
0000
1000
0001
0000
0000
,  // measure 36
1001
0000
0000
0000
0000
0001
2000
0000
0000
3000
0000
0010
0200
0000
0000
0300
0000
1000
0200
0000
0000
0300
0000
0000
,  // measure 37
0002
0000
0000
0000
0000
0000
0103
0000
0000
0010
0000
0000
0101
0000
0000
1000
0000
0010
1000
0000
0001
1000
0000
0000
,  // measure 38
0100
0000
0010
0000
0000
0001
0100
0000
0000
0010
0000
0000
1010
0000
0000
0001
0000
0100
0010
0000
0100
0001
0000
0000
,  // measure 39
0101
0000
0000
0100
0000
0010
2000
0000
0000
3000
0000
0001
0100
0000
0000
0100
0000
0010
0100
0000
0000
0001
0000
0000
,  // measure 40
2001
0000
0000
0000
0000
0000
3001
0000
0000
0100
0000
0000
2010
0000
0000
3000
0000
0010
1000
0000
0000
0001
0000
0100
,  // measure 41
0010
1000
0101
0010
0001
1000
0101
0010
,  // measure 42
0011
0000
0000
0001
1000
0000
1000
0000
0110
0000
0011
0000
1100
0000
0101
0000
,  // measure 43
0020
0000
0030
0100
0010
0000
0200
0300
0010
0000
1010
0000
0101
0000
1010
0000
,  // measure 44
2002
0000
3003
0001
0100
0000
0010
0000
0110
0000
1100
0000
0101
0000
0011
0000
,  // measure 45
2020
0000
3030
0001
0100
0000
0002
0003
0100
0000
0011
0000
1010
0000
0101
0000
,  // measure 46
0110
0000
0000
0000
;
