#VERSION:0.83;
#TITLE:Ryusei moyou;
#SUBTITLE:;
#ARTIST:Yuko Asai;
#TITLETRANSLIT:;
#SUBTITLETRANSLIT:;
#ARTISTTRANSLIT:;
#GENRE:;
#ORIGIN:;
#CREDIT:from pop n music 11 AC / 9 CS;
#BANNER:Yuko Asai - Ryusei moyou.png;
#BACKGROUND:;
#PREVIEWVID:;
#JACKET:;
#CDIMAGE:;
#DISCIMAGE:;
#LYRICSPATH:;
#CDTITLE:;
#MUSIC:Yuko Asai - Ryusei moyou.mp3;
#OFFSET:-0.395000;
#SAMPLESTART:57.701000;
#SAMPLELENGTH:18.000000;
#SELECTABLE:YES;
#BPMS:0.000=90.000;
#STOPS:;
#DELAYS:;
#WARPS:;
#TIMESIGNATURES:0.000=4=4;
#TICKCOUNTS:0.000=4;
#COMBOS:0.000=1;
#SPEEDS:0.000=1.000=0.000=0;
#SCROLLS:0.000=1.000;
#FAKES:;
#LABELS:0.000=Song Start;
#BGCHANGES:;
#KEYSOUNDS:;
#ATTACKS:
;

//---------------dance-single - ----------------
#NOTEDATA:;
#CHARTNAME:;
#STEPSTYPE:dance-single;
#DESCRIPTION:;
#CHARTSTYLE:;
#DIFFICULTY:Beginner;
#METER:1;
#RADARVALUES:0.067863,0.091050,0.000000,0.042226,0.000000,45.000000,45.000000,0.000000,4.000000,0.000000,0.000000,0.000000,0.000000,0.000000,0.067863,0.091050,0.000000,0.042226,0.000000,45.000000,45.000000,0.000000,4.000000,0.000000,0.000000,0.000000,0.000000,0.000000;
#CREDIT:;
#NOTES:
0000
0000
0000
0000
,
0000
0000
0000
0000
,
0100
0000
0000
0000
,
0100
0000
0000
0000
,
0001
0000
0001
0000
,
1000
0000
0000
0000
,
1000
0000
0000
0000
,
0001
0000
0001
0000
,
0001
0000
0000
0000
,
1000
0000
1000
0000
,
1000
0000
0000
0000
,
0001
0000
0001
0000
,
0001
0000
0000
0000
,
1000
0000
0100
0000
,
1000
0000
0100
0000
,
1000
0000
0100
0000
,
1000
0000
0000
0000
,
0001
0000
0010
0000
,
0001
0000
0010
0000
,
0001
0000
0010
0000
,
0001
0000
0000
0000
,
0100
0000
0100
0000
,
0200
0000
0000
0000
0000
0300
0000
0000
,
0001
0000
0001
0000
,
0001
0000
0000
0000
,
1000
0000
1000
0000
,
2000
0000
0000
0000
0000
3000
0000
0000
,
0001
0000
0000
0000
,
1000
0000
0000
0000
,
0001
0000
0000
0000
,
0001
0000
0001
0000
,
0002
0000
0000
0000
0000
0003
0000
0000
,
0000
0000
0000
0000
,
2000
0000
0000
0000
,
0000
0000
3000
0000
;

//---------------dance-single - ----------------
#NOTEDATA:;
#CHARTNAME:;
#STEPSTYPE:dance-single;
#DESCRIPTION:;
#CHARTSTYLE:;
#DIFFICULTY:Easy;
#METER:4;
#RADARVALUES:0.183985,0.218520,0.095009,0.095009,0.000000,122.000000,113.000000,9.000000,9.000000,0.000000,0.000000,0.000000,0.000000,0.000000,0.183985,0.218520,0.095009,0.095009,0.000000,122.000000,113.000000,9.000000,9.000000,0.000000,0.000000,0.000000,0.000000,0.000000;
#CREDIT:;
#NOTES:
0000
0000
0000
0000
,
0000
0000
0000
0000
,
0010
0000
0010
0010
0000
0000
0001
0000
,
0001
0000
1000
0001
0000
0000
1000
0000
,
1001
1001
0002
0003
,
0110
0000
0010
0000
0100
0000
0100
0100
,
0000
0001
0000
0000
1000
0000
0001
0000
,
0010
0000
0100
0000
1000
0000
0001
1000
,
0001
1000
0010
1010
,
0100
0000
0001
0000
1000
0000
0001
1000
,
0000
0001
1000
0110
,
0100
0001
1000
0001
,
1001
0000
1000
0000
0001
0100
0001
0000
,
0200
0300
0001
0100
,
1000
0100
0001
0001
,
0010
0100
1000
0100
,
0010
0000
0010
0010
,
0010
0000
0001
0000
0001
0100
0001
0000
,
1000
0000
1000
0000
1000
0100
1000
0000
,
0001
0000
0001
0000
0001
0010
0001
0000
,
1000
0000
1000
0000
0100
1000
0100
0000
,
1000
0000
0001
0000
0010
0001
0010
0000
,
0200
0000
0000
0300
0000
0000
0001
0000
,
0020
0000
0000
0030
0100
0000
0000
0000
,
0110
0001
1000
0001
,
0110
0000
0000
0100
0000
0000
0010
0000
,
0020
0000
0000
0030
0000
0000
1000
0000
,
0001
0010
0001
1000
,
0001
0100
0010
0000
,
0100
0000
0110
0000
,
0001
0000
0000
1000
,
2000
0000
0000
3000
0000
0000
0000
0000
,
0002
0000
0000
0003
0000
0000
0001
0000
,
0002
0000
0000
0003
0000
0000
0000
0000
,
2000
0000
3000
0000
;

//---------------dance-single - ----------------
#NOTEDATA:;
#CHARTNAME:;
#STEPSTYPE:dance-single;
#DESCRIPTION:;
#CHARTSTYLE:;
#DIFFICULTY:Medium;
#METER:8;
#RADARVALUES:0.300107,0.364201,0.147792,0.221687,0.068618,199.000000,185.000000,14.000000,21.000000,0.000000,0.000000,0.000000,0.000000,0.000000,0.300107,0.364201,0.147792,0.221687,0.068618,199.000000,185.000000,14.000000,21.000000,0.000000,0.000000,0.000000,0.000000,0.000000;
#CREDIT:;
#NOTES:
0000
0000
0000
0000
,
0000
0000
0000
0000
,
0100
0010
0000
0110
0000
0010
0000
1000
,
0100
0010
0001
2000
3000
0000
0001
0010
,
0002
0000
0103
0010
0200
0300
0010
1000
,
0100
0000
0100
1000
0001
0000
0001
0100
,
2000
3000
0001
0010
1000
0000
0001
0010
,
1000
0000
0001
0100
0010
0000
0001
0100
,
2000
3000
0100
0100
0001
0001
1001
0000
,
0001
0010
0001
0000
2000
3000
1000
0100
,
0110
0000
0001
0010
0001
0100
0010
0100
,
0101
0000
0000
0000
1000
0000
0000
0000
0010
0000
0000
0100
0000
0000
0010
0000
,
0020
0030
0100
0100
,
0010
1000
0100
0010
0001
0000
1000
0100
,
0020
0000
0130
0010
0001
0000
1000
0100
,
0020
0000
0130
0010
0001
0000
1000
0000
,
1001
0000
0100
0000
0010
0100
0010
0100
,
0020
0000
0030
0000
0100
0000
0010
0100
,
0002
0000
1003
0000
0010
0110
0110
0000
,
1000
0001
1001
0000
0001
1000
0001
0010
,
0001
0100
0010
0100
0110
0010
1000
0001
,
1000
1100
1100
1100
0000
0000
1000
0200
,
0010
0000
0310
0010
0000
0010
0100
1000
,
0001
0000
0010
0000
0002
0000
0003
0020
0000
0030
0001
0000
0000
0000
1000
0000
,
1001
0000
0001
0000
0001
0010
0100
1000
,
0010
0100
0001
0010
0100
1000
0001
1000
,
0002
0000
1003
0000
0000
0000
1000
0020
,
0100
0000
0030
0000
0100
0000
0000
0010
0000
0000
0100
0000
0000
0000
0010
0000
,
0110
0000
0100
0000
0001
0000
1000
0001
,
0100
0000
0000
0010
0000
0000
0100
0000
0000
0000
0000
0000
0200
0000
0000
0000
,
0310
0000
0010
1000
0010
1000
0001
0100
,
0002
0000
0000
0203
0000
0000
0301
0001
,
1000
0000
0001
1000
0000
0001
0000
1000
0000
0001
0000
0100
0000
0010
0000
0000
,
0200
0000
0000
0001
0000
0001
0300
0001
0000
0000
0000
0000
0010
0000
0000
0000
,
0200
0000
0300
0000
;

//---------------dance-single - ----------------
#NOTEDATA:;
#CHARTNAME:;
#STEPSTYPE:dance-single;
#DESCRIPTION:;
#CHARTSTYLE:;
#DIFFICULTY:Hard;
#METER:12;
#RADARVALUES:0.447899,0.509881,0.147792,0.263914,0.480323,297.000000,283.000000,14.000000,25.000000,0.000000,0.000000,0.000000,0.000000,0.000000,0.447899,0.509881,0.147792,0.263914,0.480323,297.000000,283.000000,14.000000,25.000000,0.000000,0.000000,0.000000,0.000000,0.000000;
#CREDIT:;
#NOTES:
// measure 0
0000
0000
0000
0000
,  // measure 1
0000
0000
0000
0000
,  // measure 2
0010
0000
0000
0000
0000
0000
0100
0000
0000
1000
0000
0000
0100
0000
0000
0000
0000
0000
0201
0000
0000
0000
0000
0000
0000
0000
0000
0000
0000
0000
0310
0000
0000
0000
1000
0000
0001
0000
0000
0000
0000
0000
0010
0000
0000
0100
0000
0000
,  // measure 3
0010
0000
0000
0001
0000
0000
0101
0000
0000
1001
0000
0000
0010
0000
1000
0010
0000
0000
0010
0000
0100
0001
0000
0000
,  // measure 4
0020
0000
0000
0000
0000
0000
0100
0000
0000
0000
0000
0000
0031
0000
0000
0000
0000
0000
0100
0000
0000
0000
0001
0000
0200
0000
0000
0000
0000
0000
0300
0000
0000
0000
0000
0000
0001
0000
0000
0010
0000
0000
0100
0000
0000
0000
0000
0000
,  // measure 5
1010
0000
0000
0100
0000
0001
0100
0000
0000
0010
0000
0010
0100
0000
1000
0001
0000
0010
0100
0000
0001
1000
0000
0000
,  // measure 6
0010
0000
1000
0001
0000
0100
0010
0000
0000
0100
0000
0010
0100
0000
0010
0000
0000
0100
0010
0000
1000
0100
0000
0000
,  // measure 7
0001
0000
0000
0100
0000
1000
0000
0000
0000
0010
0000
1000
0200
0000
0000
0300
0000
1000
0100
0000
1000
0010
0000
0000
,  // measure 8
1000
0000
0100
0010
0000
0100
0001
0000
0100
1000
0000
0100
0010
0000
0000
0001
0000
0010
0001
0000
0010
0001
0000
0000
,  // measure 9
0011
0000
0000
0001
0000
0010
0100
0000
0000
1000
0000
0100
0020
0000
0000
0030
0000
0100
0010
0000
0100
0001
0000
0000
,  // measure 10
0100
0000
0010
0001
0000
0000
0010
0000
0000
0110
0000
0000
0100
0000
0010
0100
0000
0000
1001
0000
0010
0001
0000
0000
,  // measure 11
1000
0000
0000
0010
0000
0001
0010
0000
0000
0100
0000
0010
2000
0000
0000
3000
0000
0010
0000
0000
0100
0001
0000
0000
,  // measure 12
1000
0000
1000
0001
0000
0100
0010
0000
0000
0101
0000
0010
0100
0000
0000
1000
0000
0000
0001
0000
0100
0010
0000
0100
,  // measure 13
0020
0000
1030
0001
0100
0001
0010
0110
,  // measure 14
2000
0000
0000
0000
0000
0001
3000
0000
0000
0100
0000
0100
0010
0000
0000
0010
0000
0000
1000
0000
0000
0100
0000
0000
,  // measure 15
0020
0000
0000
0000
0000
0001
0000
0030
0000
0200
0000
0000
0000
0000
0000
1300
0000
0000
0001
0000
0000
0100
0000
0000
,  // measure 16
0010
0000
0000
0000
0000
0010
0000
0000
0000
1000
0000
0000
0100
0000
0010
0100
0000
0000
0010
0000
0000
0001
0000
0000
,  // measure 17
0010
0000
0000
1000
0000
0020
0000
0000
0000
0001
0000
0000
0100
0000
0000
0001
0000
0000
0130
0000
0000
1000
0000
0000
,  // measure 18
0002
0000
0000
0000
0000
0000
0003
0000
0000
0100
0000
0000
0000
0000
0000
0001
0000
0000
0000
0000
0000
0001
0000
0000
0000
0000
0000
0000
1000
0000
0001
0000
0000
0000
0000
0000
0100
0000
0000
0000
0100
0000
0010
0000
0000
0000
0100
0000
,  // measure 19
0010
0000
0000
1000
0000
0001
1000
0000
0001
1000
0000
0100
0010
0000
0000
0001
0000
0010
0000
0000
0100
0010
0000
0000
,  // measure 20
0101
0000
0000
0011
0000
0000
1000
0000
0000
0100
0000
0010
0100
0000
0000
0001
0000
0000
0100
0000
0010
0100
0000
0000
,  // measure 21
0000
1001
0110
0101
0002
0000
2003
0020
,  // measure 22
3000
0000
0000
0030
0000
0100
0000
0000
0000
0100
0000
0000
0000
0000
0000
0010
0000
0000
0100
0000
0000
0020
0000
0000
,  // measure 23
0030
0000
0000
0100
0000
0000
0010
0000
0000
0000
0000
0100
0000
0000
0010
0100
0000
0000
0001
0000
0000
1000
0000
0100
,  // measure 24
0010
0000
0000
0010
0000
0001
0000
0000
0100
0001
0000
0000
0010
0000
0000
0100
0000
0000
0001
0000
0000
0100
0000
0000
,  // measure 25
1000
0000
0000
0000
0000
0001
0000
0000
0000
0100
0000
0000
0000
0000
0000
0010
0000
0000
0100
0000
0000
0001
0000
0000
,  // measure 26
2000
0000
0000
0000
0000
0001
0000
0000
0000
0001
0000
0000
3000
0000
0000
0001
0000
0000
0100
0000
0000
0020
0000
0000
,  // measure 27
1000
0000
0000
0100
0000
0000
1030
0000
0000
0010
0000
0001
0000
0000
0010
1000
0000
0000
0000
0000
0000
0001
0000
0100
,  // measure 28
0001
0000
0000
0100
0000
0010
0000
0000
0100
0010
0000
0000
0000
0000
0000
1000
0000
0000
0100
0000
0000
0010
0000
0000
,  // measure 29
0002
0000
0000
0000
0000
1000
0003
0000
0000
0020
0000
0000
0000
0000
0000
0100
0000
0000
0001
0000
0000
0100
0000
0000
,  // measure 30
0130
0000
0001
0010
0100
1000
0010
0100
,  // measure 31
0002
0000
0000
0000
0000
0000
0000
0000
0000
0010
0000
0000
0000
0000
0000
0100
0000
0000
0000
0000
0000
0010
0000
0000
0000
0000
0003
0010
0000
0000
0000
0000
0000
0100
0000
0000
0000
0000
0000
1000
0000
0000
0000
0000
0000
0001
0000
0000
,  // measure 32
0200
0000
0000
0001
0000
0010
0000
0001
0300
0010
0000
0100
0000
0001
0000
0000
,  // measure 33
2000
0000
0000
0100
3000
0000
0200
0000
0000
0000
0300
0000
0010
0000
0000
0000
,  // measure 34
0002
0000
0003
0000
;
