#TITLE:Ruten to Kaiten;
#SUBTITLE:;
#ARTIST:WATER STAND;
#TITLETRANSLIT:;
#SUBTITLETRANSLIT:;
#ARTISTTRANSLIT:;
#GENRE:;
#CREDIT:from pop n music 14 CS;
#BANNER:CS14_INNOCENT_3.png;
#BACKGROUND:;
#LYRICSPATH:;
#CDTITLE:;
#MUSIC:[popn music 14 FEVER! CS] WATER STAND - Ruten to Kaiten.ogg;
#OFFSET:-0.145000;
#SAMPLESTART:43.625259;
#SAMPLELENGTH:12.000000;
#SELECTABLE:YES;
#BPMS:0.000000=138.000000
;
#STOPS:
;
#BGCHANGES:;
#KEYSOUNDS:;
#ATTACKS:;

//---------------dance-single - ----------------
#NOTES:
     dance-single:
     :
     Beginner:
     1:
     0.057610,0.106228,0.009836,0.039344,0.000000,41.000000,40.000000,1.000000,4.000000,0.000000,0.000000,0.057610,0.106228,0.009836,0.039344,0.000000,41.000000,40.000000,1.000000,4.000000,0.000000,0.000000:
0000
0000
0000
0000
,
0000
0000
0000
0000
,
0000
0000
0000
0000
,
0000
0000
0000
0000
,
0001
0000
0000
0000
,
0000
0000
0000
0000
,
0001
0000
0000
0000
,
0000
0000
0000
0000
,
1000
0000
0000
0000
,
0001
0000
0000
0000
,
1000
0000
0000
0000
,
0000
0000
0000
0000
,
0001
0000
0000
0000
,
0001
0000
0000
0000
,
1000
0000
0000
0000
,
1000
0000
0000
0000
,
0001
0000
0000
0000
,
0100
0000
0000
0000
,
0000
0000
0000
0000
,
0100
0000
0000
0000
,
0100
0000
0000
0000
,
0100
0000
0000
0000
,
0000
0000
0000
0000
,
0001
0000
0000
0000
,
0001
0000
0000
0000
,
0001
0000
0000
0000
,
1000
0000
0000
0000
,
1000
0000
0000
0000
,
0000
0000
0000
0000
,
0002
0000
0003
0000
,
1000
0000
0000
0000
,
1000
0000
0000
0000
,
0000
0000
0000
0000
,
2000
0000
3000
0000
,
0001
0000
0000
0000
,
0002
0000
0003
0000
,
0000
0000
0000
0000
,
1001
0000
0000
0000
,
1000
0000
0000
0000
,
0001
0000
0000
0000
,
0000
0000
0000
0000
,
1000
0000
0000
0000
,
0001
0000
0000
0000
,
0100
0000
0000
0000
,
0100
0000
0000
0000
,
0001
0000
0000
0000
,
0001
0000
0000
0000
,
0002
0000
0003
0000
,
0000
0000
0000
0000
,
1000
0000
0000
0000
,
0100
0000
0000
0000
,
1000
0000
0000
0000
,
0100
0000
0000
0000
,
0000
0000
0000
0000
,
1000
0000
0000
0000
;

//---------------dance-single - ----------------
#NOTES:
     dance-single:
     :
     Easy:
     3:
     0.168616,0.245653,0.078687,0.098359,0.000000,120.000000,112.000000,8.000000,10.000000,0.000000,0.000000,0.168616,0.245653,0.078687,0.098359,0.000000,120.000000,112.000000,8.000000,10.000000,0.000000,0.000000:
0000
0000
0000
0000
,
0000
0000
0000
0000
,
0001
1000
0000
0002
,
0003
0000
0000
0000
,
1000
0001
0000
0200
,
0300
0000
0001
0000
,
0001
1000
0000
0002
,
0003
0000
0100
0000
,
0110
0000
0000
0100
,
0001
0000
0100
0001
,
1000
0000
0001
0100
,
0000
0000
0000
0001
,
0001
0000
1000
0000
,
1000
0000
0001
0000
,
1000
0100
1000
0000
,
1000
0000
0001
0000
,
0001
0010
0001
0000
,
0100
0000
0010
0000
,
0100
0010
0100
0000
,
0010
0000
0010
0000
,
0010
1000
0010
0000
,
0110
0000
0110
0000
,
0110
0000
0000
0000
,
1001
0000
1000
0000
,
0001
0000
0000
0000
,
0001
0000
1000
0000
,
0001
0100
0001
0000
,
1000
0100
1000
0000
,
0000
0000
1000
0000
,
0001
0100
0001
0000
,
1000
0000
0010
0000
,
0100
0010
0100
0000
,
0001
0000
1000
0000
,
0001
0000
0001
0000
,
1000
0000
1000
0000
,
0002
0000
0003
0000
,
1000
0000
1000
0000
,
1001
0000
0001
0000
,
1000
0100
1000
0000
,
0001
0000
0100
0000
,
0001
0100
0001
0000
,
0100
0000
0010
0000
,
0100
0000
0010
0000
,
0200
0000
0310
0000
,
0010
0000
0010
0000
,
2000
3000
0001
0000
,
0001
1000
0001
0000
,
2000
0000
3001
0000
,
1001
0000
0000
0000
,
1000
0010
1000
0010
,
1000
0000
0001
0000
,
1001
0000
0000
0000
,
0200
0000
0301
0000
,
0000
0000
0001
0000
,
2000
0000
3000
0002
,
0000
0000
0003
0000
;

//---------------dance-single - ----------------
#NOTES:
     dance-single:
     :
     Medium:
     7:
     0.334422,0.448519,0.206555,0.206555,0.000000,238.000000,217.000000,21.000000,21.000000,0.000000,0.000000,0.334422,0.448519,0.206555,0.206555,0.000000,238.000000,217.000000,21.000000,21.000000,0.000000,0.000000:
0000
0000
0000
0000
,
0000
0000
0000
0000
,
0001
0000
1000
0001
0000
0001
2000
0000
,
3000
0000
0002
0003
,
1000
0000
0001
0100
0000
0100
0002
0000
,
0003
0000
0000
0000
1000
0001
1000
0000
,
0001
0000
0010
0100
0000
0100
0020
0000
,
0030
0000
0100
0100
,
0110
0000
0100
0100
0000
1000
1000
0000
,
0001
0100
0001
0001
,
1001
0000
1000
0001
0000
1000
0002
0000
,
0000
0103
0100
0001
,
0001
0000
1000
0000
1000
0001
1000
0001
,
2000
3000
0001
0100
,
0010
0100
1000
0000
,
0001
0000
0100
0001
,
0010
0100
1000
0000
,
0100
0010
0011
0101
,
0100
0010
0100
0000
0001
0000
0000
0000
,
2000
0000
3002
0000
1003
0000
0001
0100
,
0000
0100
0000
0010
0000
0000
0000
0000
,
0110
1001
0110
0010
,
0100
0101
0110
0110
,
1010
1000
0100
0010
,
0001
0000
1000
0000
0001
1000
0001
1000
,
0001
1000
1001
0101
,
0001
0110
0100
0010
,
1010
0000
0100
0000
0001
0000
1000
0010
,
0000
0010
1000
0000
0001
0100
0001
0000
,
0100
0001
0100
0100
,
1000
0000
0010
0010
,
1000
0010
0100
0001
,
1000
0000
0001
0000
1000
0100
1000
0100
,
0010
0000
0001
0000
,
1001
0000
0000
0010
1000
0000
0000
1000
,
0002
0000
1000
0000
1003
0000
0001
0100
,
0001
0000
0100
0001
1000
0000
0001
0000
,
2001
0000
3001
0000
,
1000
0010
0100
0010
1000
0000
0000
0000
,
0001
0010
0001
0000
0010
0000
0001
0000
,
0100
0001
0100
0000
0001
0000
1000
0000
,
0110
0010
0001
1000
,
1001
0001
0010
0100
,
1000
0000
0001
0100
0000
0100
0001
0000
,
2000
3000
0020
0030
0200
0300
0002
0003
,
2000
0000
0001
0000
3001
0000
0100
0001
,
0010
0000
0001
0000
1000
0000
0001
1000
,
0002
1003
0100
0100
,
0010
0000
0001
0000
1000
0001
1000
0000
,
0001
0010
1000
0010
,
0002
0000
1003
0100
,
1001
0100
2002
3003
,
0100
0000
0100
0001
0000
0100
0002
0000
,
0000
0000
1003
0000
0001
0100
0001
0000
,
1000
0000
0001
1000
0000
0001
2000
0000
,
0000
0000
0000
0000
,
0000
0000
0000
0000
,
3000
0000
0000
0000
;

//---------------dance-single - ----------------
#NOTES:
     dance-single:
     :
     Hard:
     12:
     0.501633,0.616713,0.314750,0.245898,0.108195,357.000000,325.000000,32.000000,25.000000,0.000000,0.000000,0.501633,0.616713,0.314750,0.245898,0.108195,357.000000,325.000000,32.000000,25.000000,0.000000,0.000000:
// measure 0
0000
0000
0000
0000
,  // measure 1
0000
0000
0000
0000
,  // measure 2
0001
0000
1000
0001
0000
0001
2000
0000
,  // measure 3
3000
0000
0000
0000
0002
0000
0003
1000
,  // measure 4
0001
0000
0001
0100
0010
0100
0002
0000
,  // measure 5
1003
0000
1000
0000
0001
0010
0100
0000
,  // measure 6
0101
0000
0010
0100
1000
0100
0020
0000
,  // measure 7
0031
0000
0001
0000
0100
0010
0100
0010
,  // measure 8
0110
0000
1000
0001
0000
0100
1000
0000
,  // measure 9
0001
0010
0100
0000
0001
0100
0001
0000
,  // measure 10
1001
1000
0001
1000
0001
1000
0002
0000
,  // measure 11
0000
0003
0101
0000
0100
0000
0001
1000
,  // measure 12
0001
0100
1000
0100
0001
0010
0000
1000
,  // measure 13
0002
0000
0003
0000
1000
0000
0100
0010
,  // measure 14
0001
0000
0100
0000
0010
0000
1000
0001
,  // measure 15
0002
0000
0003
0000
0100
0000
0010
0100
,  // measure 16
0000
0010
0000
0100
1000
0000
0000
0000
,  // measure 17
0100
0000
0010
0000
0001
0100
0001
0200
,  // measure 18
0000
0300
0001
1000
0001
0000
1000
0100
,  // measure 19
1000
0000
0001
0001
0010
0100
0001
0100
,  // measure 20
0000
1000
0000
0110
0000
0000
0001
0000
,  // measure 21
0110
0000
0000
0000
1000
0000
0000
0000
0010
0000
0000
0100
0010
0000
0100
0000
,  // measure 22
0001
0000
0101
0000
0110
0000
0011
0001
,  // measure 23
1010
0000
1000
0000
0110
0000
0010
0001
,  // measure 24
0000
0000
0001
0000
1000
0000
0001
0000
1000
0000
0000
0000
0001
0000
1000
0001
,  // measure 25
1000
0000
0000
0000
0001
0000
0000
0100
0001
0000
0000
0000
0101
0000
0000
0000
,  // measure 26
0001
0000
0100
0010
0100
0010
0110
1000
,  // measure 27
1010
0000
0100
0001
0001
1000
0010
0110
,  // measure 28
0000
0110
1000
0001
1001
1001
1001
0000
,  // measure 29
0101
0000
0000
0000
0001
0000
0000
1000
0100
0000
0010
0000
0000
0000
0001
0000
,  // measure 30
1001
0000
0100
0010
0200
0300
0010
0100
,  // measure 31
0110
0000
0000
0000
0010
0000
0000
0100
0001
0000
0100
0000
0000
0000
0001
0000
,  // measure 32
1000
0001
0001
1000
0000
0100
1000
0100
,  // measure 33
0011
0000
0000
0000
0001
0000
0000
0100
0001
0000
1000
0000
0001
0000
0020
0000
,  // measure 34
0030
0000
0001
0010
1000
0010
0001
1000
,  // measure 35
0002
0000
1000
0000
1003
0100
0001
0100
,  // measure 36
0000
0000
0010
0000
0010
0000
0001
0000
1000
0000
0001
0000
0100
0010
0100
0000
,  // measure 37
0020
0000
0000
0000
1030
0000
0001
0000
0100
0000
0000
0010
0100
0000
0001
0000
,  // measure 38
1000
0000
0000
0000
0001
0000
0010
0001
0010
0000
0000
0000
0001
0000
0020
0000
,  // measure 39
0000
0030
0001
1000
0010
0100
0001
1000
,  // measure 40
1001
0001
0100
0001
0010
0100
1000
0100
,  // measure 41
0020
0000
0000
0000
0031
0000
1000
0000
0001
0000
0000
0001
1000
0000
0001
0000
,  // measure 42
1001
0000
0100
0001
0010
0000
0001
0000
,  // measure 43
1000
0100
0001
0100
1000
0100
0010
0100
,  // measure 44
0010
0100
0110
0010
0200
0310
0002
1003
,  // measure 45
0002
0000
1003
0100
0010
0010
0001
1000
,  // measure 46
0010
0000
0000
0100
0001
0000
0000
0001
1000
0000
0000
0000
0001
0000
2000
0000
,  // measure 47
0000
0000
3000
0000
2000
0000
3000
0010
0100
0000
0010
0000
0200
0000
0300
0010
,  // measure 48
0100
0000
0001
0000
0002
0000
0003
1000
0001
0000
0001
1000
0000
0000
0100
0010
,  // measure 49
0001
0000
0010
0100
0000
0100
0010
0011
,  // measure 50
0002
0000
1000
1000
1003
0010
0100
0001
,  // measure 51
1000
0000
1001
0000
0110
0000
0010
0000
1000
0001
1000
0001
1000
0001
1000
0000
,  // measure 52
0100
0000
0100
0010
0000
0010
0012
0000
,  // measure 53
0003
0000
0001
0000
1000
0000
0010
0000
0001
0000
0010
0000
0100
0010
0100
0000
,  // measure 54
0010
0000
0000
0100
0000
0000
0001
0000
0000
1001
0000
0000
0000
0000
0001
1000
0000
0000
2002
0000
0000
0000
0000
0000
,  // measure 55
0000
0000
0000
0000
,  // measure 56
0000
0000
0000
0000
,  // measure 57
3003
0000
0000
0000
;
