#TITLE:Rokumeikan no kaijin;
#SUBTITLE:;
#ARTIST:Richard Akita;
#TITLETRANSLIT:;
#SUBTITLETRANSLIT:;
#ARTISTTRANSLIT:;
#GENRE:;
#CREDIT:from pop n music 14 / 12 CS;
#BANNER:CS12_SHOWA_KAIKITAN.png;
#BACKGROUND:;
#LYRICSPATH:;
#CDTITLE:;
#MUSIC:Richard Akita - Rokumeikan no kaijin.ogg;
#OFFSET:-0.440000;
#SAMPLESTART:24.438000;
#SAMPLELENGTH:16.000000;
#SELECTABLE:YES;
#BPMS:0.000000=180.000000
,192.000000=180.899994
,214.000000=182.000000
,264.000000=184.000000
,288.000000=185.500000
,312.000000=186.000000
;
#STOPS:
;
#BGCHANGES:;
#KEYSOUNDS:;
#ATTACKS:;

//---------------dance-single - ----------------
#NOTES:
     dance-single:
     :
     Beginner:
     4:
     0.158475,0.217391,0.017892,0.161031,0.000000,124.000000,122.000000,2.000000,18.000000,0.000000,0.000000,0.158475,0.217391,0.017892,0.161031,0.000000,124.000000,122.000000,2.000000,18.000000,0.000000,0.000000:
0000
0000
0000
0000
,
0000
0000
0001
0000
,
0000
0000
0000
0000
,
1000
0000
0000
0001
,
0000
0000
1000
0000
,
0000
0000
0000
0000
,
0100
0001
0000
1000
,
0001
0000
0001
1000
,
0000
0001
0100
0000
,
0010
0000
0010
0100
,
0000
0010
0100
0000
,
0001
1000
0000
0000
,
2000
3000
0000
0002
,
0003
0000
2000
3000
,
0000
0002
0003
0000
,
0200
0300
0000
0010
,
0000
0000
0010
0000
,
0000
0200
0300
0000
,
0001
0000
1000
0001
,
0000
1000
0001
0000
,
0000
1001
0000
0000
,
0001
0000
0001
1000
,
0000
0001
1000
0000
,
0001
1000
0000
0000
,
0002
0000
0003
0200
,
0000
0300
0002
0000
,
0003
1000
0000
0000
,
0001
0000
1000
0001
,
0000
1000
0001
0000
,
0000
0100
0000
0000
,
0010
0000
0000
0100
,
0000
0000
0010
0000
,
0000
0000
0000
0000
,
0020
0000
0030
0100
,
0000
0000
0200
0000
,
0000
0300
0000
0000
,
0001
0000
0000
1000
,
0000
0000
0001
0000
,
0000
0100
0000
0000
,
0001
0000
1000
0001
,
0000
0000
1000
0000
,
0001
1000
0000
0000
,
1000
0000
1000
0001
,
0000
0000
1000
0000
,
0010
0100
0000
0000
,
0001
0000
0001
1000
,
0000
0000
0001
0000
,
0010
0100
0000
0000
,
1000
0000
1000
0001
,
0000
0000
1000
0000
,
1000
0001
0000
0000
,
0002
0000
0000
0003
,
0000
0000
2000
0000
,
0000
3000
0000
0000
,
0001
0000
0000
0000
,
0000
0000
1000
0000
,
0000
0000
0000
0000
,
0001
0000
0000
1000
,
0000
0000
0001
0000
,
0000
0100
0000
0000
,
0001
0000
0000
0100
,
0000
0000
0010
0000
,
0000
1000
0000
1000
,
0001
0000
1000
0001
,
0000
0000
1000
0000
,
0000
0001
0000
0000
,
0100
0000
0000
0200
,
0000
0300
0000
0000
,
0000
0002
0000
0003
,
0000
0000
0000
2000
,
0000
3000
0000
0000
,
0000
0002
0000
0003
,
1000
0000
0001
1000
,
0000
0001
1000
0000
,
0000
1001
0000
0000
,
1000
0000
0000
0001
,
0000
0000
1000
0000
,
0001
1000
0000
0000
,
0100
0000
0000
0010
,
0000
0000
0200
0000
,
0000
0300
0000
0000
,
0010
0000
0000
0000
;

//---------------dance-single - ----------------
#NOTES:
     dance-single:
     :
     Easy:
     6:
     0.270940,0.326087,0.053677,0.205761,0.000000,212.000000,206.000000,6.000000,23.000000,0.000000,0.000000,0.270940,0.326087,0.053677,0.205761,0.000000,212.000000,206.000000,6.000000,23.000000,0.000000,0.000000:
0000
0000
0000
0000
,
0000
0000
0001
1000
,
0010
0100
0000
0000
,
1000
0001
0100
0001
,
0000
0000
1000
0001
,
0100
0001
0000
0000
,
0100
0001
1000
0002
,
0003
0100
0002
0003
,
0100
0001
0000
0000
,
0010
0100
0010
0200
,
0300
0010
2000
3000
,
0001
0100
0000
0000
,
1000
1000
1000
0100
,
0100
0000
0010
0010
,
0001
0001
0001
0000
,
1000
0001
0100
0010
,
0000
0000
0010
0100
,
0010
0100
0000
0000
,
1001
0000
1000
0001
,
1000
0001
0100
0000
,
0001
1000
0000
0001
,
1000
0000
0001
1000
,
0001
0100
0001
0000
,
0001
1000
0000
0000
,
0002
0100
0103
0100
,
0100
0000
0020
1000
,
1030
1000
0000
0000
,
0002
1000
1003
1000
,
1000
0000
0010
0000
,
0100
0010
0000
0000
,
0110
0000
0100
0100
,
0000
0000
0002
0000
,
0003
1000
0000
0000
,
0001
0100
0001
0100
,
0000
0001
0200
0000
,
0000
0301
0000
0000
,
0001
1000
0001
1000
,
0100
0010
0002
0000
,
0003
0100
0010
0100
,
0001
0000
1000
0001
,
1000
0001
1000
0000
,
0001
0100
0000
0000
,
1000
0100
0010
0001
,
0000
1000
0001
0000
,
0010
0100
0000
1000
,
0001
0000
0010
0100
,
0000
0000
2000
0000
,
3000
0010
0000
0000
,
1000
0001
1000
0001
,
0100
0001
0100
0001
,
1000
0002
0000
0003
,
1000
0010
0100
0010
,
0000
1000
0001
0000
,
0001
1000
0000
0000
,
1001
0000
0000
0101
,
0000
0000
2000
0000
,
3010
0010
0000
0100
,
0100
0000
0001
0001
,
0000
1000
1000
0000
,
0010
0010
0100
0000
,
0001
0001
0010
0200
,
0300
0010
0002
0003
,
1000
0001
1000
0001
,
0001
0000
1000
1000
,
0000
0100
1000
0000
,
0001
0001
0000
0010
,
0001
0000
0001
0200
,
0000
0310
0100
0000
,
0100
2000
0000
3000
,
0001
0000
0001
2000
,
0000
3010
0100
0000
,
0001
0020
0000
0030
,
1000
0000
0001
0010
,
0001
0010
0100
0000
,
0000
0011
0000
0000
,
2000
0000
3000
0100
,
0100
0010
0020
0000
,
0030
0002
0000
0103
,
0100
0000
0000
0110
,
0000
0000
0200
0000
,
0000
0300
0000
0000
,
0001
0000
0000
0000
;

//---------------dance-single - ----------------
#NOTES:
     dance-single:
     :
     Medium:
     9:
     0.405133,0.435454,0.277330,0.169977,0.000000,317.000000,286.000000,31.000000,19.000000,0.000000,0.000000,0.405133,0.435454,0.277330,0.169977,0.000000,317.000000,286.000000,31.000000,19.000000,0.000000,0.000000:
0000
0000
0000
0000
,
0000
0000
0001
1000
,
0010
0100
0010
0100
,
1000
0100
0010
0001
,
0010
0010
1000
0100
,
0110
0001
1001
0000
,
0100
0000
0001
0000
1000
0001
2000
0000
,
3000
0001
0002
0003
,
0100
0100
0110
0010
,
0010
0000
1000
0000
0010
0100
0020
0000
,
0030
0100
0002
0003
,
1000
0100
0010
0001
,
1001
0110
1001
0010
,
0010
0100
0010
0100
,
0001
0001
0002
0003
,
1001
0110
1001
0100
,
0000
0100
0010
0000
0010
0000
0000
0100
,
0010
0100
0010
0000
,
1001
0000
1000
0001
,
0100
0001
0100
0000
,
0001
1000
0010
0001
,
0010
1000
0001
1000
,
0100
0010
0100
1000
,
0001
0100
0010
0010
,
0100
0001
0100
0101
,
0101
0000
0110
0010
,
0100
0200
0300
0000
,
1001
0010
0100
0110
,
0000
1000
0110
0000
,
0100
0020
0030
0000
,
0100
0010
0100
0100
,
0001
1000
0001
0000
2000
0000
0000
0000
,
3001
0100
0001
0010
,
1001
0010
0100
1000
,
0001
0010
0001
0000
0020
0000
0000
0000
,
0031
0001
1000
0100
,
0001
0100
1000
1000
,
0100
0001
0100
1000
,
0100
0001
0100
1000
,
0001
0000
1000
0010
,
0100
0000
0001
0010
0001
0000
1000
0000
,
0010
0100
0010
0000
,
1100
0100
0010
0002
,
0013
0100
0020
0000
,
0130
0100
0000
1000
,
0001
0100
0010
0100
,
0110
0110
1000
0100
,
0010
0001
0200
0300
,
0010
0100
0001
0001
,
0100
0001
2000
0000
,
3001
0100
0001
0000
0100
0000
0100
0000
,
0010
0110
0000
1100
,
0100
0010
0002
0003
,
1000
0001
0100
0001
,
1001
1000
0100
0110
,
0010
0011
0002
0000
,
0103
0010
0110
0000
,
0100
0101
0001
0001
,
1000
0100
1000
0010
,
0100
0010
0100
0000
,
0101
0001
0010
1100
,
0010
0100
0002
0003
,
1000
0001
0100
0001
,
0001
0101
1000
1100
,
0100
0010
0001
1000
,
0001
0100
0000
0010
,
0100
0001
0001
0001
,
0001
0010
0100
1000
,
1000
1000
0100
0010
,
0001
0001
0001
0100
,
0010
0100
0010
0010
,
0010
0200
0000
0300
,
0001
0010
0001
0010
,
0100
1000
0010
0100
,
0001
0010
0100
1000
,
0002
0000
0003
0010
,
0100
1000
0010
0100
,
0001
0010
0001
0010
,
0001
0010
0100
1000
,
0010
0100
0002
0000
,
0000
0000
0003
0000
,
0100
0010
0000
0000
0000
0000
0000
0000
;

//---------------dance-single - ----------------
#NOTES:
     dance-single:
     :
     Hard:
     11:
     0.532935,0.544317,0.384684,0.169977,0.000000,417.000000,374.000000,43.000000,19.000000,0.000000,0.000000,0.532935,0.544317,0.384684,0.169977,0.000000,417.000000,374.000000,43.000000,19.000000,0.000000,0.000000:
// measure 0
0000
0000
0000
0000
,  // measure 1
0000
0000
0000
0000
0001
0000
1000
0010
,  // measure 2
0100
0010
0100
0100
,  // measure 3
0001
0000
0100
0001
0100
0000
0001
0000
,  // measure 4
0010
0000
0010
0000
0100
0000
0100
0010
,  // measure 5
0100
0000
0010
0001
0010
0000
0001
0010
,  // measure 6
0100
0000
0001
0000
1000
0001
2000
0000
,  // measure 7
3001
0001
0200
0310
,  // measure 8
0010
0100
0110
0110
,  // measure 9
0010
0000
1000
0000
0010
0100
0002
0000
,  // measure 10
1003
1000
0002
0013
,  // measure 11
0100
0100
0010
0001
,  // measure 12
1001
0110
0110
0010
,  // measure 13
0010
0000
0100
0001
0010
0000
0010
0000
,  // measure 14
0100
0100
1000
0001
,  // measure 15
1000
0001
0100
0000
0101
0000
0100
0000
,  // measure 16
0000
0100
0010
0100
0010
0000
0010
0100
,  // measure 17
0010
0100
0001
0000
0020
0000
0000
0000
,  // measure 18
0031
0000
1001
1001
,  // measure 19
0100
0001
0101
0001
,  // measure 20
0010
0100
1000
0001
,  // measure 21
0110
1000
0001
1001
,  // measure 22
0100
0000
0100
0000
0010
0000
1000
0100
,  // measure 23
0010
0100
0011
0011
,  // measure 24
0100
0001
0100
0101
,  // measure 25
0101
0000
0001
0100
0001
0000
0100
0000
,  // measure 26
0101
0101
0000
0000
,  // measure 27
1001
0110
1100
0011
,  // measure 28
0000
1000
0100
0010
0001
0000
0001
0010
,  // measure 29
0001
0010
0001
0000
0010
0000
0000
0000
,  // measure 30
0011
0000
0001
0010
0001
0000
0100
0010
,  // measure 31
0100
0001
2000
0000
,  // measure 32
3001
0000
0101
0000
0001
0010
0100
1000
,  // measure 33
0001
0000
0010
0001
0010
0000
0100
1000
,  // measure 34
0100
0010
0021
0000
,  // measure 35
0031
0001
1001
0100
,  // measure 36
0010
0000
0001
0010
0100
0010
0001
0000
,  // measure 37
0100
0010
0100
0000
0010
0000
1000
0100
,  // measure 38
0010
0100
1000
0000
0100
0000
0010
0000
,  // measure 39
0001
0000
1000
0001
1000
0000
0020
0000
,  // measure 40
0230
0000
0301
0010
0001
0000
0002
0000
,  // measure 41
2003
3001
0010
0001
,  // measure 42
1010
0101
0010
0002
,  // measure 43
0013
0100
0020
0001
,  // measure 44
0031
0010
0100
0000
1000
0000
1000
0000
,  // measure 45
0001
0000
0100
0010
0100
0000
0001
0010
,  // measure 46
0100
0010
0001
0000
1100
0000
0100
0000
,  // measure 47
0110
0000
0011
0000
0100
0000
0001
0010
,  // measure 48
0100
0100
1000
0101
,  // measure 49
0100
0001
0100
0000
0002
0000
0000
0000
,  // measure 50
0103
0001
0010
0000
0010
0000
0001
0100
,  // measure 51
0001
0100
0010
1000
,  // measure 52
0100
0010
0002
0003
,  // measure 53
1000
0010
0100
0000
0010
0100
0010
0100
,  // measure 54
0010
0110
0100
0110
,  // measure 55
0010
0100
0010
0000
2000
0000
0000
0000
,  // measure 56
3001
0100
0001
0000
0100
0000
0100
0000
,  // measure 57
0001
0101
0001
1001
,  // measure 58
1000
0100
1000
0100
1000
0000
0010
0000
,  // measure 59
0100
0010
0100
0000
0110
0000
0110
0000
,  // measure 60
0101
0000
0001
0000
1000
0001
0100
0000
,  // measure 61
0010
0100
0001
0000
2000
0000
3001
0000
,  // measure 62
1000
0001
0100
0000
0010
1000
0010
0000
,  // measure 63
0110
0000
0100
0010
0100
0001
0100
0000
,  // measure 64
0010
0100
0001
0100
0010
0000
1000
0100
,  // measure 65
0010
0000
0100
0010
0001
0000
0010
0100
,  // measure 66
0010
0000
0001
1000
0001
0000
1000
0000
,  // measure 67
0100
0000
0001
0000
1100
0000
1000
0100
,  // measure 68
1000
0010
0100
0010
,  // measure 69
0011
0000
0001
0010
0001
0000
0100
0000
,  // measure 70
0010
0000
0100
0000
0101
0000
0010
0100
,  // measure 71
0010
0020
0000
0030
,  // measure 72
0100
0000
0010
0001
0010
0000
1000
0000
,  // measure 73
0100
0000
0010
0001
0010
0000
0100
1000
,  // measure 74
0100
0010
0011
1000
,  // measure 75
0001
0000
0010
0001
0100
0000
0010
0100
,  // measure 76
0010
0100
0001
0000
0010
0000
0001
0100
,  // measure 77
0001
0000
0100
0000
0010
1000
0010
0100
,  // measure 78
0001
0010
0100
1000
,  // measure 79
0100
1000
0002
0000
,  // measure 80
0000
0000
0000
0000
0003
0000
0000
0010
,  // measure 81
0100
0010
0000
0000
0000
0000
0000
0000
;
