#VERSION:0.83;
#TITLE:Rhythm in Pocket;
#SUBTITLE:;
#ARTIST:BinBin WAVES;
#TITLETRANSLIT:;
#SUBTITLETRANSLIT:;
#ARTISTTRANSLIT:;
#GENRE:;
#ORIGIN:;
#CREDIT:;
#BANNER:Ec_Rhythm_in_Pocket.png;
#BACKGROUND:;
#PREVIEWVID:;
#JACKET:;
#CDIMAGE:;
#DISCIMAGE:;
#LYRICSPATH:;
#CDTITLE:;
#MUSIC:Rhythm_in_Pocket.ogg;
#OFFSET:-0.416000;
#SAMPLESTART:54.221001;
#SAMPLELENGTH:15.700000;
#SELECTABLE:YES;
#BPMS:0.000=126.000,
145.000=143.000;
#STOPS:;
#DELAYS:;
#WARPS:;
#TIMESIGNATURES:0.000=4=4;
#TICKCOUNTS:0.000=4;
#COMBOS:0.000=1;
#SPEEDS:0.000=1.000=0.000=0;
#SCROLLS:0.000=1.000;
#FAKES:;
#LABELS:0.000=Song Start;
#BGCHANGES:;
#KEYSOUNDS:;
#ATTACKS:
;

//---------------dance-single - ----------------
#NOTEDATA:;
#CHARTNAME:;
#STEPSTYPE:dance-single;
#DESCRIPTION:;
#CHARTSTYLE:;
#DIFFICULTY:Beginner;
#METER:2;
#RADARVALUES:0.072268,0.105390,0.000000,0.018736,0.000000,54.000000,54.000000,0.000000,2.000000,0.000000,0.000000,0.000000,0.000000,0.000000,0.072268,0.105390,0.000000,0.018736,0.000000,54.000000,54.000000,0.000000,2.000000,0.000000,0.000000,0.000000,0.000000,0.000000;
#CREDIT:;
#NOTES:
0000
0000
0000
0000
,
0000
0000
0000
0000
,
0000
0010
0000
0000
,
0000
0100
0000
0000
,
0000
0001
0000
0000
,
0000
1000
0000
0000
,
0000
0010
0000
0000
,
0000
0100
0000
0000
,
0000
0001
0000
0000
,
0000
1000
0000
0000
,
0000
0002
0000
0000
,
0000
0000
0003
0000
,
0000
1000
0000
1000
,
0000
1000
0000
0000
,
0000
0001
0000
0000
,
0000
0001
0000
0000
,
0000
0100
0000
0100
,
0000
0100
0000
0000
,
0000
0001
0000
0001
,
0000
0001
0000
0000
,
0000
1000
0000
0000
,
0000
0010
0000
0000
,
0000
0100
0000
0000
,
0000
0001
0000
0000
,
0000
1000
0000
0000
,
0000
1000
0000
0000
,
0000
0001
0000
0000
,
0000
0100
0000
0000
,
0000
0001
0000
0000
,
0000
0001
0000
0000
,
0000
1000
0000
0000
,
0000
1000
0000
0000
,
0000
0001
0000
0001
,
0000
0001
0000
0000
,
0000
0100
0000
0100
,
0000
0100
0000
0000
,
0000
0010
0000
0000
,
0000
0000
0000
0000
,
0000
0100
0000
0000
,
0000
0000
0000
0000
,
0000
0001
0000
0000
,
0000
0000
0000
0000
,
0000
0100
0000
0000
,
0000
0010
0000
0000
,
0000
0100
0000
0000
,
0000
0000
0000
0000
,
0000
0001
0000
0000
,
0000
1000
0000
0000
,
0000
0001
0000
0000
,
0000
1000
0000
0000
,
0000
0001
0000
0000
,
0000
0100
0000
0000
,
0000
0001
0000
0000
,
0000
1000
0000
0000
,
0000
0001
0000
0000
,
0000
0200
0000
0000
,
0000
0300
0000
0000
;

//---------------dance-single - ----------------
#NOTEDATA:;
#CHARTNAME:;
#STEPSTYPE:dance-single;
#DESCRIPTION:;
#CHARTSTYLE:;
#DIFFICULTY:Easy;
#METER:4;
#RADARVALUES:0.188699,0.263476,0.168625,0.084312,0.000000,141.000000,123.000000,18.000000,9.000000,0.000000,0.000000,0.000000,0.000000,0.000000,0.188699,0.263476,0.168625,0.084312,0.000000,141.000000,123.000000,18.000000,9.000000,0.000000,0.000000,0.000000,0.000000,0.000000;
#CREDIT:;
#NOTES:
0000
0000
0000
0000
,
0000
0000
0000
0000
,
0000
0010
0000
0000
,
0000
0100
0000
0000
,
0000
1001
0000
0000
,
0000
1000
0100
0010
,
0001
1000
0000
0000
,
0000
0001
0100
0001
,
0000
1001
0000
1000
,
0010
1000
0000
0001
,
0100
0002
0000
0000
,
0003
2000
0000
0000
,
3000
0010
1000
0001
,
0000
1000
0100
1000
,
0000
0001
0010
0001
,
0010
0001
0000
0100
,
0010
2000
0000
3002
,
0000
0203
0000
0000
,
0300
0020
0000
0000
,
0030
1000
0001
1000
,
0000
1001
0000
0100
,
0010
0100
0000
0001
,
0000
1001
0000
0010
,
0100
0010
0000
1000
,
0000
0001
0000
0001
,
0001
1000
0000
1000
,
0100
0100
0000
0010
,
0010
0001
0000
1000
,
0001
1000
0000
0001
,
0100
0001
0000
1000
,
0010
1000
0000
0001
,
0100
0010
0000
0010
,
1000
0001
0000
0001
,
0000
1001
0000
0110
,
0000
1010
0000
1000
,
1000
2000
0000
3000
,
0000
0010
0000
0000
,
0000
0100
0000
0000
,
0000
0110
0110
0000
,
0000
1000
0000
0001
,
0000
1001
1001
0000
,
0000
0001
0000
1000
,
0000
0110
0110
0000
,
0000
1010
1010
0000
,
0000
0101
0101
0000
,
0000
0001
0000
1000
,
0000
0001
0100
0001
,
0100
0001
0000
1000
,
0000
0010
1000
0010
,
1000
0010
0000
1000
,
0000
0001
0000
0100
,
0000
0010
0000
1000
,
0000
0001
0001
1000
,
1000
0002
0000
1003
,
0000
1000
0000
0000
,
0000
0120
0000
0000
,
0000
0030
0000
0000
;

//---------------dance-single - ----------------
#NOTEDATA:;
#CHARTNAME:;
#STEPSTYPE:dance-single;
#DESCRIPTION:;
#CHARTSTYLE:;
#DIFFICULTY:Medium;
#METER:7;
#RADARVALUES:0.323866,0.342519,0.140520,0.074944,0.000000,242.000000,227.000000,15.000000,8.000000,0.000000,0.000000,0.000000,0.000000,0.000000,0.323866,0.342519,0.140520,0.074944,0.000000,242.000000,227.000000,15.000000,8.000000,0.000000,0.000000,0.000000,0.000000,0.000000;
#CREDIT:;
#NOTES:
0000
0000
0000
0000
,
0000
0100
0010
1000
,
0001
0000
1001
0000
1000
0010
0000
0100
,
0000
0001
1000
0000
0000
0000
0010
0000
,
0100
0000
1001
0000
0000
0001
0000
1000
,
0001
1000
0001
0000
0100
0000
0010
0000
,
0110
0000
0101
0000
0000
0001
0000
1000
,
0000
0010
1000
0000
1001
0000
0100
0000
,
0001
0000
1000
0000
0000
0001
0000
1000
,
0010
1000
0001
0000
0100
0000
0010
0000
,
0110
0002
0000
2003
,
0000
3020
0000
0030
,
0000
0000
0110
0000
0100
0000
0010
0100
,
0010
0000
1000
0000
0001
0000
1000
0001
,
1000
0000
0001
0000
1001
0000
1000
0001
,
0100
0000
0001
1000
0010
0000
1000
0001
,
1000
0001
0100
0010
,
0000
1000
0010
0100
,
0001
0000
1000
0000
0010
0000
0100
0010
,
0100
0000
0010
0100
0010
0000
1000
0000
,
0001
0000
1001
0000
1000
0000
0100
1000
,
0100
0000
0010
0000
0001
0000
0010
0001
,
0010
0000
0001
0000
1000
0000
0010
0100
,
0010
1000
0001
1000
,
0001
0100
0001
0000
1000
0000
0010
0000
,
0100
0010
1000
0001
,
0100
0000
0110
0000
0010
0000
0100
0010
,
0100
0001
1000
0001
,
1000
0000
0001
0000
0100
0010
0000
0010
,
1000
0000
0001
0000
1000
0001
0000
0000
,
0100
0000
0020
0000
1030
0001
0000
1000
,
0001
0000
0110
0000
0010
0100
0010
0000
,
1000
0000
0001
0000
0100
0001
0000
1000
,
0010
0000
0100
0000
0001
1000
0001
0000
,
0100
0000
0010
0100
0010
0000
1000
0000
,
1001
0000
0001
0000
0100
0010
0000
0000
,
0100
0010
0100
0000
0000
0000
0020
0000
,
0000
2030
0000
3000
,
0000
0001
0100
0010
,
1000
0001
0100
0010
,
1000
0001
0100
0010
,
1000
0000
0001
1000
0001
0000
1000
0000
,
0001
1001
0001
0000
,
1000
1001
0001
0000
,
1000
0010
0100
0010
,
0100
0101
0000
1000
,
0000
0000
0001
0000
0100
0010
0100
0000
,
0010
0010
1000
0001
,
0000
0000
1000
0000
0001
1000
0001
0000
,
1000
0100
0000
0010
,
0001
0000
1000
0000
0001
0000
1000
0100
,
1000
0000
0001
0000
1000
0000
0001
0100
,
0001
0000
1000
0000
0010
0000
1000
0100
,
1000
0001
0100
0020
,
0230
0301
0000
0001
,
0000
1000
0000
1000
,
0000
0010
0000
0000
;

//---------------dance-single - ----------------
#NOTEDATA:;
#CHARTNAME:;
#STEPSTYPE:dance-single;
#DESCRIPTION:;
#CHARTSTYLE:;
#DIFFICULTY:Hard;
#METER:11;
#RADARVALUES:0.436283,0.474257,0.121784,0.243569,0.056208,326.000000,313.000000,13.000000,26.000000,0.000000,0.000000,0.000000,0.000000,0.000000,0.436283,0.474257,0.121784,0.243569,0.056208,326.000000,313.000000,13.000000,26.000000,0.000000,0.000000,0.000000,0.000000,0.000000;
#CREDIT:;
#NOTES:
0000
0000
0000
0000
,
0000
0000
0100
0000
0010
0000
1000
0001
,
1000
0000
1001
0000
1000
0010
0000
0100
,
0010
0100
0010
0000
0000
0000
0200
0000
,
0310
0000
0110
0000
0000
1000
0000
0001
,
0100
0010
1000
0000
0001
0000
1000
0010
,
1000
0000
1001
0000
0001
0100
0000
0010
,
1000
0001
1000
0000
0001
0100
0010
0000
,
0010
0100
0001
0000
1000
0100
0000
0010
,
0001
0000
1001
0000
0110
0000
1000
0100
,
1000
0000
0001
0000
0100
0000
0010
1000
,
0001
0000
0100
0010
1000
0001
0100
0000
,
0010
0100
0110
1000
0001
1000
0100
0010
,
0001
1000
0100
0010
0001
0010
0100
0001
,
0100
1000
0010
0100
0000
0000
0002
0000
,
1003
0010
0100
0001
0010
0001
1000
0100
,
0010
0001
2000
0000
0010
0000
3200
0000
,
0000
0300
0010
0002
0000
0000
1003
0000
,
0010
0200
0001
0010
,
0301
0000
1000
0001
1000
0000
0001
0100
,
0001
1000
0001
0100
0010
1000
0100
0010
,
0100
1000
0100
0010
0001
0100
0010
0100
,
0000
0000
0010
1000
0001
0100
0010
1000
,
0001
0100
0110
0010
1000
0001
1000
0010
,
0000
0010
0110
0000
0001
1000
0020
0000
,
0230
0000
0301
0000
1000
0010
1000
0001
,
0000
0001
1000
1000
0010
0100
0001
0010
,
0100
0010
0001
0010
0200
0300
2000
0000
,
3001
0100
0102
0000
0000
0000
0003
0100
,
0010
1000
0002
0000
0000
0000
0003
1000
,
0010
0100
0002
0000
0000
0000
0003
1000
,
0100
0010
0001
1001
0000
0000
0010
0000
,
1000
0000
0020
0000
0130
0010
0100
0001
,
1000
0001
1000
0100
0000
0000
0010
0000
,
0001
0000
2020
0000
3030
0010
0100
0001
,
0000
1000
0010
0200
0000
0000
0000
0300
,
0010
0010
0010
0000
0000
0000
0100
0010
,
0100
0000
0000
0000
0110
0000
0000
0000
0000
0000
0010
0000
1000
0000
0001
0100
,
0000
0001
2000
0000
0010
0000
3001
0000
,
0100
0000
0010
0000
1000
0000
0000
0000
0001
0000
1000
0000
0001
0000
1000
0001
,
0000
1000
0020
0000
1000
0000
0130
0000
,
0001
0000
1000
0000
0001
0000
0000
0000
1000
0000
0100
0000
0010
0000
0001
1000
,
0000
0000
1000
0000
0002
0000
0000
0000
0103
0000
0010
0000
0100
0000
0010
1000
,
0000
0000
0001
0000
1000
0000
0000
0000
0010
0000
0100
0000
0010
0000
0100
0001
,
0000
0100
0010
1000
0001
0100
0010
1000
,
0001
0000
0100
0010
0000
0000
0000
0000
0000
0000
0100
0000
0010
0000
1000
0001
,
0000
0100
0002
0000
1000
0000
1003
0000
,
0010
0000
0100
0000
0110
0000
0000
0000
0000
0000
0010
0000
1000
0000
0001
1000
,
0000
0001
0200
0000
0010
0000
0310
0000
,
0100
0000
0001
0000
1000
0000
0000
0000
0001
0000
1000
0000
0001
0000
0100
0001
,
0000
0000
1000
0000
0002
0000
0000
0000
0003
0000
0100
0000
0010
0000
0100
0001
,
0000
0000
1000
0000
0002
0000
0000
0000
0003
0000
1000
0000
0001
0000
1000
0010
,
0000
0000
0100
0000
0001
0000
0100
0000
0001
0000
1000
0000
0010
0000
0000
0100
,
0000
0002
2000
0000
0000
0000
0000
0000
,
3003
0000
0010
0000
0100
0000
0001
1000
,
0001
0100
0010
0000
1000
0010
0100
0010
,
1000
0001
0000
0000
;

//---------------dance-single - ----------------
#NOTEDATA:;
#CHARTNAME:;
#STEPSTYPE:dance-single;
#DESCRIPTION:;
#CHARTSTYLE:;
#DIFFICULTY:Challenge;
#METER:13;
#RADARVALUES:0.555390,0.684276,0.168625,0.112416,0.196729,415.000000,397.000000,18.000000,12.000000,0.000000,0.000000,0.000000,0.000000,0.000000,0.555390,0.684276,0.168625,0.112416,0.196729,415.000000,397.000000,18.000000,12.000000,0.000000,0.000000,0.000000,0.000000,0.000000;
#CREDIT:;
#NOTES:
// measure 0
0000
0000
0000
0000
,  // measure 1
0000
0000
0000
0000
0100
0000
0010
0100
0010
0000
1000
0000
0001
0000
0001
0000
,  // measure 2
1000
0000
1001
0000
1000
0010
0000
0010
,  // measure 3
0100
1000
0100
0000
0001
0000
1000
0000
,  // measure 4
0010
1000
0010
0000
0000
1000
0000
0001
,  // measure 5
0100
0010
0100
0000
0001
1000
0010
0010
,  // measure 6
1000
0000
0001
0000
1001
0000
0000
1000
0001
0000
0100
0000
0000
0000
0010
0000
,  // measure 7
1000
0000
0001
0000
1010
0000
0000
0100
0001
0000
0100
0000
0010
0000
1000
0010
,  // measure 8
1000
0010
0100
0000
0001
0000
0000
1000
0001
0000
0100
0000
0000
0000
0010
0000
,  // measure 9
0100
0010
0101
0000
0110
0010
1000
0000
,  // measure 10
1000
0000
0000
0000
0101
0000
0000
0000
0100
0000
0010
0100
0010
0000
1000
0000
,  // measure 11
0010
0000
0100
0000
0001
0000
0010
0100
1000
0000
0001
0100
0010
0000
1000
0000
,  // measure 12
0010
0100
0010
0000
0110
0000
1000
0000
0001
0000
1000
0000
0010
0000
0010
0000
,  // measure 13
0100
0100
0001
0010
0001
0010
0100
1000
,  // measure 14
0100
1000
0010
0100
0001
0000
2000
0000
,  // measure 15
3001
0010
0100
0001
0100
0001
0100
1000
,  // measure 16
0010
1000
0200
0000
0310
0000
0002
0000
,  // measure 17
0013
0000
1000
0020
0000
0030
1000
0100
,  // measure 18
0010
0000
0100
0001
0100
0001
0100
1000
,  // measure 19
0010
1000
0001
0100
0100
0000
0001
0100
,  // measure 20
0001
0000
1000
0100
0010
0001
1000
0010
,  // measure 21
0100
1000
0100
0010
0001
0010
1000
0100
,  // measure 22
0000
0100
0010
0001
0001
0100
0010
1000
,  // measure 23
0001
0100
1000
0100
0001
0000
1000
0001
,  // measure 24
0000
0000
0010
0100
0010
0000
0001
0000
1000
0000
0100
0000
0020
0000
0001
0000
,  // measure 25
0031
1000
0001
0100
1000
0100
0001
1000
,  // measure 26
0000
1001
0010
1000
0010
0100
0001
1000
,  // measure 27
0100
0010
1000
0010
1000
0010
0001
0100
,  // measure 28
0001
0100
0002
0000
0100
0100
0003
0100
,  // measure 29
0110
1000
0002
0000
1000
1000
0003
1000
,  // measure 30
0100
0010
0002
0000
1000
1000
0003
1000
,  // measure 31
0110
0110
0001
1000
0000
0010
0100
0000
,  // measure 32
0010
0000
0200
0000
0010
0010
0300
0001
,  // measure 33
0010
0100
1000
0100
0010
0000
0001
0000
,  // measure 34
1000
0000
1000
0010
1000
0001
0001
0100
,  // measure 35
0110
0010
1000
0002
0000
0000
0003
0000
,  // measure 36
0100
0100
0010
0000
0000
0000
0100
0010
,  // measure 37
0100
0010
0100
0000
0010
0000
0000
0000
0000
0000
1000
0000
0001
0000
1000
0001
,  // measure 38
0000
0100
0110
0000
0010
1000
0010
0001
,  // measure 39
0010
1000
0100
0010
0001
0010
0100
0010
,  // measure 40
0001
1000
1100
0000
0100
0010
0001
0000
,  // measure 41
1000
0000
0010
0000
0100
0000
0001
0000
0001
0000
1000
0000
0100
0000
0010
0001
,  // measure 42
0000
0000
1000
0000
1100
0000
0000
0000
0010
0000
0100
0000
0001
0000
1000
0001
,  // measure 43
0000
0000
0100
0000
0020
0000
0000
0000
1030
0000
0001
0000
0100
0000
0010
0100
,  // measure 44
0000
0010
1000
0100
1000
0100
0010
0001
,  // measure 45
0010
0000
0001
1000
0000
0000
0000
0000
0010
0000
0100
0000
0010
0100
0010
0100
,  // measure 46
0010
0100
0010
0100
0010
0000
0000
0000
1000
0000
0001
0000
0100
0000
0001
0000
,  // measure 47
1000
0000
0000
0000
1010
0000
0000
0000
0100
0001
0100
0001
0100
0000
0000
0000
,  // measure 48
0001
0000
1000
0000
0001
0000
1000
0001
1000
0000
0010
0000
0100
0010
0100
0010
,  // measure 49
0100
0000
0000
0000
0010
0000
1000
0000
0100
0000
0010
0000
0001
0000
1000
0001
,  // measure 50
0000
0000
1000
0000
0001
0000
0100
0010
0100
0000
0001
0000
1000
0000
0010
0100
,  // measure 51
0000
0000
0001
0000
0100
0000
0001
1000
0001
0000
1000
0000
0010
0000
1000
0100
,  // measure 52
0000
0000
0010
0000
0011
0000
0001
0000
1000
0000
0100
0000
1010
0000
0000
0010
,  // measure 53
0000
0100
0020
0000
0000
0000
0000
0000
,  // measure 54
0000
0000
0000
0000
1030
0000
0001
1000
0001
0000
1000
0001
1000
0000
0001
1000
,  // measure 55
0001
0000
1000
0001
1000
0000
0010
0100
0010
0000
1000
0001
1000
0001
1000
0001
,  // measure 56
1000
0010
0100
0010
0000
0000
0000
0000
0000
0000
0000
0000
0000
0000
0000
0000
;
