#TITLE:Rain;
#SUBTITLE:;
#ARTIST:Claude;
#TITLETRANSLIT:;
#SUBTITLETRANSLIT:;
#ARTISTTRANSLIT:;
#GENRE:;
#CREDIT:;
#BANNER:;
#BACKGROUND:;
#LYRICSPATH:;
#CDTITLE:;
#MUSIC:Claude - Rain--RnB.ogg;
#OFFSET:-0.193000;
#SAMPLESTART:42.244999;
#SAMPLELENGTH:17.200001;
#SELECTABLE:YES;
#BPMS:0.000000=183.979996
;
#STOPS:257.000000=1.303000
;
#BGCHANGES:;
#KEYSOUNDS:;
#ATTACKS:;

//---------------dance-single - ----------------
#NOTES:
     dance-single:
     :
     Beginner:
     2:
     0.078310,0.148256,0.016611,0.049834,0.000000,66.000000,64.000000,2.000000,6.000000,0.000000,0.000000,0.078310,0.148256,0.016611,0.049834,0.000000,66.000000,64.000000,2.000000,6.000000,0.000000,0.000000:
0000
0000
0000
0000
,
0000
0000
0000
0000
,
0000
0000
0000
0000
,
0000
0000
0000
0000
,
0000
0000
0000
0000
,
0000
0000
0000
0000
,
0000
0000
0000
0000
,
0000
0000
0000
0000
,
0000
0100
0000
0000
,
0000
0010
0000
0000
,
0000
1000
0000
0000
,
0000
0001
0000
0000
,
0000
0001
0000
0000
,
0000
0000
0000
0000
,
0000
1000
0000
0000
,
0000
1000
0000
0000
,
0000
0001
0000
0000
,
0000
0100
0000
0000
,
0000
0010
0000
0000
,
0000
0000
0000
0000
,
0000
0010
0000
0000
,
0000
1000
0000
0000
,
0000
0001
0000
0000
,
0000
0100
0000
0000
,
0000
0002
0000
0003
,
0000
0000
0000
0000
,
0000
1000
0000
0000
,
0000
0001
0000
0000
,
0000
0100
0000
0000
,
0000
0000
0000
0000
,
0000
0010
0000
0000
,
0000
0100
0000
0000
,
0000
0010
0000
0000
,
0000
1000
0000
0000
,
0000
0001
0000
0000
,
0000
0100
0000
0000
,
0000
0200
0000
0000
,
0000
0000
0000
0000
,
0000
0300
0000
0000
,
0000
0000
0000
0000
,
0000
0001
0000
0000
,
0000
1000
0000
0000
,
0000
0001
0000
0000
,
0000
1000
0000
0000
,
0000
0002
0000
0000
,
0000
0000
0000
0000
,
0000
0003
0000
0000
,
0000
1000
0000
0000
,
0000
1001
0000
0000
,
0000
0001
0000
0000
,
0000
1000
0000
0000
,
0000
0000
0000
0000
,
0000
0100
0000
0000
,
0000
0000
0000
0000
,
0000
0010
0000
0000
,
0000
0000
0000
0000
,
0000
1001
0000
0000
,
0000
1000
0000
0000
,
0000
0001
0000
0000
,
0000
0010
0000
0000
,
0000
0100
0000
0000
,
0000
1000
0000
0000
,
0000
0002
0000
0000
,
0000
0003
0000
0000
,
0000
0100
0000
0000
,
0000
0100
0000
0000
,
0000
0010
0000
0000
,
0000
0100
0000
0000
,
0000
0001
0000
0000
,
0000
2000
0000
0000
,
0000
0000
0000
3000
,
0000
0001
0000
0000
,
0000
0001
0000
0000
,
0000
1000
0000
0000
,
0000
0010
0000
0000
,
0000
0100
0000
0000
,
0000
0000
0000
0000
,
0000
0002
0000
0000
,
0000
0000
0000
0003
,
0000
1000
0000
0000
,
0000
0001
0000
0000
,
0000
1000
0000
0000
,
0000
0000
0000
0000
,
0000
0010
0000
0000
,
0000
0000
0000
0000
,
0000
0100
0000
0000
,
0000
0001
0000
0000
,
0000
0100
0000
0000
,
0000
0001
0000
0000
,
0000
1000
0000
0000
;

//---------------dance-single - ----------------
#NOTES:
     dance-single:
     :
     Easy:
     5:
     0.199336,0.259448,0.107973,0.132890,0.000000,168.000000,155.000000,13.000000,16.000000,0.000000,0.000000,0.199336,0.259448,0.107973,0.132890,0.000000,168.000000,155.000000,13.000000,16.000000,0.000000,0.000000:
0000
0000
0000
0000
,
0000
0000
0000
0000
,
0000
0000
0000
0000
,
0000
0000
0000
0000
,
0000
0100
0000
0010
,
0000
0000
0000
0010
,
0000
1000
0000
0001
,
0000
0000
0000
0001
,
0000
1000
0000
1000
,
0000
0001
0000
0001
,
0000
0100
0000
0100
,
0000
0010
0000
1000
,
0000
0001
0000
1000
,
0000
1000
0000
0001
,
0000
0002
0000
1000
,
0000
0000
0003
1000
,
0000
1001
0000
0001
,
0000
0200
0000
0310
,
0000
1000
0000
1001
,
0000
0010
0000
0110
,
0000
1000
0000
0001
,
0000
1000
0000
0010
,
0000
1000
0000
0001
,
0000
0100
0000
0010
,
0000
0200
0000
0310
,
0000
0100
0000
1001
,
0000
1000
0000
0001
,
0000
1000
0000
0001
,
0000
0100
0000
0110
,
0000
0010
0000
1000
,
0000
0002
0000
1000
,
0000
1000
0000
0103
,
0000
0201
0000
0301
,
0000
1000
0000
0001
,
0000
1002
0000
1003
,
0000
0001
0000
0100
,
0000
0020
0000
0100
,
0000
0031
0000
1000
,
0000
0002
0000
0100
,
0000
1003
0000
0000
,
0000
2001
0000
3001
,
0000
0100
0000
0010
,
0000
0200
0000
0301
,
0000
1000
0000
0001
,
0000
0200
0000
0010
,
0000
1300
0000
0001
,
0000
1000
0000
1001
,
0000
0001
0000
0011
,
0000
0001
0000
1000
,
0000
0100
0000
0000
,
0000
0100
0000
0010
,
0000
0002
0000
0003
,
0000
1000
0000
0010
,
0000
0100
0000
0000
,
0000
0100
0000
0001
,
0000
0010
0000
0100
,
0000
1000
0000
0010
,
0000
0100
0000
0000
,
0000
0001
0000
0100
,
0000
1000
0000
0000
,
0000
0100
0000
0001
,
0000
0100
0000
0000
,
0000
1000
0000
0010
,
0000
1000
0010
1000
,
0020
0030
0000
0000
,
0000
0110
0000
0001
,
0000
1000
0000
1001
,
0000
0100
0000
0001
,
0000
1000
0000
1000
,
0000
0002
0000
0000
,
0000
2000
0003
0000
,
0000
3002
0000
0000
,
0003
0000
0000
0000
,
0000
0101
0000
0000
,
0000
1000
0000
0010
,
0000
0100
0000
0100
,
0000
0001
0000
1000
,
0000
0001
0100
0001
,
0000
0000
0000
1000
,
0000
0010
0100
0010
,
0000
0000
0000
0100
,
0000
0010
0000
1000
,
0000
0010
0000
0010
,
0000
0100
0000
0001
,
0000
0001
0000
1000
,
0000
0100
0000
0100
,
0000
0010
0000
0001
,
0000
1000
0000
0100
,
0000
0010
0000
0100
,
0000
1000
0000
0000
;

//---------------dance-single - ----------------
#NOTES:
     dance-single:
     :
     Medium:
     7:
     0.310869,0.370640,0.058140,0.224252,0.000000,262.000000,255.000000,7.000000,27.000000,0.000000,0.000000,0.310869,0.370640,0.058140,0.224252,0.000000,262.000000,255.000000,7.000000,27.000000,0.000000,0.000000:
0000
0000
0000
0000
,
0000
0000
0000
0000
,
0000
0000
0000
0000
,
0000
0000
0000
0000
,
0000
0110
1000
1001
,
0000
0001
0000
0100
0000
0001
0000
1000
,
0000
0002
0000
0000
0003
0000
1000
0000
,
0000
0002
0000
0000
0003
0000
0100
0000
,
0010
0110
0000
1000
,
0000
0001
0100
0001
,
0000
1000
0100
1000
,
0000
0001
0010
0001
,
0000
0000
0100
0000
0000
0010
0000
0100
,
0000
0000
0010
0000
0000
0010
0000
0100
,
0000
0002
0000
1003
,
0000
0100
0000
0000
0010
0000
0011
0000
,
0001
2000
0000
3010
,
0100
0010
0200
0000
0000
0000
0301
0000
,
1000
0001
0001
0100
,
0010
0010
1000
0001
,
0100
0002
0000
1003
,
0000
0100
0010
0000
,
0010
0001
0000
1000
,
0000
0020
0000
0230
,
0000
0301
0000
1000
,
0001
0100
0002
0000
0000
0000
0103
0000
,
0010
0010
1000
1000
,
0001
0100
0010
1000
,
0100
0020
0000
0031
,
0000
0001
1000
0000
,
1000
0001
0000
0100
,
0000
0020
0000
2030
,
0000
3010
0100
0001
,
1000
0010
0100
0001
,
1000
0001
0001
1000
,
2000
0000
3001
1001
,
0000
0100
0000
0010
,
0000
1000
0001
0100
,
0000
0100
0010
0100
,
0001
1000
0001
0100
,
0010
1000
0100
0010
,
0001
1000
0100
0010
,
0001
0100
0010
1000
,
0010
0100
0010
1000
,
0010
0200
0000
0010
,
0300
0020
0000
0100
,
0030
0000
1000
0000
0000
0001
0000
1000
,
0000
0001
0000
0100
0000
0000
0010
0000
,
0000
0200
0001
0301
,
0000
2000
0010
3010
,
0000
0200
0001
0301
,
0000
0020
0100
0130
,
0000
1000
0001
0100
,
0000
0100
0010
0000
,
0010
1000
0000
0000
,
0000
0001
0000
1000
,
0000
1000
0100
1000
,
0200
0000
0300
0010
,
0000
0010
0001
0010
,
0002
0000
0003
1000
,
0000
0010
0100
0001
,
0100
0000
0100
0001
,
0000
2000
0000
0000
,
3000
0010
1000
0010
,
0100
0010
0100
0010
,
0000
0110
0010
1000
,
0000
1000
0010
0100
,
0100
0101
0001
1000
,
0000
0100
0010
0001
,
0000
2000
0000
0010
,
0000
0001
0000
3010
,
0000
0200
0000
0310
,
0000
0000
0010
0100
,
0010
1000
0001
0100
,
0001
1000
0001
0100
,
0001
1000
0010
0001
,
0010
1000
0010
0001
,
0010
0200
0000
0301
,
0000
0100
0010
0100
,
0000
0010
0100
0010
,
0000
1000
0001
1000
,
0001
0200
0000
0310
,
0010
1000
0000
1000
,
0000
0001
0100
0001
,
0000
1000
0010
1000
,
0000
0000
0001
0000
0000
0100
0000
0001
,
0000
0100
0000
0001
0000
0000
0000
0000
,
1000
0000
0010
0000
0000
0100
0000
0010
,
0000
0100
0000
0001
0000
2000
0000
0000
,
0000
3000
0001
0000
0000
0000
0000
0000
;

//---------------dance-single - ----------------
#NOTES:
     dance-single:
     :
     Hard:
     10:
     0.418842,0.593023,0.107973,0.340532,0.000000,353.000000,340.000000,13.000000,41.000000,0.000000,0.000000,0.418842,0.593023,0.107973,0.340532,0.000000,353.000000,340.000000,13.000000,41.000000,0.000000,0.000000:
// measure 0
0000
0000
0000
0000
,  // measure 1
0000
0000
0000
0000
,  // measure 2
0000
0000
0000
0000
,  // measure 3
0000
0000
0000
0000
,  // measure 4
0000
0000
0110
0000
1000
0001
0000
0100
,  // measure 5
0000
0001
0000
1000
0000
0010
0000
1000
,  // measure 6
0000
0002
0000
0000
0003
0000
0101
0000
,  // measure 7
0000
0200
0000
0000
0300
0000
0010
1000
,  // measure 8
0001
0000
1000
0100
1000
0010
0000
0100
,  // measure 9
0000
0000
0001
0100
0010
0100
0000
0001
,  // measure 10
1000
0000
0010
0100
0010
0100
0001
0000
,  // measure 11
1000
0001
1000
0010
0100
0010
0000
0010
,  // measure 12
1000
0000
0001
0000
0000
0100
0000
0010
,  // measure 13
0100
0000
0001
0000
0000
0001
0000
1000
,  // measure 14
0010
0200
0000
0310
,  // measure 15
0100
0010
0000
0010
0100
0000
1001
0000
,  // measure 16
1000
0100
2000
0000
0000
3000
0001
0000
,  // measure 17
0100
0010
0200
0000
0000
0300
0010
0000
,  // measure 18
1000
0010
1000
0000
0100
0010
0100
1000
,  // measure 19
0100
0010
0100
0000
1000
0100
0010
0001
,  // measure 20
0010
0001
0002
0000
0000
0000
1003
0000
,  // measure 21
0000
0010
0100
0000
,  // measure 22
0100
0020
0030
2000
,  // measure 23
3000
0002
0003
0200
,  // measure 24
0300
0202
0303
0100
,  // measure 25
0010
0100
0020
0000
0000
0030
1000
0000
,  // measure 26
0001
0010
0001
0010
0001
0100
0010
0100
,  // measure 27
0001
1000
0100
1000
0001
0000
0100
0010
,  // measure 28
0100
0010
0200
0000
0000
0000
0300
0000
,  // measure 29
0000
0010
0100
0001
,  // measure 30
1000
0010
2000
0000
3000
0000
0002
0000
,  // measure 31
0003
0200
0300
0010
,  // measure 32
0100
0010
0010
1000
,  // measure 33
0001
0100
0100
1000
,  // measure 34
0001
0010
0010
1000
,  // measure 35
0001
0200
0010
0310
,  // measure 36
0100
0002
0000
1003
,  // measure 37
0000
0010
0000
0000
0100
0000
0101
0000
,  // measure 38
0000
2000
0000
0010
,  // measure 39
0000
3001
0010
0001
,  // measure 40
1000
0001
0001
1000
,  // measure 41
0010
1000
1000
0001
,  // measure 42
0100
0001
0001
1000
,  // measure 43
0020
0000
0130
0110
,  // measure 44
0000
0002
0000
0100
,  // measure 45
0000
0000
1000
0000
0000
0000
0103
0010
,  // measure 46
0100
0000
0010
0000
1000
0010
0000
0100
,  // measure 47
0010
0100
0001
1000
0001
0000
0100
0000
,  // measure 48
0010
0200
0001
0310
,  // measure 49
1000
0010
0001
2000
,  // measure 50
0100
3010
0001
0100
,  // measure 51
0020
0000
0000
1030
,  // measure 52
0000
0001
0100
0010
,  // measure 53
0000
0000
0010
0000
0000
1000
0001
0100
,  // measure 54
0001
0100
0000
0020
0000
0000
0000
0030
,  // measure 55
1000
0100
1000
0000
0010
0000
0100
0000
,  // measure 56
0001
2000
0100
3001
,  // measure 57
0100
0002
0010
1003
,  // measure 58
0010
0100
0001
0100
,  // measure 59
1000
0001
0010
1000
,  // measure 60
0100
0000
0020
0000
0000
0000
0031
0010
,  // measure 61
0001
0100
0001
0000
1000
0010
0100
0010
,  // measure 62
0100
0001
0000
2000
0000
0000
0000
3000
,  // measure 63
0001
0000
0200
0300
0020
0030
0200
0300
,  // measure 64
0010
0100
0010
0000
0100
0000
0001
0000
,  // measure 65
1000
1001
0001
0010
,  // measure 66
0100
0010
0001
0010
,  // measure 67
1000
0010
0001
0100
,  // measure 68
0100
0000
0010
0100
0010
0000
1010
0000
,  // measure 69
0100
0002
0000
0103
,  // measure 70
0000
0010
0000
0000
0100
0000
0001
0000
,  // measure 71
1000
0002
0000
1003
,  // measure 72
0000
0010
0000
0100
0010
0000
1001
0000
,  // measure 73
0001
1001
0100
0010
,  // measure 74
0001
1000
0100
0010
,  // measure 75
0001
2000
0100
3100
,  // measure 76
0002
0000
0103
0101
,  // measure 77
1000
0002
0000
0103
,  // measure 78
0000
0001
0000
0000
0001
0000
1000
0000
,  // measure 79
0010
0100
0010
0000
1000
0100
0000
0010
,  // measure 80
0001
1000
0100
1000
0100
0000
0010
0000
,  // measure 81
0011
0200
0000
0301
,  // measure 82
1000
0001
0000
0100
,  // measure 83
0010
1000
0001
0001
,  // measure 84
2000
0000
0000
0000
3010
0000
0100
0010
,  // measure 85
0100
0000
0110
0000
0000
0100
0000
0001
,  // measure 86
0000
1000
0000
0001
0000
0000
0010
0000
,  // measure 87
0001
0010
0100
0000
0000
0100
0000
0010
,  // measure 88
0000
0001
0000
1000
0100
0020
0000
0000
,  // measure 89
0100
0031
0000
0000
;
