#VERSION:0.83;
#TITLE:Railroad Force;
#SUBTITLE:;
#ARTIST:Mukaiya Minoru;
#TITLETRANSLIT:;
#SUBTITLETRANSLIT:;
#ARTISTTRANSLIT:;
#GENRE:TRAIN SIM;
#ORIGIN:;
#CREDIT:from pop n music 13;
#BANNER:Mukaiya Minoru - Railroad Force.png;
#BACKGROUND:;
#PREVIEWVID:;
#JACKET:;
#CDIMAGE:;
#DISCIMAGE:;
#LYRICSPATH:;
#CDTITLE:;
#MUSIC:Mukaiya Minoru - Railroad Force.mp3;
#OFFSET:-0.032000;
#SAMPLESTART:27.431000;
#SAMPLELENGTH:12.000000;
#SELECTABLE:YES;
#BPMS:0.000=140.000;
#STOPS:;
#DELAYS:;
#WARPS:;
#TIMESIGNATURES:0.000=4=4;
#TICKCOUNTS:0.000=4;
#COMBOS:0.000=1;
#SPEEDS:0.000=1.000=0.000=0;
#SCROLLS:0.000=1.000;
#FAKES:;
#LABELS:0.000=Song Start;
#BGCHANGES:;
#KEYSOUNDS:;
#ATTACKS:
;

//---------------dance-single - ----------------
#NOTEDATA:;
#CHARTNAME:;
#STEPSTYPE:dance-single;
#DESCRIPTION:;
#CHARTSTYLE:;
#DIFFICULTY:Beginner;
#METER:4;
#RADARVALUES:0.180675,0.225279,0.069164,0.069164,0.000000,128.000000,121.000000,7.000000,7.000000,0.000000,0.000000,0.000000,0.000000,0.000000,0.180675,0.225279,0.069164,0.069164,0.000000,128.000000,121.000000,7.000000,7.000000,0.000000,0.000000,0.000000,0.000000,0.000000;
#CREDIT:;
#NOTES:
0000
0000
0000
0000
,
0000
0000
0000
0000
,
1000
0000
1000
0000
,
0001
0000
0001
0000
,
0100
0000
0010
0000
,
0010
0000
0100
0000
,
0001
0000
1000
0000
,
1000
0000
0001
0000
,
0010
0010
0010
0000
,
0100
0100
0100
0000
,
1000
0000
0001
0000
,
0200
0300
0001
0000
,
2000
3000
0001
0000
,
0200
0300
0010
0000
,
0001
1000
0001
0000
,
0100
0010
0100
0000
,
0110
0000
1000
0000
,
0001
0000
1000
0000
,
1000
0100
0010
0000
,
0001
0000
1000
0000
,
0001
0010
0100
0000
,
1000
0000
0001
0000
,
0001
0010
0100
0000
,
1000
0000
0000
0000
,
0101
0000
0000
0000
,
0001
0000
0000
1000
,
1000
0000
0000
0001
,
0001
0000
0000
0100
,
0100
0000
0100
0000
,
0010
0010
0010
0000
,
1000
0000
0001
0000
,
0010
0000
0010
0100
,
0010
0000
0002
0000
,
1003
0000
1000
0000
,
0010
0000
0200
0000
,
0301
0000
0001
0000
,
1001
0000
0200
0000
,
0301
0000
0010
0000
,
0100
0000
2000
0000
,
3010
0000
0010
0010
,
0010
0000
0100
0010
,
0100
0000
0001
0000
,
0100
0001
0100
0000
,
0010
0000
1000
0000
,
0001
0000
0010
0000
,
0001
0100
0001
0000
,
1000
0001
1000
0000
,
1000
0000
0010
0000
,
0110
0000
0000
0000
,
1001
0000
0000
0000
,
0110
0000
0000
0000
,
1001
0000
0000
0000
,
1000
0000
1000
0000
,
1000
0000
0001
0000
,
0001
0000
0100
0000
,
0010
0100
0010
0000
,
0100
0010
0100
0000
,
0010
0000
0000
0000
;

//---------------dance-single - ----------------
#NOTEDATA:;
#CHARTNAME:;
#STEPSTYPE:dance-single;
#DESCRIPTION:;
#CHARTSTYLE:;
#DIFFICULTY:Easy;
#METER:5;
#RADARVALUES:0.258308,0.309758,0.128448,0.197613,0.000000,183.000000,170.000000,13.000000,20.000000,0.000000,0.000000,0.000000,0.000000,0.000000,0.258308,0.309758,0.128448,0.197613,0.000000,183.000000,170.000000,13.000000,20.000000,0.000000,0.000000,0.000000,0.000000,0.000000;
#CREDIT:;
#NOTES:
// measure 0
0000
0000
0000
0000
,  // measure 1
0001
0000
0001
0000
,  // measure 2
1000
0000
1000
0000
,  // measure 3
0001
0001
0001
0000
,  // measure 4
0101
0010
1000
0010
,  // measure 5
0100
0001
0100
1000
,  // measure 6
0020
0000
0230
0000
,  // measure 7
0301
0100
0010
1000
,  // measure 8
1001
0000
1000
1000
,  // measure 9
1000
0100
0100
0100
,  // measure 10
0010
0010
0010
0001
,  // measure 11
0001
1000
0100
0010
,  // measure 12
0001
1000
0010
0100
,  // measure 13
0001
1000
0200
0000
,  // measure 14
0310
0001
1000
0010
,  // measure 15
0001
0010
1000
0100
,  // measure 16
0220
0330
0000
1000
,  // measure 17
0002
0103
0100
0010
,  // measure 18
2000
3001
0010
0100
,  // measure 19
0020
0031
0001
0000
,  // measure 20
2002
3003
1000
0100
,  // measure 21
0200
0300
1000
0010
,  // measure 22
0020
0030
0010
0100
,  // measure 23
1000
0001
0100
0000
,  // measure 24
1001
0000
0001
0000
,  // measure 25
1000
0001
0200
0300
,  // measure 26
0020
0030
1000
0010
,  // measure 27
0200
0300
0001
1000
,  // measure 28
1001
0000
0001
0000
,  // measure 29
0020
0030
0100
0000
,  // measure 30
0200
0300
1000
0000
,  // measure 31
0001
0010
0001
0000
,  // measure 32
1000
0010
0000
0100
,  // measure 33
0000
0010
0000
0000
,  // measure 34
0200
0000
0301
0000
,  // measure 35
0001
0000
1000
0000
,  // measure 36
0110
0000
0010
0000
,  // measure 37
0110
0000
0100
0000
,  // measure 38
1100
0000
0010
0000
,  // measure 39
0011
0000
0001
0000
,  // measure 40
1000
0010
0100
0001
,  // measure 41
1000
0010
0100
0000
,  // measure 42
0001
0100
0001
1000
,  // measure 43
0001
0100
0001
0000
,  // measure 44
1000
0010
0100
0001
,  // measure 45
1000
0010
0100
0000
,  // measure 46
0001
1000
0001
0100
,  // measure 47
0001
1000
0001
0000
,  // measure 48
1001
1000
0001
0100
,  // measure 49
0110
0010
0010
0000
,  // measure 50
1001
1000
1000
0001
,  // measure 51
0001
0001
0001
0000
,  // measure 52
2000
0010
3010
0000
,  // measure 53
0200
0001
0301
0000
,  // measure 54
0010
0010
0010
0000
,  // measure 55
0100
0100
0100
0001
,  // measure 56
1000
0000
0010
0000
,  // measure 57
0010
0000
0000
0000
;

//---------------dance-single - ----------------
#NOTEDATA:;
#CHARTNAME:;
#STEPSTYPE:dance-single;
#DESCRIPTION:;
#CHARTSTYLE:;
#DIFFICULTY:Medium;
#METER:9;
#RADARVALUES:0.431925,0.450557,0.187732,0.158090,0.000000,306.000000,287.000000,19.000000,16.000000,0.000000,0.000000,0.000000,0.000000,0.000000,0.431925,0.450557,0.187732,0.158090,0.000000,306.000000,287.000000,19.000000,16.000000,0.000000,0.000000,0.000000,0.000000,0.000000;
#CREDIT:;
#NOTES:
0000
0000
0000
0000
,
0001
1000
0001
0000
,
1000
0001
0100
0000
,
0020
0030
0100
0000
,
1001
1100
0001
0001
,
0100
0010
0100
0000
0010
0100
0010
0000
,
2000
0000
3001
0010
0002
0000
1003
0000
,
0200
0000
0302
0000
,
0103
0000
1000
0100
0010
0000
0001
0000
,
0100
0000
0010
1000
0001
0000
0100
0000
,
0101
0000
0001
1000
0001
0000
0100
0001
,
0010
0000
0010
0001
0100
0000
0001
1000
,
0100
0000
0100
0000
0010
0000
0010
0001
,
0100
0100
0110
1001
,
1000
0010
1000
0010
0100
0000
0011
0000
,
2000
0000
3001
0100
0001
0000
0101
0000
,
0100
1000
0100
1000
0010
0000
0101
0000
,
0010
0001
0010
0001
0100
0000
0010
0000
,
1000
0100
1000
0010
1000
0000
0010
0100
,
0001
0000
1000
0100
0010
0000
0010
0000
,
0022
0000
0033
0000
0100
0001
0100
0001
,
2000
0000
3000
0001
0000
0000
0100
0010
,
1000
0100
0100
0010
0010
0001
1000
0001
,
2000
0000
3000
0001
0000
0100
0010
0000
,
0010
1000
0010
0000
0100
0000
0001
0000
,
0011
0000
0010
0011
0000
0000
0001
0000
,
0110
0000
1000
0000
0001
0010
1000
0000
,
0010
0000
0100
0110
0000
0000
1000
0000
,
0001
0010
0001
0010
0001
1000
0100
1000
,
0001
0010
0001
0010
0001
0000
0000
0000
,
0100
0010
0100
0010
1000
0100
1000
0100
,
0010
0001
0010
0001
0010
0000
0001
0000
,
0101
0010
1000
1000
,
0001
0000
0001
0010
0001
0000
0001
0000
,
0100
0010
1000
0000
1000
0000
1000
0000
,
0010
0000
0100
0010
1000
0000
0001
0000
,
0101
0110
0001
0001
,
1001
0000
1000
0000
0010
0100
0001
0000
,
0010
0001
1000
0000
0001
0000
0001
0000
,
0100
0000
0000
0000
0100
0000
0001
0100
,
0010
0000
0100
0000
0010
0100
0010
0100
,
0001
0000
1000
0010
0000
0010
1000
0000
,
0001
0010
0001
0010
0001
0010
0001
1000
,
0002
0000
0003
1000
0000
0000
0010
0000
,
0200
0000
0300
0001
0000
0010
0100
1000
,
0002
0000
0003
1000
0000
0000
0100
0000
,
0010
0100
0010
0001
1000
0001
1000
0001
,
2000
0000
3000
0010
0000
0000
0100
0000
,
0010
0100
0010
0100
0010
0000
0100
0000
,
0100
0001
0100
0001
0100
0000
0001
1000
,
0001
0000
1100
0000
0010
0100
0010
0100
,
0001
1000
0001
2000
0000
3000
0000
0000
,
1001
0000
1000
0000
0010
0000
0100
0010
,
1000
0001
0100
0100
0000
0010
0100
0010
,
0100
0000
0001
0000
1000
0001
1000
0001
,
0100
0001
0100
0002
0000
0003
0000
0000
,
1000
0010
1000
0010
1000
0000
0010
0000
,
0100
0000
0000
0000
;

//---------------dance-single - ----------------
#NOTEDATA:;
#CHARTNAME:;
#STEPSTYPE:dance-single;
#DESCRIPTION:;
#CHARTSTYLE:;
#DIFFICULTY:Hard;
#METER:14;
#RADARVALUES:0.660591,0.732156,0.148210,0.286539,0.390285,468.000000,453.000000,15.000000,29.000000,0.000000,0.000000,0.000000,0.000000,0.000000,0.660591,0.732156,0.148210,0.286539,0.390285,468.000000,453.000000,15.000000,29.000000,0.000000,0.000000,0.000000,0.000000,0.000000;
#CREDIT:;
#NOTES:
0000
0000
0000
0000
,
0100
0000
0001
0100
0001
0000
1000
0000
0010
0000
0100
0010
0100
0000
0000
0000
,
0100
0000
0001
1000
0001
0000
1000
0000
0001
0000
0000
0000
0001
0000
0000
0000
,
0200
0000
0010
0000
0000
0000
0000
0000
0310
0000
0010
0100
0010
0100
0010
0000
,
0110
0000
1000
0001
0100
0000
0001
1000
0001
0000
0100
0010
0100
0010
0100
0000
,
0001
0000
0010
0001
0010
0000
0100
0000
0010
0001
0010
0000
0001
0000
0100
0000
,
0002
0000
0013
0100
2000
0000
3001
0100
,
0001
0000
1000
0001
1000
0000
0001
0000
2000
0000
0000
0000
0001
0000
3001
0000
,
0110
0000
0000
0000
1000
0000
0100
0000
1000
0100
0010
0000
0001
0000
1000
0000
,
0100
0000
0010
0001
1000
0000
0100
0000
0010
0000
0001
0000
0010
0000
0100
0000
,
0010
0001
0100
0010
0100
0000
0001
2000
,
0000
3001
0010
0001
0000
1000
0010
0010
,
0100
0010
0100
0000
0001
0010
0001
0000
0010
0001
0010
0000
0001
0010
0001
0000
,
0100
0010
0100
0000
0010
0000
0000
0000
0100
0000
0010
0000
1000
0000
0100
0000
,
1100
0000
1000
0000
0100
0000
1000
0010
0200
0000
0000
0000
0310
0000
0100
0010
,
0100
0001
1000
0002
0000
0103
0101
0000
,
0002
0000
1003
0010
0100
0010
0100
0010
,
0200
0000
0301
1000
0000
1000
0001
1000
,
0100
0000
0010
0000
0010
0000
0001
0010
0001
0000
0100
0000
0100
0000
0010
1000
,
0020
0000
0130
0100
0000
0010
0100
0010
,
0210
0000
0301
1000
0000
0001
1000
0010
,
0200
0000
0310
0010
0000
0100
0010
1000
,
1001
0000
1000
0000
0001
0000
0100
0001
0100
0000
0010
0000
0100
0000
0010
1000
,
0020
0000
1030
0100
0000
0100
1000
0001
,
0010
0000
0000
0000
0001
0000
0000
0000
0010
0001
0000
0010
0001
0000
0000
0000
,
2000
0000
3000
0000
0200
0000
0010
0000
0300
0000
0010
0000
0001
0000
1000
0001
,
1000
0000
0001
1000
0001
1000
0000
0001
1000
0000
0010
0100
0000
0100
0010
0000
,
1000
0000
0001
0100
0001
0000
0100
0001
0100
0000
0010
0100
0010
0100
0010
0000
,
0100
0000
0001
0100
0001
0000
1000
0010
1000
0000
0010
0100
0010
0100
0010
0000
,
1000
0000
0010
0100
0010
0000
0100
0010
0100
0010
0000
0100
0010
0000
0000
0000
,
0100
0000
0001
0100
0001
0100
0000
0001
1000
0000
0100
0010
0000
0001
0100
0000
,
0020
0000
0000
0000
0130
0000
0000
0000
0010
0000
0100
0000
0010
0100
0010
0100
,
0010
0000
1000
0000
1000
1000
1000
0000
,
0001
0000
0010
0100
0010
0000
0100
0000
0010
0001
0010
0000
0000
0000
0000
0000
,
0001
0000
1000
0010
0100
0000
0000
0000
0010
0000
0010
0000
0010
0000
0000
0000
,
1000
0000
0010
0100
0001
0000
0100
0010
0100
0010
0100
0010
0100
0000
0000
0000
,
1001
0000
0000
1000
0001
0000
0100
0000
0001
0000
0001
0000
0001
0000
0000
0000
,
1000
0000
0010
1000
0010
0000
0100
0001
0100
0000
0000
0000
0001
0000
1000
0000
,
1000
0000
0010
0100
0001
0000
1000
0000
0100
0000
0100
0000
0100
0000
0000
0000
,
0010
0000
0001
1000
0001
0000
0010
0001
0010
0001
0010
0000
0001
0010
0100
0010
,
0002
0000
0000
0000
0103
0000
1000
0100
0001
0000
0010
0001
0010
0000
0100
0000
,
2000
0000
0000
0000
3010
0000
0100
0000
0010
0000
0100
0010
0100
0000
0001
0000
,
0100
0001
0100
0001
0010
0100
1000
0100
,
0010
0000
0001
0010
0100
0000
0010
0000
0000
0000
0001
0000
0001
0000
0100
0000
,
0200
0000
0301
1000
0001
0100
0010
0100
,
0002
0000
0000
0000
1003
0000
0010
0100
0010
0000
1000
0000
1000
0000
0010
0000
,
1010
0100
0001
0100
0010
0100
1000
0100
,
0020
0000
1000
0000
0030
0000
1000
0000
0001
1000
0001
0000
0020
0000
0000
0000
,
0031
0000
0010
0000
1000
0000
0010
0000
0001
0000
1000
0001
1000
0000
0100
0000
,
0001
0000
0100
0000
1000
0000
0010
0000
0100
0000
0010
0100
0010
0000
1000
0000
,
2200
3300
0022
0033
0001
0100
0010
1000
,
0001
0000
0100
0000
0010
0000
0100
0020
0000
0000
0030
0000
0100
0000
0000
0000
,
1000
0001
0100
1010
0000
0000
0100
0001
,
0011
0000
0100
0000
1000
0000
0001
0200
0000
0000
0301
0000
0001
0000
0010
0000
,
1100
0000
0010
0000
0001
0100
0010
1000
,
0001
0010
0100
2000
0000
0000
3000
0000
,
1001
0000
0100
0000
0010
0000
0100
0010
0100
0000
0000
0000
0010
0000
0100
0000
,
0110
0000
0000
0000
;
