#TITLE:Princess Piccolo;
#SUBTITLE:;
#ARTIST:Butapunch Philharmonic Orchestra;
#TITLETRANSLIT:;
#SUBTITLETRANSLIT:;
#ARTISTTRANSLIT:;
#GENRE:FAIRY TALE;
#CREDIT:from pop n music 10;
#BANNER:Butapunch Philharmonic Orchestra - Princess Piccolo.png;
#BACKGROUND:;
#LYRICSPATH:;
#CDTITLE:Popn_music_10_logo_small.png;
#MUSIC:Butapunch Philharmonic Orchestra - Princess Piccolo.ogg;
#OFFSET:-0.206000;
#SAMPLESTART:8.534000;
#SAMPLELENGTH:16.000000;
#SELECTABLE:YES;
#BPMS:0.000000=130.000000
,63.000000=129.000000
,66.000000=130.000000
,97.000000=139.940002
,161.500000=62.499996
,178.250000=100.000000
,194.000000=121.000000
,194.500000=120.099991
,208.000000=89.000000
,218.500000=82.000000
,221.000000=67.699997
,222.000000=140.199997
;
#STOPS:
;
#BGCHANGES:;
#KEYSOUNDS:;
#ATTACKS:;

//---------------dance-single - ----------------
#NOTES:
     dance-single:
     :
     Beginner:
     4:
     0.158749,0.236839,0.087940,0.071951,0.067954,139.000000,128.000000,11.000000,9.000000,0.000000,0.000000,0.158749,0.236839,0.087940,0.071951,0.067954,139.000000,128.000000,11.000000,9.000000,0.000000,0.000000:
0000
0000
0000
0000
,
0000
0000
0000
0000
,
0000
0000
0100
0000
,
0100
0000
0100
0000
,
0200
0000
0310
0000
,
0010
0000
0100
0000
,
0100
0000
0001
0000
,
1000
0000
0001
0000
,
0100
0000
0001
0000
,
0010
0000
0100
0000
,
1000
0000
0001
0000
,
0010
0000
0100
0000
,
1000
0000
0001
0000
,
0110
0000
1000
0000
,
0001
0000
1000
0000
,
1001
0000
0001
0000
,
1000
0000
1001
0000
,
1000
0000
1001
0000
,
0001
0000
1001
0000
,
0001
0000
1000
0000
,
0001
0000
1000
0000
,
0001
0000
0100
0000
,
0010
0000
0100
0000
,
0010
0000
0010
0000
,
0100
0000
0000
0001
0000
0000
0000
0001
,
0000
0000
0000
1000
0000
0000
0000
0001
,
0000
0000
0000
0100
0000
0000
0000
0010
,
0000
0000
0000
0100
0000
0000
0000
0100
,
0000
0010
0000
0100
0000
0000
0000
0001
,
0000
0000
0000
1000
0000
0000
0000
0001
,
0000
0000
0000
1000
0000
0000
0000
0001
,
0000
0000
0000
1000
0000
0000
0000
0010
,
0000
0100
0000
0100
0000
0000
0000
0100
,
0000
0000
0000
0001
0000
0000
0000
1000
,
0000
0000
0000
0001
0000
0000
0000
0100
,
0000
0000
0000
0010
0000
0000
0000
0100
,
0000
0000
0000
0001
0000
0000
0000
0000
,
0000
0000
0000
1000
0000
0000
0000
0000
,
0000
0000
0000
1000
0000
0000
0000
0001
,
0000
0000
0000
1000
0000
0000
0000
0001
,
0000
0000
0000
0200
0000
0000
0000
0000
,
0000
0001
0000
0000
0300
0000
0000
0000
0000
0002
0000
0000
0003
2000
0000
0000
,
0000
3000
0000
0000
0000
0002
0000
0000
0000
2003
0000
0000
0000
3000
0000
0000
,
0000
0020
0000
0000
0000
0030
0000
0000
0000
0200
0000
0000
0000
0320
0000
0000
,
0000
0030
0000
0000
0000
0100
0000
0000
0000
0010
0000
0000
0000
0000
0000
0100
,
0000
0000
0000
0000
0000
0010
0000
0000
0000
0000
0000
0100
0000
0000
0000
0000
,
0000
0010
0000
0000
0000
0000
0000
0100
0000
0001
0000
0000
0000
0000
0000
0000
,
0000
0000
0000
0000
0000
0000
0000
0000
0000
0000
0000
0000
0000
0000
0000
0100
,
0000
0000
0110
0000
,
0110
0000
1001
0000
,
1001
0000
0001
0000
,
1000
0001
1000
0000
,
0001
0000
0000
0100
0001
0000
0100
0001
,
0000
0100
0001
0000
0010
0100
0000
1000
,
0000
0000
0001
0000
0000
0001
0000
0000
,
1000
0000
0100
0100
,
0100
0000
0100
0100
,
0100
0000
0100
0100
,
0001
0001
1000
0000
,
1001
1001
0000
0000
;

//---------------dance-single - ----------------
#NOTES:
     dance-single:
     :
     Easy:
     6:
     0.262679,0.331575,0.239837,0.159891,0.163889,230.000000,200.000000,30.000000,20.000000,0.000000,0.000000,0.262679,0.331575,0.239837,0.159891,0.163889,230.000000,200.000000,30.000000,20.000000,0.000000,0.000000:
// measure 0
0000
0000
0000
0000
,  // measure 1
0000
0000
0000
0000
,  // measure 2
0000
0000
0000
0000
0000
0000
0100
0000
0001
0000
0001
0000
,  // measure 3
0100
0000
0000
0000
0000
0000
0100
0000
1000
0000
1000
0000
,  // measure 4
0200
0000
0310
0000
,  // measure 5
0010
0100
0110
0000
,  // measure 6
0100
0001
1001
1000
,  // measure 7
1000
0100
0010
0001
,  // measure 8
0200
0301
0001
0000
,  // measure 9
0010
0010
0100
0000
,  // measure 10
1000
0000
0001
0010
,  // measure 11
0010
0000
0100
0100
,  // measure 12
1000
0000
0011
0000
,  // measure 13
0110
0000
1100
0000
,  // measure 14
0001
0001
1000
0100
,  // measure 15
1001
0001
0002
0003
,  // measure 16
1000
1001
1001
0000
,  // measure 17
1000
1001
1001
0000
,  // measure 18
0001
0010
0011
0000
,  // measure 19
1000
0100
1100
0000
,  // measure 20
0001
0000
0000
0001
0000
0000
1000
0000
0100
0000
0100
0000
,  // measure 21
0100
0000
0000
0000
0000
0000
0100
0000
0010
0000
0010
0000
,  // measure 22
0010
0000
0200
0300
,  // measure 23
0020
0000
0000
0030
0000
0000
0100
0000
0000
0000
0010
0000
,  // measure 24
0100
0000
0001
0100
,  // measure 25
0001
0010
1000
0010
,  // measure 26
0001
0100
0001
0100
,  // measure 27
1000
0100
1000
0100
,  // measure 28
0010
0000
0100
0000
0000
0000
0000
1001
,  // measure 29
0000
0001
0000
1000
0000
0001
0000
0001
,  // measure 30
0000
1000
0000
1001
0000
0001
0000
0010
,  // measure 31
0000
0001
0000
0011
0000
0000
0000
0010
,  // measure 32
0000
0100
0000
0120
0000
0000
0000
0130
,  // measure 33
0000
0100
0000
0102
0000
0000
0000
1003
,  // measure 34
0000
1000
0000
1002
0000
0000
0000
0013
,  // measure 35
0000
0100
0000
0020
0000
0000
0000
0230
,  // measure 36
0000
0000
0000
0301
0000
0000
0000
0100
,  // measure 37
0000
0110
0000
0000
0000
1000
0000
1100
,  // measure 38
0000
0000
0000
1000
0000
1001
0000
0000
,  // measure 39
0000
1001
0000
0000
0000
0101
0000
0000
,  // measure 40
0000
0000
0001
0000
0000
0000
0020
0000
0000
0000
0000
0000
0030
0001
0000
0000
,  // measure 41
0000
0001
0000
0000
0000
2000
0000
0000
3000
0002
0000
0000
0003
2000
0000
0000
,  // measure 42
0000
3020
0000
0000
0000
0032
0000
0000
0000
0023
0000
0000
0000
0130
0000
0000
,  // measure 43
0000
1000
0000
0100
0000
0100
0000
0000
0000
0010
0000
0100
0000
0010
0000
0000
,  // measure 44
0000
0100
0000
0000
0000
0100
0000
0000
0000
0010
0000
0100
0000
0010
0000
0100
,  // measure 45
0000
0000
0000
0001
0000
1000
0000
0001
0000
1000
0000
0000
0000
0010
0000
0100
,  // measure 46
0000
0010
0000
0100
0000
0000
0000
0000
0000
0002
0000
0000
0000
0000
0003
0000
,  // measure 47
0000
2000
0000
0000
0000
0000
0000
0000
3001
0000
0000
0000
0000
0000
0000
0000
,  // measure 48
0000
0000
0100
0100
,  // measure 49
0110
0110
1001
0000
,  // measure 50
1000
1000
0001
0010
,  // measure 51
0100
0010
0001
0000
,  // measure 52
0001
0000
0000
0100
0000
0000
0010
0000
0100
0000
0010
0000
0100
0000
0000
0000
,  // measure 53
0100
0110
0000
0010
0100
0000
0010
1000
,  // measure 54
0001
1000
0001
0000
0001
0010
0000
0100
,  // measure 55
2000
3000
0100
0100
,  // measure 56
0100
0100
0110
0010
,  // measure 57
1000
0001
0100
0100
,  // measure 58
0100
0101
0001
1000
,  // measure 59
0001
1001
0000
0000
;

//---------------dance-single - ----------------
#NOTES:
     dance-single:
     :
     Medium:
     10:
     0.368892,0.592097,0.135908,0.239837,0.279810,323.000000,306.000000,17.000000,30.000000,0.000000,0.000000,0.368892,0.592097,0.135908,0.239837,0.279810,323.000000,306.000000,17.000000,30.000000,0.000000,0.000000:
0000
0000
0000
0000
,
0000
0000
0000
0000
,
0000
0000
0000
0000
0000
0000
0100
0000
0001
0010
0001
0010
,
0001
0000
0000
0000
0000
0000
0100
0000
1000
0000
0110
0000
,
0020
0000
0100
0000
0100
0000
0130
0000
0000
0001
1000
0010
,
0100
0000
0000
0100
0010
0100
0010
0000
0000
0100
0000
0000
,
0101
0000
0000
0001
1000
0000
1001
0000
0000
1000
0001
0000
,
1000
0000
0000
0100
0010
0100
0010
0000
0000
0001
0010
0001
,
0200
0000
0300
0000
0001
0100
0001
0010
,
0100
0010
1000
0100
2000
0000
3000
0000
,
0001
0000
0020
0000
0031
0100
0001
1000
,
0100
1000
0001
0100
0002
0000
0103
0000
,
0200
0300
0002
0003
0010
0100
0010
0000
,
0001
1000
0001
0000
1000
0100
1000
0010
,
0200
0000
0300
0000
0001
0000
0100
0010
,
1000
0000
0100
0001
2000
0000
3001
1000
,
0001
0000
1001
0000
1001
0000
0010
0100
,
0010
1000
0010
0100
0020
0000
0030
0000
,
0100
0000
0110
0000
0010
0100
0010
1000
,
0001
1000
0001
0100
0020
0000
0030
0000
,
0100
0000
0000
0001
0000
0000
1000
0000
0100
0000
0010
0000
,
0100
0000
0000
0000
0100
0000
0020
0000
0000
0000
0031
0000
,
0020
0000
0000
0030
0100
0000
2000
0000
0000
3000
0010
0000
,
0200
0000
0000
0300
0000
0000
0001
0000
0000
0000
0010
0000
,
0100
0000
0000
0010
0001
0010
0000
0100
,
0001
0010
0000
0001
0010
0001
0010
0002
,
0000
0000
0000
0103
0010
0200
0000
0301
,
1000
0010
0000
1000
0000
0010
0000
0120
,
0000
0000
0030
0100
0000
0010
0100
0001
,
0000
0001
1000
0100
0000
0001
0100
0010
,
0001
0010
0100
1000
0000
0001
0100
0101
,
0000
0001
0010
0011
0000
0100
0100
0010
,
0000
0001
0000
0100
0010
0100
0001
0100
,
0000
0000
0010
0200
0000
0000
0300
0010
,
0000
0000
0000
1000
0001
1000
0100
0010
,
0000
0001
0001
0020
0000
0000
0000
0031
,
0010
0001
0000
0001
0000
1001
0000
0000
,
0000
0110
0000
0000
0000
1100
0000
1100
,
0000
0000
0000
1000
0000
0001
0100
0001
,
0000
0010
0001
0010
0000
0001
0010
0100
,
0000
0001
0000
2000
0000
0000
3000
0000
,
0000
0000
0000
0000
0000
2000
0000
0000
3000
0002
0000
0000
0003
2000
0000
0000
,
0000
3020
0000
0000
0000
0032
0000
0000
0000
0023
0000
0000
0000
0130
0000
0000
,
0000
0000
0000
1000
0000
0010
0000
1000
0000
0100
0000
0000
0000
0000
0000
0010
0000
0100
0000
0001
0000
1000
0000
0000
0000
0000
0000
0010
0000
0000
0000
0000
0000
0100
0000
0000
0000
0000
0000
0010
0000
0000
0000
0000
0000
0001
0000
0000
,
0000
0000
0000
0000
0000
0000
0000
0000
0000
0000
0000
0000
0100
0000
0000
0000
0000
0000
0000
0000
0010
0000
0000
0000
0000
0000
0000
0000
0100
0000
0000
0000
0000
0000
0000
0000
0010
0000
0000
0000
0000
0000
0000
0000
0000
0000
0000
0000
0000
0000
0000
0000
0000
0000
0000
0000
0000
0000
0000
0000
0100
0000
0000
0000
0000
0000
0000
0000
0000
0000
0000
0000
0000
0000
0000
0010
0000
0000
0000
0000
0000
0000
0000
0000
0000
0000
0000
0000
0000
0000
0100
0000
0000
0000
0000
0000
0000
0000
0000
0000
0000
0000
0000
0000
0000
0000
0000
0000
0010
0000
0000
0000
0000
0000
0000
0000
0000
0000
0000
0000
0000
0000
0000
0000
0000
0000
0000
0000
0000
0000
0000
0000
0100
0000
0000
0000
0000
0000
0000
0000
0000
0000
0000
0000
0000
0000
0000
0000
0000
0000
0000
0000
0000
0000
0000
0000
0010
0000
0000
0000
0000
0000
0000
0000
0000
0000
0000
0000
0000
0000
0000
0000
0000
0000
0000
0000
0000
0000
0000
0000
0100
0000
0000
0000
0000
0000
0000
0000
0000
0000
0000
0000
,
0000
1001
0000
0001
0000
1000
0000
0010
0000
1000
0000
1100
0000
0100
0000
0010
,
0000
0001
0000
0100
0000
0010
0000
0001
0000
0002
0000
0000
0000
0000
0003
0000
,
0000
2000
0000
0000
0000
0000
0000
0000
3001
0000
0000
0000
0000
0000
0000
0000
,
0000
0000
0100
0100
,
0010
0100
0010
0000
1001
0000
0000
0000
,
1000
0100
1000
0100
1000
0000
0010
0000
,
0100
0010
0100
0010
1000
0000
0000
0000
,
0001
0000
0000
0100
0000
0000
0010
0000
0100
0000
0010
0000
0010
0000
0100
0000
,
0001
0001
1000
0010
0010
0100
1000
0100
,
0001
1000
0100
0000
0100
0010
0000
0100
,
2000
0000
0000
0000
0000
0000
3000
0000
0010
0000
0000
0000
0100
0000
0000
0000
0000
0000
0100
0000
0000
0010
0000
0000
,
0100
0000
0100
0001
0100
0000
0010
0100
,
0010
0000
0100
0000
0001
0010
0100
0010
,
0001
0000
0100
0010
0100
0000
0001
0000
,
0001
0010
1001
0000
0000
0000
0000
0000
;

//---------------dance-single - ----------------
#NOTES:
     dance-single:
     :
     Hard:
     15:
     0.661265,1.018408,0.223848,0.119918,0.927369,579.000000,551.000000,28.000000,15.000000,0.000000,0.000000,0.661265,1.018408,0.223848,0.119918,0.927369,579.000000,551.000000,28.000000,15.000000,0.000000,0.000000:
0000
0000
0000
0000
,
0000
0000
0000
0000
,
0000
0000
0000
0000
0000
0000
0100
0000
0001
0010
0100
0010
,
0001
0000
1000
0000
0100
0000
0100
0000
1000
0000
0100
0010
,
0002
0000
0100
0003
0100
0000
0100
0000
0000
0001
1000
0010
,
0100
0000
0000
0001
1000
0010
0100
0000
0100
0010
0000
0000
,
1001
0000
0000
0001
1000
0100
0010
0000
0000
0001
1000
0100
,
0010
0000
0000
0000
0100
0000
0010
0000
0001
0000
0010
0000
0001
0000
0000
1000
0100
1000
0100
0000
1000
0000
0100
0000
,
1000
0000
0000
0000
0000
0000
0000
0000
0001
0000
0010
0001
0010
0000
0001
0000
,
0100
0000
0010
0000
0110
0000
0010
0000
1000
0001
1000
0001
1000
0001
1000
0010
,
0100
0001
1000
0010
0100
0000
0000
0000
0001
0000
0100
0010
0100
0000
0001
0000
,
0110
0000
1000
0000
1001
0000
0100
0000
0001
0010
0001
0100
0010
1000
0100
0010
,
0001
0010
0001
0100
0010
1000
0100
1000
0010
0000
0100
0000
0010
0000
0100
0001
,
0010
0000
1000
0000
0100
0000
1000
0000
0100
0000
0010
0100
0010
0001
0010
0001
,
0200
0000
0000
0000
0000
0000
0301
0010
0001
0000
0010
0000
0100
0000
0010
0100
,
0010
0000
0001
0100
0001
0000
1000
0000
0001
1000
0001
1000
0001
0000
1000
0000
,
0001
0000
0000
0000
1001
0000
0000
0000
1001
0000
0010
0100
0010
0000
0100
0000
,
0110
0000
1000
0000
0110
0000
0001
0000
0110
0000
0010
0100
0010
0000
0010
0000
,
0100
0000
0010
0000
0100
0000
0001
0000
1000
0000
0100
0010
1000
0000
0010
0000
,
0011
0000
0010
0000
0001
0000
0010
0000
0001
0100
0001
0100
0010
1000
0010
1000
,
0010
0000
0000
1000
0000
0000
0100
0000
0000
0010
0000
0000
0001
0000
0000
0000
0000
0000
0000
0000
0000
0000
0000
0000
1000
0000
0000
0000
0000
0000
0000
0000
0100
0000
0000
0000
0010
0000
0000
0000
0010
0000
0000
0000
0000
0000
0000
0000
,
0001
0000
0000
0000
0100
0000
0010
0000
0100
0000
0000
0000
0020
0000
0000
0030
0100
0000
0010
0000
1000
0000
0000
0000
,
0002
0000
0000
0003
0010
0000
0100
0000
1000
0000
0000
0000
1000
0000
0000
0000
0010
0000
0100
0000
0010
0000
0000
0000
,
0100
0000
0001
0010
0001
0000
1000
0000
0000
0000
0010
0000
,
0110
0000
0000
0000
0000
0000
0100
0000
0001
0000
0010
0000
0000
0100
1000
0000
,
0001
0010
0001
0010
0001
0000
0100
0000
0010
0000
0100
0000
0001
0000
1000
0001
,
0100
0001
1000
0001
0100
0000
0010
0000
0100
0000
0001
0000
0000
0001
1000
0000
,
0010
0000
0000
0000
0000
0000
0100
0000
0000
0000
0000
0000
0010
0000
0100
0000
0010
0000
0100
0000
0000
0000
0000
0000
0000
0000
0000
0000
0000
0000
0010
0000
0000
0000
0000
0000
0100
0000
0000
0010
0000
0000
0100
0000
0000
0010
0000
0000
,
0100
0010
0100
0000
0000
0000
0100
0000
0010
0000
0100
0000
0001
0000
0011
0000
,
0000
0001
1000
1001
0000
0001
0100
0010
,
1000
0000
0010
0100
0010
0000
1000
0000
0001
0000
0101
0000
0100
0000
0101
0000
,
0000
0001
0100
0010
0000
0100
0001
0010
,
0001
1000
0001
0000
0000
0000
0110
0000
0010
0000
0100
0000
0001
0010
0002
0000
,
0000
0003
0010
0200
0000
1300
0000
0010
,
0010
0010
0000
1001
0001
1000
0100
0011
,
0000
0001
0100
0020
0000
0100
0030
0100
,
0001
0100
0010
0100
0001
0100
0001
0000
0000
0000
1001
0000
0000
0000
0000
0000
,
0100
0010
0100
0000
0000
0000
0000
0000
0010
1000
0010
0000
0100
0001
0100
0000
,
0001
0010
0001
0100
0001
0000
1000
0000
0100
0010
0001
0000
0100
0000
0001
0000
,
1000
0100
0010
0000
0001
0000
1000
0000
0100
0010
0001
0000
0010
0000
0110
0000
,
0000
0000
0000
0000
0000
0000
0000
0000
0000
0000
0000
0000
0000
0000
0000
0000
0000
0000
2000
0000
0000
0000
0000
0000
0000
0000
0000
3000
0000
0001
0000
0010
0000
0001
0000
0010
0000
0000
0000
0001
0000
0010
0000
0001
0000
0010
0000
0000
,
0000
0100
0000
1000
0000
0100
0000
1000
0000
0100
0000
0000
0000
0000
0000
0010
0000
0001
0000
0010
0000
0001
0000
0010
0000
0001
0000
0020
0000
0000
0000
0000
0000
0000
0000
0000
0000
0000
0000
2030
0000
0000
0000
0000
0000
0000
0000
0000
,
0000
0000
0000
3010
0000
0001
0000
0010
0000
0001
0000
0000
0000
0000
0000
0010
0000
0100
0000
0010
0000
0001
0000
0000
0000
0000
0000
0100
0000
0010
0000
0100
0000
0010
0000
1000
0000
0001
0000
1000
0000
0001
0000
1000
0000
0000
0000
0000
,
0000
0010
0000
0100
0000
0010
0000
0100
0000
0001
0000
0010
0000
0100
0000
0010
0000
0100
0000
1000
0000
0000
0000
0000
0000
0000
0000
0010
0000
0100
0000
0010
0000
0100
0000
0010
0000
1000
0000
0001
0000
0010
0000
0100
0000
0010
0000
0001
,
0000
0000
0000
0100
0000
0010
0000
0100
0000
0001
0000
1000
0000
0100
0000
0010
0000
0100
0000
1000
0000
0001
0000
0010
0000
0001
0000
0100
0000
0000
0000
0000
0000
0100
0000
0000
0010
0000
0000
0010
0000
0000
0100
0000
0000
0010
0000
0000
,
0000
1000
0000
0001
0000
0010
0100
0010
0001
1000
0000
0100
0000
0011
0000
0001
,
0010
0000
0000
0100
0000
0000
0010
0000
0000
0001
0000
0000
0000
0000
0000
0100
0000
0000
0000
0000
0000
0010
0000
0000
0000
0000
0000
1000
0000
0000
0000
0000
0000
0000
0000
0000
0000
0000
0000
0000
0000
0000
0000
0000
0000
0000
0010
0000
,
0100
0000
0010
0000
0200
0000
0000
0000
0000
0000
0000
0000
0300
0000
0000
0000
0000
0000
0001
0000
0010
0000
0001
0000
0010
0000
0000
0000
0001
0000
1000
0000
0001
0000
1000
0000
0000
0000
0000
0010
0000
0000
0000
0000
0000
0100
0000
0000
,
0000
0010
0000
1000
0000
0000
0000
0000
0100
0000
0010
0100
0010
0000
0100
0000
,
0110
0000
0100
0000
1001
0000
0001
0000
1000
0000
0100
0010
0100
0000
0010
0100
,
0010
0000
0000
0000
0000
0000
0001
0000
0000
0010
0000
0000
0001
0000
0000
0000
0010
0000
0000
0000
0001
0000
0000
0000
0011
0000
0000
0000
0000
0000
0001
0000
0000
1000
0000
0000
0010
0000
0000
0000
0000
0000
0100
0000
0000
0000
0000
0000
,
0101
0000
0010
0000
0110
0000
0010
0000
1000
0000
0001
0100
0010
0100
0001
0010
,
0001
0000
0000
0100
0000
0000
0010
0000
0100
0001
0100
0000
0010
0000
0100
0001
,
0010
0000
0100
0000
1000
0000
0000
0000
0010
0000
1000
0000
0100
0000
0000
0000
0010
0000
0000
0000
0010
0000
0001
0000
0100
0000
0000
0010
0100
0000
0000
0100
,
0001
0000
0000
0001
0010
0000
0000
0100
1000
0000
0000
0000
0001
0000
0000
0000
0100
0000
0000
0000
0010
0000
0000
0000
0010
0000
0000
0000
0100
0000
0000
0000
,
0020
0000
0000
0000
0000
0000
0030
0000
0100
0000
0000
0000
0110
0000
0000
0010
0000
0000
0100
0000
0000
0010
0100
0010
,
0100
0000
0000
0000
0000
0000
0010
0000
0000
0100
0000
0000
0010
0000
0000
0000
0000
0000
1000
0000
0010
0000
0100
0000
0001
0000
0000
0000
0000
0000
1000
0000
0000
0010
0000
0000
0100
0000
0000
0000
0000
0000
0010
0000
0100
0000
0010
0000
,
0100
0000
0000
0000
0000
0000
0001
0000
0000
0010
0000
0000
0100
0000
0000
0000
0000
0000
1000
0000
0010
0000
1000
0000
0010
0000
0000
0000
0000
0000
1000
0000
0000
0100
0000
0000
0010
0000
0000
0000
0000
0000
0001
0000
0000
0000
0000
0000
,
0100
0100
0010
0010
0200
0302
0203
0300
,
0001
0010
1001
0000
0000
0000
0000
0000
;
