#TITLE:Popcorn parade;
#SUBTITLE:;
#ARTIST:soyomogi;
#TITLETRANSLIT:;
#SUBTITLETRANSLIT:;
#ARTISTTRANSLIT:;
#GENRE:;
#CREDIT:from pop n music eclale;
#BANNER:Ec_popcorn_parade.png;
#BACKGROUND:;
#LYRICSPATH:;
#CDTITLE:;
#MUSIC:Popcorn_parade.ogg;
#OFFSET:-0.225000;
#SAMPLESTART:33.786999;
#SAMPLELENGTH:15.400000;
#SELECTABLE:YES;
#BPMS:0.000000=168.000000
;
#STOPS:
;
#BGCHANGES:;
#KEYSOUNDS:;
#ATTACKS:;

//---------------dance-single - ----------------
#NOTES:
     dance-single:
     :
     Beginner:
     1:
     0.048810,0.066250,0.000000,0.016667,0.000000,41.000000,41.000000,0.000000,2.000000,0.000000,0.000000,0.048810,0.066250,0.000000,0.016667,0.000000,41.000000,41.000000,0.000000,2.000000,0.000000,0.000000:
0000
0000
0000
0000
,
0000
0000
0000
0000
,
0000
0000
0000
0000
,
0000
0000
0000
0000
,
0000
0000
0000
0000
,
0100
0000
0000
0000
,
0000
0000
0000
0000
,
0100
0000
0000
0000
,
0100
0000
0000
0000
,
0000
0000
0000
0000
,
0001
0000
0000
0000
,
0000
0000
0000
1000
,
0000
0000
0000
0000
,
0000
0001
0000
0000
,
0000
0000
0000
0100
,
0000
0000
0000
0000
,
0000
0001
0000
0000
,
0000
0000
0000
1000
,
0000
0000
0000
0000
,
0000
0001
0000
0000
,
0000
0000
0000
1000
,
0000
0000
0000
0010
,
0000
0000
0000
0000
,
0000
0000
0000
0000
,
0000
0100
0000
0000
,
0000
0000
0000
0000
,
0010
0000
0000
0000
,
0000
0000
0000
0000
,
0000
0000
0000
0000
,
1000
0000
0000
0000
,
0000
0000
0001
0000
,
0000
0000
0000
0000
,
0000
0000
0000
0000
,
0000
0000
1000
0000
,
0000
0000
0000
0000
,
0000
0000
0000
0001
,
0000
0000
0000
0000
,
0000
0001
0000
0000
,
0000
0000
0000
1000
,
0000
0000
0000
0000
,
0000
1000
0000
0000
,
0000
0000
0000
0001
,
0000
0000
0000
0000
,
0000
0001
0000
0000
,
0000
0000
0000
0001
,
0000
0000
0000
0000
,
0000
0000
0000
0000
,
0000
0000
0000
0100
,
0000
0000
0000
0000
,
0000
0100
0000
0000
,
0000
0000
0000
0100
,
0000
0000
0000
0000
,
0000
0010
0000
0000
,
0000
0000
0000
0000
,
0000
0000
0000
0000
,
0000
0010
0000
0000
,
0000
0000
0000
0000
,
0000
0000
0000
0000
,
0000
1000
0000
0000
,
0000
0000
0000
1000
,
0000
0000
0000
0000
,
0000
0010
0000
0000
,
0000
0000
0000
0010
,
0000
0000
0000
0000
,
0000
0100
0000
0000
,
0000
0000
0000
0000
,
0000
0000
0000
0000
,
0000
0200
0000
0000
,
0300
0000
0000
0000
,
0000
0000
0000
0000
,
0000
0002
0000
0000
,
0000
0003
0000
0000
,
0000
0000
0000
0000
,
0000
1000
0000
0000
,
0000
0000
0000
1000
,
0000
0000
0000
0000
,
0000
0001
0000
0000
,
0000
0000
0000
0100
,
0000
0000
0000
0000
,
0000
0000
0100
0000
;

//---------------dance-single - ----------------
#NOTES:
     dance-single:
     :
     Easy:
     4:
     0.179762,0.298125,0.016667,0.075000,0.000000,151.000000,149.000000,2.000000,9.000000,0.000000,0.000000,0.179762,0.298125,0.016667,0.075000,0.000000,151.000000,149.000000,2.000000,9.000000,0.000000,0.000000:
0000
0000
0000
0000
,
0000
0000
0000
0000
,
0000
0000
0000
0000
,
0000
0000
0000
0000
,
0000
0000
0000
0000
,
1000
0000
0001
0000
,
0000
0000
0001
0000
,
1000
0000
0000
0000
,
1000
0000
0100
0000
,
0010
0000
0001
0000
,
0001
0000
0010
0000
,
0100
0000
1000
0000
,
0000
0001
0000
0000
,
0000
0100
0000
0000
,
1000
0000
0000
0100
,
0000
0000
0001
0000
,
0000
0010
0000
0000
,
0100
0000
0000
1000
,
0000
0000
0100
0000
,
0000
0001
0000
0000
,
0100
0000
0000
1000
,
0000
0000
0001
0000
,
0000
0100
0000
0000
,
0010
0000
0000
0000
,
0100
0000
0100
0000
,
0100
0000
0010
0000
,
0010
0000
0010
0000
,
1000
0100
0010
0000
,
0010
0000
0100
0000
,
1000
0001
1000
0000
,
0000
0001
1000
0000
,
0001
1000
0000
0000
,
1000
0001
0000
0110
,
0000
0000
1001
0000
,
0000
0200
0000
0300
,
0020
0000
0030
1000
,
0100
0010
0001
0000
,
0000
0001
0010
0100
,
1000
0000
0000
1000
,
0010
0100
0001
0000
,
0000
0001
1000
0001
,
0100
0000
0000
0010
,
0010
0010
0010
0000
,
0000
0100
0100
0010
,
0010
0000
0000
1000
,
1000
0001
0001
1000
,
0001
1000
0001
1000
,
1000
0000
0000
0002
,
0000
0003
0200
0000
,
0300
0020
0000
0030
,
0000
0000
0000
1000
,
0000
1000
0000
1000
,
0000
0001
0000
0000
,
0001
0010
0001
0010
,
0000
0000
0001
0100
,
0001
0100
0000
0000
,
0001
1000
0100
1000
,
0001
0010
0001
1000
,
0010
1000
0001
0000
,
0000
0000
0000
0100
,
0000
0000
0010
0000
,
0000
1000
0100
1000
,
0100
1000
0001
0100
,
0001
1000
0001
0000
,
0000
2000
0000
3000
,
0000
0000
0000
0002
,
0000
0003
0000
0000
,
0000
2000
0000
0000
,
0000
0000
0000
0001
,
3000
0001
0000
0001
,
0000
0200
0000
0010
,
0000
0010
0000
0010
,
0300
0010
0000
1000
,
0000
0001
0000
1000
,
0000
0010
0000
0100
,
0000
0001
0000
1000
,
0000
0010
0000
0100
,
0000
0001
0000
0010
,
0000
0001
0000
1000
,
0000
0001
1000
0000
;

//---------------dance-single - ----------------
#NOTES:
     dance-single:
     :
     Medium:
     9:
     0.330952,0.501562,0.191667,0.100000,0.025000,278.000000,255.000000,23.000000,12.000000,0.000000,0.000000,0.330952,0.501562,0.191667,0.100000,0.025000,278.000000,255.000000,23.000000,12.000000,0.000000,0.000000:
0000
0000
0000
0000
,
0000
0000
0000
0000
,
0000
0000
0000
0000
,
0000
0000
0000
0000
,
0000
0000
0000
0000
,
1000
0000
0000
0001
0000
0000
0000
0100
,
0000
0000
0000
0000
0010
0000
0000
1000
,
0000
0000
0000
0100
0000
0000
0000
0000
,
0011
0000
0000
0011
0000
0000
0000
0001
,
0000
0000
0000
0000
0100
0000
0000
0001
,
0000
0000
1000
0000
,
0010
0100
0000
0001
,
0000
1000
1000
0000
,
0010
0010
0000
0100
,
0100
0000
0000
0001
,
0001
0000
1000
1000
,
0000
0010
0100
0010
,
1000
1001
0000
1000
,
0100
0100
0010
0001
,
0001
1000
0100
0100
,
0010
0001
0001
0100
,
0010
0010
0100
1000
,
1000
0100
0010
0100
,
0001
0100
0000
0001
,
0100
0001
0010
0100
,
1000
1010
0000
0000
,
0100
0101
0000
0001
,
1001
0000
1000
0010
,
0100
0001
0100
0000
,
0010
0001
1000
0010
,
0100
0001
1000
0000
,
0001
1010
0000
0000
,
0100
0101
0000
0200
,
0300
0010
0100
0100
,
0001
1000
1000
0000
,
0001
1001
0000
1000
,
0100
0001
1000
0010
,
0001
1000
0100
0010
,
1000
0010
0001
1000
,
0100
0001
1000
0010
,
0001
1000
0100
0010
,
0001
1000
1100
0010
,
0011
0100
1100
0010
,
0011
0100
0010
0100
,
0010
1000
1000
0001
,
0200
0310
1000
0020
,
0130
0002
0000
1003
,
0200
0000
0310
0002
,
0000
1003
2200
0000
,
3300
0001
0010
0001
,
0100
0010
0100
0000
0000
0000
1001
0000
,
0000
0000
0010
0100
0010
0000
1000
0000
,
0001
0000
0100
0000
0001
1000
0001
0100
,
0001
0000
0010
0001
0100
0001
0010
0000
,
0001
0100
0010
0100
0010
0000
1000
0100
,
0010
0001
1000
0000
0001
0010
0100
0010
,
0001
0000
1000
0100
0010
0100
0010
0000
,
0001
0010
0100
0010
0100
0000
1000
0000
,
0110
0000
1000
0001
1000
0000
0001
0100
,
0001
0000
1000
0010
1000
0000
0100
0000
,
0010
0000
0001
0000
0010
0000
0100
1000
,
0100
0010
0001
1000
,
1001
0000
0100
0010
,
0000
1000
0001
0100
,
0000
0001
0000
0100
,
0010
0000
1000
0010
,
0000
0100
0001
0000
,
0000
0000
1000
0000
0000
0100
0000
0000
,
0000
0010
0000
0000
0000
0000
0011
0000
,
0000
0001
0000
0000
0000
0100
0000
0000
,
0010
0000
2000
0000
0000
0001
0000
0000
,
3000
0001
0000
0000
0000
0000
0200
0000
,
0000
0010
0000
0000
0300
0010
0000
0000
,
0000
0000
0000
0000
1000
0000
0000
1000
0000
0000
1000
0000
0000
0000
0000
0000
,
0000
0000
0001
0000
0000
0000
0000
0101
0000
0000
0000
0000
0101
0000
0000
0000
,
0000
0000
1000
0000
0000
0000
0000
0000
0000
0000
0010
0000
1000
0000
0000
0010
,
0000
0000
0000
0000
0100
0000
0000
0100
0000
0000
0100
0000
0000
0000
0000
0000
,
0000
0000
0001
0000
0000
0000
0000
1000
0000
0000
0000
0000
0010
0000
0000
0100
,
0000
0010
0000
0000
1000
0000
0000
1001
,
0000
0110
0202
0000
,
0000
0303
0000
0000
;

//---------------dance-single - ----------------
#NOTES:
     dance-single:
     :
     Hard:
     12:
     0.523810,0.563125,0.225000,0.183333,0.137500,440.000000,413.000000,27.000000,22.000000,0.000000,0.000000,0.523810,0.563125,0.225000,0.183333,0.137500,440.000000,413.000000,27.000000,22.000000,0.000000,0.000000:
// measure 0
0000
0000
0000
0000
,  // measure 1
0000
0000
0000
0000
,  // measure 2
0000
0000
0000
0000
,  // measure 3
0000
0000
0000
0000
,  // measure 4
0000
0000
0000
0000
,  // measure 5
1000
0001
0000
0001
0000
1000
0000
0100
,  // measure 6
0010
0000
0011
0000
0001
0001
0000
0100
,  // measure 7
0000
1000
0000
0100
0001
0000
1000
0010
,  // measure 8
0100
0110
0000
0011
0000
0001
0000
1000
,  // measure 9
0001
0000
1000
0000
0100
0010
0001
0001
,  // measure 10
0000
1000
0100
1000
0100
0000
0010
0001
,  // measure 11
0010
0000
0001
0000
0100
0000
0000
0000
0001
0000
0000
0000
1000
0000
0000
0010
,  // measure 12
0000
1000
0100
0000
1000
0000
0010
0000
1000
0000
0000
0001
0000
0000
0100
0000
,  // measure 13
0010
0000
0100
0000
0001
0000
0000
1000
0000
0001
1000
0000
0001
0000
0100
0000
,  // measure 14
0010
0000
0000
0100
0000
0000
0010
0000
0100
0000
0001
0000
0110
0000
0000
0000
,  // measure 15
1010
0000
0000
0000
0001
0000
0010
0000
0100
0000
1000
0100
1000
0000
0001
0000
,  // measure 16
0000
0100
0010
0100
0100
0010
0010
1000
,  // measure 17
0002
0003
1001
0000
1000
0000
1000
0100
,  // measure 18
0010
0001
0100
0010
1000
0100
0010
0001
,  // measure 19
0010
0100
1000
0010
0100
0001
0100
0010
,  // measure 20
1000
0100
0001
0100
0010
0001
0100
0010
,  // measure 21
0100
0001
0100
1000
0100
0000
0020
0000
,  // measure 22
0030
1000
1000
0000
0000
0001
0100
0000
,  // measure 23
0010
0100
0010
0000
0100
0000
0000
0000
0000
0000
0000
0000
0110
0000
0000
0000
,  // measure 24
0010
0000
1010
0100
0010
0000
0100
0001
,  // measure 25
1000
0100
0010
0010
0001
0000
1000
0000
,  // measure 26
0010
0100
0010
0000
0100
0000
0000
0000
0010
0000
0100
0000
1001
0000
0000
0000
,  // measure 27
1000
0100
0010
0000
0010
0001
0010
0000
,  // measure 28
0100
1000
0100
0000
0100
0010
0100
0000
,  // measure 29
0010
0001
0011
0000
1000
0010
0100
0000
,  // measure 30
0101
0000
0001
0010
0100
0000
1000
0000
,  // measure 31
0020
0030
1100
0000
0000
0100
0000
0010
,  // measure 32
0010
0001
1000
0020
,  // measure 33
0130
2000
3001
0200
,  // measure 34
0310
0000
0000
0000
1000
0000
0000
0001
0000
0000
2000
0000
0000
0000
3000
0000
,  // measure 35
0100
0000
0000
0010
0000
0000
0002
0000
0000
0000
0003
0000
1000
0000
0100
0000
,  // measure 36
0010
0001
0010
0001
0100
0010
1000
0100
,  // measure 37
0010
0001
0010
0001
0100
0010
1000
0100
,  // measure 38
1000
0000
0001
0010
0001
0000
1000
0100
,  // measure 39
0010
0000
0100
1000
0100
0000
0100
0010
,  // measure 40
0100
0000
1000
0000
0001
0001
1000
0000
,  // measure 41
0101
0000
0000
0001
0000
0000
0001
0000
0000
0000
0000
0000
1000
0000
0000
0000
,  // measure 42
0001
0000
0100
0010
0100
0000
0010
0100
,  // measure 43
0010
0001
0010
0000
0100
0010
1000
0010
,  // measure 44
0100
0000
0001
1000
0001
0000
1000
0000
,  // measure 45
0210
0300
0021
0030
2000
3000
0002
0003
,  // measure 46
0100
0010
0200
0000
0010
0000
1000
0000
,  // measure 47
0001
0310
0010
2000
,  // measure 48
0001
0100
0010
3001
,  // measure 49
0100
0000
0001
0010
0100
1000
0001
0000
,  // measure 50
0200
0320
0030
1000
,  // measure 51
1100
0000
0000
0000
0001
0010
0001
0000
0010
0000
0000
0000
0001
0000
0000
0000
,  // measure 52
1000
0000
0100
1000
0000
0100
0010
0100
,  // measure 53
0001
0000
0100
0000
1000
0010
0100
0000
,  // measure 54
0001
0000
0100
1000
0100
0000
0001
0100
,  // measure 55
0010
1000
0002
0000
0003
0000
1000
0010
,  // measure 56
0002
0000
0003
0000
1000
0100
0020
0000
,  // measure 57
0030
0000
0000
0000
0100
0000
0001
0000
0100
0000
0000
0010
0000
0000
1000
0000
,  // measure 58
0010
0000
1000
0000
0001
1000
0001
0100
,  // measure 59
0010
0000
0000
0010
0000
0000
0100
0000
0001
0000
1000
0000
0001
0000
0000
1000
,  // measure 60
0000
0010
0100
0000
0010
0000
0000
0000
0100
0000
0000
0010
0000
0000
0100
0000
,  // measure 61
0010
0000
2000
0000
3000
0000
0001
1000
,  // measure 62
0001
0000
0100
0000
0001
0000
0000
0000
0100
0000
0000
0000
0010
0000
0000
0100
,  // measure 63
0000
0000
0001
0000
1000
0000
0001
0000
0100
0000
0000
0010
0000
0000
0100
0000
,  // measure 64
0010
0000
2001
0000
0000
0000
3010
0100
,  // measure 65
0010
0000
1000
0100
1000
0010
0100
0000
,  // measure 66
0001
0000
0000
0100
0010
0000
0000
1000
0002
0000
0000
0000
1003
0000
0000
0000
,  // measure 67
0010
0000
1000
0010
0000
0100
0000
0001
,  // measure 68
0000
0010
0100
0000
1100
0000
0001
0001
,  // measure 69
0000
0001
0000
1000
0000
0100
0010
0000
,  // measure 70
0001
0000
1000
1100
0000
0001
0000
0100
,  // measure 71
0000
0010
0100
0000
0001
0000
1000
1000
,  // measure 72
0000
0000
0010
0000
0000
0000
0100
0000
0000
0000
0010
0000
0100
0000
0000
0010
,  // measure 73
0000
0000
0000
0000
1000
0000
0000
0010
0000
0000
1000
0000
0001
0000
0000
0000
,  // measure 74
0100
0000
0001
0000
0100
0000
0001
0100
0000
0000
0000
0000
0110
0000
0000
0110
,  // measure 75
0000
0000
0100
0000
0000
0000
0010
0000
0000
0000
0100
0000
0001
0000
1000
0001
,  // measure 76
0000
0000
0000
0000
0100
0000
0000
0001
0000
0000
0100
0000
0000
0000
0010
0000
,  // measure 77
0000
0000
1000
0000
0001
0000
0000
1000
0000
0000
0000
0000
0010
0000
0000
0100
,  // measure 78
0000
0000
0010
0000
0000
1000
0000
0000
0101
0000
0000
0101
0000
0000
0110
0000
,  // measure 79
0000
1010
0000
0000
0110
0000
0000
0000
1001
0000
0000
0000
0000
0000
0000
0000
;

//---------------dance-single - ----------------
#NOTES:
     dance-single:
     :
     Challenge:
     16:
     0.753571,0.936250,0.291667,0.116667,0.633333,633.000000,598.000000,35.000000,14.000000,0.000000,0.000000,0.753571,0.936250,0.291667,0.116667,0.633333,633.000000,598.000000,35.000000,14.000000,0.000000,0.000000:
0000
0000
0000
0000
,
0000
0000
0000
0000
,
0000
0000
0000
0000
,
0000
0000
0000
0000
,
0000
0000
0000
0000
,
1000
1000
0000
0001
0000
0100
0000
0010
,
0110
0000
1010
0000
0100
0001
0000
1000
,
0000
0000
0010
0000
0000
0000
0100
0000
0101
0000
0000
0000
0001
0010
0001
0010
,
0001
0011
0000
2000
0000
3010
0000
0100
,
0101
0000
0001
0000
0010
0100
0000
0010
,
0000
0000
0100
0000
1000
0100
0010
0100
1000
0000
0001
0000
0010
0100
0010
0001
,
0010
0000
0100
1000
0100
0000
0000
0000
0001
0000
0000
0000
0101
0000
0000
0001
,
0000
0100
0010
0000
1000
0000
0100
0000
1000
0000
0000
0010
0000
0000
1000
0000
,
0010
0000
0100
0000
0001
0000
0000
0001
0000
0010
0100
0000
1000
0000
1000
0000
,
0100
0000
0000
0010
0000
0000
0001
0000
0100
0000
0010
0100
0010
0000
0000
0000
,
1000
0000
0000
0000
0000
0000
0010
0000
0000
1000
0000
0000
0100
0000
0000
1000
0010
1000
0010
0000
0000
0100
0000
0000
,
0000
0001
0110
1000
0110
0010
0001
1000
,
0100
0010
0001
0010
0001
0000
0000
0000
1000
0000
0000
0000
1100
0000
0000
0100
,
0000
0010
0100
0000
0010
0000
0001
0000
1000
0000
0000
0001
0000
0000
1000
0000
,
0001
0000
1000
0000
0010
0000
0000
1000
0000
0010
0100
0000
0010
0000
0100
0000
,
0010
0000
0000
0000
0000
0000
1000
0000
0000
0001
0000
0000
1000
0000
0000
0000
0000
0000
0001
0000
0000
0100
0000
0000
0001
0000
0000
0000
0000
0000
1000
0000
0000
0010
0000
0000
1000
0000
0000
0000
0000
0000
0001
0000
0010
0000
0001
0000
,
0010
0001
1000
0010
0100
0000
2020
0000
,
3030
0100
0010
0000
0000
0010
0110
0000
,
0001
0010
0100
0000
1010
0000
0000
0000
1001
0000
0100
0000
0001
0010
0100
0000
,
1000
0100
0010
0000
0001
0000
1000
0000
0010
0000
0000
0000
0000
0000
1000
0000
,
0100
0010
0100
0010
0001
0000
1000
0000
0100
0000
0010
0000
0001
0000
0000
0000
,
1000
0100
1000
0100
0010
0000
0000
0000
0000
0000
0000
0000
0001
0000
0100
0010
,
0100
0000
0001
1000
0001
0000
1000
0100
0010
0000
0001
0010
0001
0000
1000
0000
,
0200
0000
0000
0000
0310
0000
0001
0010
0001
0010
0100
0000
1000
0000
0100
0000
,
0010
0000
0000
0000
1001
0000
0000
0000
1000
0000
0010
0000
0100
0001
0010
0000
,
0010
0001
1000
0000
0001
0100
0001
0000
1000
0000
0000
0000
0010
0000
0000
0000
,
0100
0000
2020
0000
3030
0100
0000
0001
,
0100
0000
0000
0000
0101
0000
0000
0000
1000
0010
0100
0000
0001
0000
0000
0000
,
1000
0010
1001
0100
,
0010
0000
0000
0000
1000
0000
0000
0001
0000
0000
1001
0000
0000
0000
0001
0000
,
0001
0000
0000
1000
0000
0000
1010
0000
0000
0000
0000
0000
1000
0000
0010
0000
,
0100
0000
0001
0000
1000
0000
0100
1000
0010
0000
0000
0000
0100
0000
0100
0000
,
0001
1000
0001
0000
1000
0100
0010
0001
1000
0000
0001
0000
0010
0100
0010
0001
,
1000
0000
0001
0000
0010
0000
0100
0000
0010
0001
1000
0000
0001
0000
0100
0000
,
0110
1000
0001
1000
0100
0010
0000
0011
,
0000
0000
1000
0100
1000
0000
0010
0000
0100
0000
0010
0000
0001
0000
0010
0100
,
0001
0000
0000
1000
0000
0100
0010
0000
0000
0000
0001
0000
0010
0000
0001
0000
,
1000
0000
1100
0000
0000
0000
0010
0100
0010
0000
0100
0001
0100
0000
0010
0000
,
0010
0000
1000
0000
1000
0001
0100
0001
1000
0000
0010
0000
0100
0001
0010
0001
,
1000
0100
0110
0001
1001
0000
0100
0010
,
0100
0010
0200
0000
0301
0010
0002
0000
1003
0100
0020
0000
0031
1000
0001
0000
,
0100
0010
1000
0000
0002
0000
0000
0000
0100
0000
0000
0000
1003
0000
0000
0000
,
0200
0000
0000
0000
0310
0001
0010
0001
0100
0010
0100
0000
0001
0000
1000
0000
,
0010
1000
0100
1000
0001
1000
0100
0000
0010
0000
0001
0000
0010
0000
0100
0000
,
1000
0000
0100
0000
0101
0000
0001
0000
1000
0000
0001
0100
0001
0000
1000
0000
,
0010
0100
0010
0100
0001
0010
0001
0010
0100
0010
0100
0000
1000
0000
0100
0010
,
0001
0000
1000
0000
0100
0010
0001
0010
0001
0010
0001
0010
0100
0000
1000
0000
,
0001
0000
0000
0000
0100
0000
0001
0000
0100
0000
0010
0000
0100
0001
0100
0001
,
0100
0001
0100
0000
0010
0000
0000
0000
1000
0000
0100
0000
0010
0000
0000
0000
,
0001
0000
0010
0000
0110
0000
1000
0010
1000
0001
0100
0001
0010
0000
0000
0000
,
0001
0000
1000
0000
0001
0010
0001
0010
0001
0010
0001
0100
0010
0000
1000
0000
,
0001
1000
0100
0010
0001
1000
0100
0010
0001
0000
0000
0000
0100
0010
0100
0010
,
1000
0001
0100
0010
0100
0000
0000
0000
0010
1000
0000
0010
1000
0000
0001
0000
,
0011
0000
0000
0000
1000
0010
0100
0010
1000
0000
0001
0000
0100
0000
0010
0000
,
0010
0000
0000
1000
0000
0000
0010
0000
1000
0000
0001
0000
0100
0000
0000
0010
,
0000
0010
0100
0000
0001
0000
1000
0000
0010
0000
0000
0100
0000
0000
0001
0000
,
0100
0010
0100
0010
0100
0000
0000
0000
0001
0000
0000
0000
1000
0000
0100
0000
,
0010
0000
0000
0000
0000
0000
0001
0000
0010
0000
0001
0000
0010
0000
0000
0000
0000
0000
0001
0000
0000
0000
0000
0000
0000
0000
0000
0000
0000
0000
1000
0000
0000
0000
0000
0000
0010
0000
0000
0000
0000
0000
0000
0000
0000
0100
0000
0000
,
0000
0000
0010
0000
1000
0001
0100
0000
0001
0000
0000
0010
0000
0000
0100
0000
,
1000
0000
0000
0000
0001
0010
0001
0010
0001
0000
0000
0000
0100
0000
0001
0000
,
0010
0100
0010
0000
0100
0000
0001
0000
1000
0000
0010
0000
0001
0100
0001
0100
,
0001
0000
0000
1000
0010
0000
0000
0100
0001
1000
0001
1000
0010
0000
1000
0100
,
1000
0001
0010
0001
0010
0000
0001
0000
0000
0000
0010
0000
0000
0000
0100
0000
,
0000
0110
0110
0000
1000
0000
0101
0101
,
0000
0001
0000
0010
0000
1100
1100
0000
,
0010
0000
0200
0010
0000
0010
0000
1300
,
0000
0001
1000
0000
0100
0000
0020
0001
,
0000
0000
0100
0000
0000
0000
0001
0000
0030
0000
1000
0000
0001
0000
0000
1000
,
0000
0000
0000
0000
0001
0000
0000
0100
0000
0000
0010
0000
1000
0100
1000
0000
,
0001
0010
0001
0000
1000
0000
0000
0110
0000
0000
0010
0001
0010
0000
0001
1000
,
0000
0001
1000
0000
0100
0010
0001
0000
1000
0100
1000
0000
0001
0000
0010
0001
,
0000
0000
0000
0000
0100
0000
0000
0010
0000
0000
0100
0000
0000
0000
0001
0000
,
0000
0000
1000
0000
1100
0000
0000
1000
0000
0100
0010
0001
1000
0000
0001
0100
,
0000
0000
0001
0000
0000
0010
0000
0000
0100
0000
0000
1000
0010
0100
0001
0000
,
0000
1000
0001
1000
0001
0000
0000
0000
0200
0000
0000
0000
0000
0000
0000
0000
,
0000
0300
0000
0000
;
