#TITLE:Pop'n denki CM song;
#SUBTITLE:;
#ARTIST:Nokoinoko;
#TITLETRANSLIT:;
#SUBTITLETRANSLIT:;
#ARTISTTRANSLIT:;
#GENRE:;
#CREDIT:from pop n music 13;
#BANNER:Nokoinoko - Pop'n denki CM song.png;
#BACKGROUND:;
#LYRICSPATH:;
#CDTITLE:;
#MUSIC:Nokoinoko - Pop'n denki CM song.ogg;
#OFFSET:-0.052000;
#SAMPLESTART:43.165001;
#SAMPLELENGTH:12.000000;
#SELECTABLE:YES;
#BPMS:0.000000=160.000000
,157.000000=140.000000
,159.500000=130.000000
,161.375000=120.000000
,191.500000=140.000000
,193.500000=160.000000
;
#STOPS:206.000000=0.187000
;
#BGCHANGES:;
#KEYSOUNDS:;
#ATTACKS:;

//---------------dance-single - ----------------
#NOTES:
     dance-single:
     :
     Beginner:
     5:
     0.228482,0.300924,0.174931,0.016660,0.000000,192.000000,171.000000,21.000000,2.000000,0.000000,0.000000,0.228482,0.300924,0.174931,0.016660,0.000000,192.000000,171.000000,21.000000,2.000000,0.000000,0.000000:
0000
0000
0000
0000
,
0000
0000
0000
0000
,
0000
0000
0000
1001
,
0000
0000
0000
1000
,
0001
0100
0000
0001
,
1000
0010
0000
1000
,
1000
1000
0001
0001
,
0000
0001
1000
0010
,
0000
1000
0100
0010
,
0000
0002
0003
1000
,
0010
0100
0000
0001
,
1000
0001
0000
1000
,
0001
1000
1000
1000
,
0000
0001
0100
0001
,
0000
0001
0100
0010
,
0000
0100
0000
0001
,
0101
0000
0101
0000
,
1010
0000
1000
1001
,
0000
0001
0000
0100
,
0000
0010
0000
1000
,
1000
1000
0000
0001
,
0001
0001
0000
0100
,
0100
0100
0000
0010
,
0010
0010
0000
1000
,
0001
1000
1000
2000
,
0000
0000
3000
0001
,
0000
0010
0000
0011
,
0000
1001
0000
1010
,
0000
0100
0000
0010
,
0100
0001
0000
1000
,
0001
0100
0000
0001
,
0000
1000
0000
1000
,
1000
0001
0000
0001
,
0000
1001
0000
1000
,
0000
0110
0000
1001
,
0000
1000
0000
0100
,
0000
0010
0000
0001
,
0000
0010
0000
0100
,
0000
1000
0000
0001
,
0000
0010
0000
0100
,
0000
1000
0000
0000
,
0000
0100
0000
0001
0000
0000
0000
0100
,
0000
0000
0000
0000
0000
0001
0000
0100
,
0000
0000
0000
0000
0000
0100
0000
0001
,
0000
0000
0000
0101
0000
0000
0000
0001
,
0000
1000
0000
0001
0000
0000
0000
0001
,
0000
0000
0000
0000
0000
1000
0000
1000
,
0000
0000
0000
0100
0000
0100
0000
0100
,
0000
0000
0000
0010
0000
0000
0000
0100
,
0000
0001
0000
0000
0000
0000
0000
1001
,
0000
0000
0000
1000
0000
0000
0000
0001
,
0000
0000
0000
0100
0000
0000
0100
0000
,
0000
0010
0000
0101
,
0000
0001
0000
1001
,
0000
0001
0000
1000
,
0000
0100
0000
0010
,
0010
0010
0001
0001
,
0000
1000
0001
0100
,
0000
0001
0000
1000
,
0001
0100
0000
0001
,
0000
1000
0000
0001
,
0000
0001
1000
0001
,
0000
1000
0000
1000
,
0000
1001
0000
0110
,
0000
0100
0000
0110
,
0000
0010
0100
0010
,
0000
0100
0010
0100
,
0000
0010
0000
0010
,
0100
0010
0000
0110
,
0000
1000
0000
1001
,
0000
0001
0000
0110
,
0000
1000
0000
0001
,
0001
0001
0000
0000
;

//---------------dance-single - ----------------
#NOTES:
     dance-single:
     :
     Easy:
     10:
     0.453394,0.481478,0.216582,0.158271,0.037485,381.000000,355.000000,26.000000,19.000000,0.000000,0.000000,0.453394,0.481478,0.216582,0.158271,0.037485,381.000000,355.000000,26.000000,19.000000,0.000000,0.000000:
// measure 0
0000
0000
0000
0000
,  // measure 1
0000
0000
0000
1000
,  // measure 2
0010
0100
0000
0100
0010
0000
1000
0100
,  // measure 3
0000
1000
0000
0100
1000
0100
1000
0100
,  // measure 4
0000
0001
0000
0100
0000
0010
0001
0010
,  // measure 5
0000
0100
0010
0100
0000
1000
0001
1000
,  // measure 6
0000
0001
1000
0000
0001
0000
0100
0010
,  // measure 7
0100
0000
0001
1000
0010
0000
0100
0010
,  // measure 8
0100
0000
0001
1000
0010
0000
0110
0000
,  // measure 9
0100
0002
1003
1000
,  // measure 10
0010
1000
0100
0000
0010
0100
0001
0000
,  // measure 11
1000
0010
0100
0000
0010
0001
1000
0000
,  // measure 12
0001
1000
0010
0000
1000
0100
1000
0000
,  // measure 13
0001
0010
0001
0000
0000
1000
0100
1000
,  // measure 14
0000
0001
0010
0001
0000
1000
0010
0000
,  // measure 15
1100
0000
0110
0000
0000
0001
0100
0000
,  // measure 16
0101
1010
0101
0110
,  // measure 17
1010
0000
1000
0000
1000
0100
1000
0000
,  // measure 18
0001
0010
0001
0000
1000
0000
0200
0000
,  // measure 19
0000
0310
0000
0000
0000
0000
1000
0000
,  // measure 20
1000
0000
1000
0100
0000
0010
0001
0000
,  // measure 21
0001
0000
0001
0010
0000
0100
1000
0000
,  // measure 22
1000
0000
1000
0100
0000
0100
0010
0000
,  // measure 23
0010
0000
0010
0001
0000
0001
0100
0000
,  // measure 24
0100
0000
0100
0010
0000
0100
0010
0000
,  // measure 25
0010
0100
0100
0001
,  // measure 26
1001
0010
0110
0200
,  // measure 27
0301
2000
3010
0020
,  // measure 28
1030
0000
0000
0100
0100
0000
0010
0000
,  // measure 29
0100
0001
0100
0001
0100
0000
0010
0000
,  // measure 30
0100
0010
0100
0010
0100
0000
0001
0000
,  // measure 31
1000
0100
1000
0000
0010
1000
0010
0000
,  // measure 32
1000
0100
1000
0000
0110
0000
0101
0000
,  // measure 33
0001
0000
0000
2000
0000
3000
0100
0000
,  // measure 34
0000
0000
0220
0330
0000
0000
0002
0000
,  // measure 35
0100
0000
0000
0000
0000
0000
0000
0000
0103
0000
0000
0010
0200
0000
0000
0000
,  // measure 36
0001
0000
0000
0000
0000
0000
0000
0000
0310
0000
0000
1000
0100
0000
0000
0000
,  // measure 37
0010
0001
0010
0000
0100
1000
0100
0000
,  // measure 38
0110
2000
3100
0001
,  // measure 39
0011
0010
0100
0100
,  // measure 40
0010
0000
0000
0000
0000
0000
1000
0000
0000
0000
0000
0000
0000
0100
0000
0000
0000
0000
0000
0000
0000
0000
0000
0000
,  // measure 41
0000
0100
0000
0200
0000
0300
0010
0100
,  // measure 42
0010
0000
0100
0000
0001
0001
0010
0100
,  // measure 43
0000
0100
0010
0000
0010
0001
0010
0001
,  // measure 44
0001
0010
0100
1000
0000
0002
0003
0000
,  // measure 45
0000
1000
0100
0001
0000
1000
0100
0001
,  // measure 46
0000
0100
0010
0000
0010
0010
0100
0010
,  // measure 47
0000
0100
0001
0010
0000
0001
1000
0010
,  // measure 48
0000
0100
0000
0010
0100
0010
0000
0100
,  // measure 49
0000
0000
0101
0000
0000
1000
0001
0000
0000
0000
0010
0000
0100
0000
1001
0000
,  // measure 50
0000
1000
0001
1000
0000
0001
0010
0001
,  // measure 51
0000
0010
0001
0010
0000
0010
0100
0000
,  // measure 52
0010
0001
0100
0000
0001
0000
0101
0000
,  // measure 53
1010
0000
0000
1000
0001
0000
0000
0000
1000
0000
0000
0000
2000
0000
0000
0000
,  // measure 54
3000
0000
0020
0000
0030
1000
0100
0010
,  // measure 55
0000
1000
0100
0010
0000
0000
0011
0000
,  // measure 56
0010
0001
0010
0001
0000
1000
0010
0001
,  // measure 57
0000
0010
1000
0001
0000
1000
0100
0001
,  // measure 58
0000
1000
0100
0001
0000
0100
1000
0000
,  // measure 59
0001
0010
0101
0000
0010
0000
0011
0000
,  // measure 60
0100
0010
0000
0100
0200
0300
0001
0000
,  // measure 61
1000
0010
0010
0000
1000
0000
0100
0000
,  // measure 62
1000
0100
0100
0000
1100
0000
1000
0000
,  // measure 63
0001
0000
0000
1000
0001
0000
0000
0000
1001
0000
0000
0001
1000
0000
0000
0000
,  // measure 64
0010
0200
0300
0110
,  // measure 65
0100
0010
0100
0000
0010
0100
0010
0000
,  // measure 66
1000
0100
0010
0000
0010
0100
1000
0000
,  // measure 67
0010
0000
0000
0100
0010
0000
0000
0000
0100
0000
0000
0010
0100
0000
0000
0000
,  // measure 68
0001
0010
0100
0000
0100
0010
0001
0000
,  // measure 69
1001
0000
1000
0100
0000
0010
0001
0000
,  // measure 70
2000
3000
0001
0010
0000
0100
1000
0000
,  // measure 71
0002
0003
1000
0010
0000
0010
0100
0000
,  // measure 72
0001
0010
0010
0000
0000
0000
0000
0000
;

//---------------dance-single - ----------------
#NOTES:
     dance-single:
     :
     Medium:
     12:
     0.560495,0.573734,0.308213,0.266562,0.024990,471.000000,434.000000,37.000000,32.000000,0.000000,0.000000,0.560495,0.573734,0.308213,0.266562,0.024990,471.000000,434.000000,37.000000,32.000000,0.000000,0.000000:
0000
0000
0000
0000
,
0000
0000
0000
0000
0000
0000
1000
0100
,
0010
0100
0010
0100
0110
0000
1000
0100
,
0010
0100
2000
3100
0010
0001
0020
0130
,
0010
0100
2000
3100
0010
0001
1001
0010
,
0100
0000
0010
0100
1001
0000
0001
1000
,
0001
1000
0010
0000
0101
0000
1001
0100
,
0010
0000
0100
0010
1001
0000
0100
0010
,
0100
0001
1000
0000
0020
0030
0100
0000
,
0100
0001
0100
0000
0010
1000
1001
0010
,
0000
0200
0300
0010
0001
0100
0001
0000
,
1000
0020
0030
0100
0010
0001
1001
1000
,
0001
0100
0002
0000
1003
0000
1001
0000
,
0001
0000
0011
0000
0000
1000
0100
2000
,
3000
0020
0030
0100
0001
1000
0110
0000
,
1100
0000
0100
0000
0100
0020
0000
0030
,
0001
0010
1100
0010
0001
0100
0101
0000
,
1010
0000
1000
0100
1000
0100
1100
0000
,
0001
0000
0001
0000
1000
0010
0100
0020
,
0000
0000
0130
0000
0000
0000
0200
0300
0000
0000
0001
0000
1000
0000
0000
0000
,
1010
0000
1000
0100
0000
0020
0000
0030
,
0001
0000
0000
0010
0001
0000
0010
0000
0001
0000
0000
0000
1100
0000
0000
0000
,
1000
0010
2000
0000
3000
0100
0010
0100
,
0010
0000
0001
0000
0000
0000
0002
0003
0000
0000
0001
0000
0100
0000
0010
0000
,
0100
1000
0100
0010
1000
0200
0000
0300
,
0010
0001
0100
0000
0100
0001
0101
0000
,
1001
0100
0010
0000
0100
0010
0101
0000
,
0001
1000
1001
0000
0010
0100
0110
0010
,
1000
0010
0000
0100
0010
0000
0010
0000
,
0100
0001
0100
0010
0100
0010
1000
0200
,
0300
0100
0010
0100
0010
0001
1000
0000
,
1000
0100
1000
0100
0010
0001
0010
0100
,
0000
0100
1000
0000
0200
0300
0101
0000
,
0001
0000
0100
0000
0001
0000
2000
0000
0000
0000
3010
0000
0100
0000
0000
0010
,
0100
0000
0010
0000
0100
0000
0000
0100
0001
0000
0100
0000
0002
0000
0100
0000
,
0100
0000
0103
0100
0100
0010
0200
0001
,
0001
0000
0001
0001
0301
1000
0100
0000
,
0010
0001
0010
0100
1100
0000
0100
0010
,
0100
0010
0110
0000
0100
0000
0001
0010
,
0001
0000
0000
0001
0010
0000
1000
0000
0010
0000
0000
0001
0100
0000
0110
0000
,
0110
0000
0000
0100
0000
0000
1001
0000
0000
0000
0000
0000
0000
0100
0000
0000
0000
0000
0000
0000
0000
0020
0000
0000
,
0000
0130
0010
0200
0300
0000
0010
0100
,
0020
0030
0200
0300
0001
0010
0100
1000
,
0000
0100
0110
0000
0010
0001
0010
0100
,
1000
0010
0100
0110
0000
0001
1000
0010
,
0000
1000
0000
0200
0300
0000
0100
0001
,
0100
0000
2000
3000
0010
0100
0010
0110
,
0000
0100
0001
0010
0010
0000
0001
0100
,
0000
0101
0000
0010
0100
0010
0100
0001
,
1001
0000
1000
0000
0010
0100
0000
1100
,
0000
1000
0100
0010
0000
0000
0010
0001
,
0010
0000
0001
0000
0001
0010
0100
0000
,
0010
0001
0100
0001
0000
0001
0010
0000
,
1000
0010
0001
0000
1000
0000
2000
0000
,
3100
1000
0020
0000
0030
1000
0001
0010
,
0000
0000
0100
0000
0000
0000
0020
0030
0000
0000
0001
0000
0010
0000
0001
0000
,
0010
0100
0010
0001
0000
1000
0000
0001
,
0010
0100
0001
0100
1000
0001
0010
0100
,
0010
0001
0010
0100
0010
0100
1000
0000
,
0001
0000
0100
0001
0010
0000
0001
0010
,
0001
0010
0000
0010
0001
0000
0001
0000
,
1000
0100
0010
0100
1000
0100
0100
0000
,
1000
0010
0100
0001
0100
0010
1000
0000
,
0001
1000
0001
0010
0001
0100
1000
0100
,
0010
0100
0001
0000
0100
0000
0110
0000
,
0100
0010
0100
0001
0010
0100
1000
0000
,
0010
0100
0010
1000
0100
0010
0001
0000
,
0010
0100
0010
1000
0001
1000
0010
0100
,
0010
0000
0002
0003
0100
0000
0101
0000
,
1000
0010
1000
0100
0010
0001
0001
0000
,
0001
0100
0001
0010
0100
1000
1000
0000
,
0001
0100
0010
1000
0100
0010
0002
0000
,
0013
0001
0100
0000
0001
0000
0000
0000
;

//---------------dance-single - ----------------
#NOTES:
     dance-single:
     :
     Hard:
     15:
     0.752086,0.785109,0.283222,0.099961,0.445659,632.000000,598.000000,34.000000,12.000000,0.000000,0.000000,0.752086,0.785109,0.283222,0.099961,0.445659,632.000000,598.000000,34.000000,12.000000,0.000000,0.000000:
0000
0000
0000
0000
,
0000
0000
0000
0000
0000
0000
0000
0000
0000
0000
0000
0000
1000
0100
1000
0100
,
0010
0000
0100
0010
0000
0100
0010
0000
0110
0000
0000
0000
0001
0100
0001
0000
,
0010
0100
0010
0000
1000
0010
1000
0000
0001
0010
0001
0000
0100
0010
0100
0000
,
0010
1000
0010
0000
1000
0000
0100
0000
0010
0000
0001
0000
1001
0000
0010
0100
,
0010
0000
0100
0000
0110
0000
0001
1000
0001
0000
1000
0001
0100
0000
0001
0000
,
0001
0000
0010
0000
0110
0000
0100
0010
0100
0000
0000
0000
1000
0000
0010
0100
,
0010
0000
0000
0100
0001
0000
0010
0100
0010
0000
0000
0100
1000
0000
0010
0000
,
0100
0000
0001
0000
1000
0000
0010
0100
0001
0000
0000
0000
0101
0000
0000
0000
,
0100
0000
0010
0000
0100
0000
0010
0000
0010
0000
1000
0000
1000
0000
0010
1000
,
0100
0000
0200
0000
0300
0000
0010
0000
0010
0000
0001
0010
0001
0000
0000
0000
,
1000
0001
0100
0100
0010
0010
1000
1000
,
1001
0000
0100
0001
0100
0000
0010
1000
0010
0000
0100
0000
1001
0000
0000
0000
,
0001
0000
0010
0000
0100
0000
0000
0000
1000
0000
0100
0000
0010
0000
0001
0010
,
0001
0000
0010
0100
0010
0000
1000
0000
1001
0000
0010
0100
0010
0000
0000
0000
,
1100
0000
0100
0010
0100
0010
0001
0000
,
0001
0010
1001
0100
0001
0100
0110
0010
,
0000
0000
0010
0000
1000
0000
0100
0010
0001
0000
0100
0000
0101
0000
0000
0000
,
0001
0000
0100
0000
0001
0010
0001
0010
0001
0000
0010
0000
0100
0000
0010
0000
,
0001
0000
0100
0010
0100
0010
0100
0000
0000
0000
0001
0000
1001
0000
0000
0000
,
1000
0000
0100
0000
1000
0000
0100
0000
0010
0000
0001
0010
0001
0010
0001
0000
,
0010
0000
0001
0010
0001
0000
0001
0010
0100
0000
0000
0000
1100
0000
0000
0000
,
1000
0000
0010
0000
1000
0100
1000
0100
1000
0000
0100
0000
0010
0001
0010
0000
,
0001
0000
0010
0001
0010
0001
0010
0000
0000
0000
0001
0000
0100
0000
0010
0000
,
0110
0000
0010
0000
0100
0000
0110
0000
0000
0000
0100
0010
0100
0010
0100
0000
,
0010
1000
0100
0001
0100
1000
0100
0010
,
0100
0000
0010
0000
0000
0000
0001
0100
0001
0000
0100
0000
0001
0000
0000
0000
,
0001
0010
0001
0010
0100
1000
0110
0010
,
1010
1010
0000
0100
0010
0000
0010
0000
,
0100
0001
1000
0010
0100
0001
1000
0001
,
0000
0000
0100
0010
0100
0000
0010
0100
0010
0000
0100
0000
0110
0000
0010
0000
,
1000
0000
0001
0010
0001
0000
0100
0000
0010
0000
0100
0010
0100
0000
0010
0000
,
0000
0000
0100
0000
0010
0000
0100
0001
0200
0000
0300
0000
0101
0000
0000
0000
,
0001
0000
0010
0000
0100
0000
2000
0000
0000
0000
3010
0000
0100
0000
0000
0010
,
0100
0000
0010
0000
0101
0000
0000
0100
0001
0000
0001
0000
1000
0100
0010
0001
,
1000
0000
0001
0000
0100
0010
0100
0010
0100
0000
0010
0000
1000
0100
0010
0001
,
1000
0000
0001
0000
0001
0010
0100
1000
0001
0000
1000
0001
1000
0000
0010
0100
,
0001
0000
0000
0000
0001
0000
1000
0010
0100
0000
0001
1000
0001
0000
0010
0000
,
0100
0000
0010
0000
0100
0000
0010
0100
0010
0000
0000
0000
0001
0000
0010
0100
,
0010
0000
0100
1000
0100
0000
1000
0100
0010
0000
0001
0010
0001
0000
0110
0000
,
0110
0000
0000
0000
0000
0000
0100
0000
0000
0010
0000
0000
0100
0000
0000
0000
0000
0000
0000
0000
0000
0000
0000
0000
0000
0000
0100
0000
0000
0000
0000
0000
0000
0000
0000
0000
0000
0000
0000
0000
0000
0000
0010
0000
0000
0000
0000
0000
,
0100
0010
1000
0100
0010
0001
0010
0100
,
1000
0010
0100
0001
1000
1000
0001
0001
,
0000
0100
0200
0300
0010
0010
0110
0110
,
1000
0000
1010
0000
0100
0000
0100
0000
0001
0010
0001
0000
1000
0000
0010
0000
,
0100
1000
0100
0010
0001
1000
0001
0010
,
0100
0100
0001
0001
0010
0010
0010
0110
,
0000
0100
1000
0010
0100
0000
0100
0001
,
0000
0101
0000
0010
0100
0010
0100
0001
,
1000
0000
0000
0000
1000
0000
0010
0000
1000
0100
1000
0000
0100
0000
0100
0000
,
0000
0010
0100
0010
0000
0001
0010
0001
,
0010
0000
0000
0000
0001
0010
0001
0000
0010
0000
0100
1000
0100
0000
0000
0000
,
0010
0001
0100
1000
0000
0100
0010
0000
,
1000
0000
0100
0000
0010
0000
0001
1000
0001
0000
1000
0001
1000
0000
0000
0000
,
0100
0000
1000
0000
0010
1000
0010
1000
0010
0000
0000
1000
0100
0000
0010
0001
,
0000
0000
2000
0000
3000
0000
0010
0100
0010
0100
0010
0000
0100
0000
0001
0000
,
0010
0000
0100
0000
1000
0000
0001
0000
0000
0000
1000
0000
0001
1000
0001
0000
,
0010
0100
0010
0000
0001
1000
0001
0000
1000
0010
0100
0000
0010
1000
0100
0000
,
1000
0010
0100
0000
0100
0001
0100
0000
0001
0000
0100
0000
0001
0000
0000
0000
,
0001
1000
0110
0100
0100
0000
0001
0010
,
0100
2000
3000
0020
0230
0300
0001
0000
,
1000
0100
0010
0100
1000
0100
0010
0100
,
1000
0000
0010
0100
0001
0000
0010
0000
0100
0000
0010
0000
0001
0000
1000
0000
,
0001
0000
0010
0001
0010
0000
0001
0010
0001
0000
1000
0100
1000
0000
0100
1000
,
0010
0000
0100
0000
0010
0000
0100
0010
0100
0000
0000
0000
0110
0000
0000
0000
,
0100
0000
0101
0010
0100
0010
0001
1000
,
0010
0100
0010
1000
0001
0001
0011
0100
,
0010
0000
0001
0010
0100
0000
1000
0000
0100
0000
1000
0100
0010
0000
0000
0000
,
0100
0000
0020
0000
0230
0300
1001
0000
,
1000
0010
1000
0010
1000
0000
0100
0010
0000
0100
0010
0000
0001
0000
0000
0000
,
0001
0010
0001
0010
0001
0000
0010
0100
0000
0100
1000
0000
0100
0000
0010
0000
,
0001
0000
0001
0000
0010
0100
0010
0100
0010
0000
0100
0000
0020
0000
0030
0001
,
0010
0001
0200
0300
0001
0000
0000
0000
;
