#TITLE:Perverse Heart ~ama no jaku~;
#SUBTITLE:;
#ARTIST:EGOISTIC LEMONTEA;
#TITLETRANSLIT:;
#SUBTITLETRANSLIT:;
#ARTISTTRANSLIT:;
#GENRE:;
#CREDIT:from pop n music 22 Lapistoria;
#MUSIC:Perverse_Heart_~ama_no_jaku~.ogg;
#BANNER:20140730132649!LT_Perverse_Heart_~amanojaku~.png;
#BACKGROUND:;
#CDTITLE:;
#SAMPLESTART:81.112;
#SAMPLELENGTH:17.000;
#SELECTABLE:YES;
#OFFSET:-0.184;
#BPMS:0.000=143.000;
#STOPS:;
#BGCHANGES:;
#FGCHANGES:;

//--------------- dance-single - ----------------
#NOTES:
     dance-single:
     :
     Beginner:
     4:
     0.145584,0.196039,0.10891,0.178924,0,131,117,14,23,0,0,0.145584,0.196039,0.10891,0.178924,0,131,117,14,23,0,0:
0000
0000
0000
0000
,
0000
0000
0000
0000
,
0000
0000
0001
0000
,
0001
0000
1000
0000
,
1000
0000
1001
0000
,
0100
0000
0010
0000
,
1000
0000
0101
0000
,
0001
0000
1000
0000
,
0010
0000
0200
0000
,
0301
0000
2000
0000
,
3001
0000
0010
0000
,
1000
0000
0100
0000
,
0010
0000
0001
0000
,
1000
0000
0100
0000
,
0010
0000
0001
0000
,
1000
0000
0001
0000
,
0000
0000
0200
0000
,
0310
0000
0010
0000
,
1000
0000
0001
0000
,
0100
0000
1000
0000
,
0001
0000
0100
0000
,
0001
0000
1000
0000
,
0001
0000
1000
0000
,
0001
0000
1000
0000
,
0000
0000
0110
0000
,
0000
0000
0010
0000
,
0100
0000
0001
0000
,
0200
0000
0320
0000
,
0030
0000
0110
0000
,
0100
0000
0001
0000
,
1000
0000
0002
0000
,
2003
0000
3000
0000
,
0001
0000
1000
0000
,
0010
0000
0100
0000
,
0001
0000
2000
0000
,
3002
0000
0003
0000
,
1000
0000
0001
0000
,
0100
0000
0010
0000
,
0100
0000
0002
0000
,
0203
0000
0300
0000
,
0010
0000
1000
0000
,
0001
0000
0001
0000
,
1000
0000
1001
0000
,
0000
0000
0001
0000
,
0000
0000
0100
0000
,
0010
0000
0100
0000
,
0000
0000
0010
0000
,
0100
0000
0010
0000
,
0000
0000
2002
0000
,
3003
0000
0001
0000
,
0100
0000
0020
0000
,
0000
0030
1000
0000
,
0001
0000
0001
0000
,
0100
0000
0010
0000
,
1000
0000
0002
0000
,
0000
0003
0100
0000
,
0000
0000
0110
0000
,
0000
0000
0100
0000
,
0001
0000
0020
0000
,
0000
0030
0001
0000
,
1000
0000
1001
0000
,
0000
0000
2200
0000
,
3300
0000
2000
0000
,
0000
3000
0001
0000
,
0000
0000
0202
0000
,
0303
0000
0202
0000
,
0303
0000
0101
0000
,
0001
0000
1000
0000
,
0010
0000
0110
0000
,
0100
0000
0010
0000
,
1000
0000
0001
0000
,
0001
0000
1000
0000
,
1100
0000
0000
0000
;

//--------------- dance-single - ----------------
#NOTES:
     dance-single:
     :
     Easy:
     7:
     0.273387,0.314479,0.186704,0.280055,0,246,222,24,36,0,0,0.273387,0.314479,0.186704,0.280055,0,246,222,24,36,0,0:
0000
0000
0000
0000
,
0000
0000
0000
0000
,
0000
0000
0001
0100
,
0001
0010
1000
0010
,
0001
0100
0110
0010
,
0200
0000
0302
0000
,
1003
0100
1100
0000
,
0011
0000
1001
0000
,
0010
0100
0020
0000
,
1030
0000
0001
0200
0000
0000
0300
0001
,
0000
1000
0001
1000
0000
0010
2000
0000
,
0000
3000
0010
0100
,
0001
1000
0020
0000
,
1030
0100
0200
0000
,
0310
0010
0002
0000
,
1003
0001
0200
0310
,
0010
0000
0100
0010
0000
0010
0200
0000
,
0000
0000
0310
1000
,
0001
0000
0110
0010
,
0100
0000
0010
0100
,
1001
0000
1010
1000
,
0001
0000
0101
0001
,
1000
0000
1000
0010
,
0001
0010
1000
0000
,
0100
0000
0020
0031
,
1000
0010
0100
0010
0000
0000
0100
0010
,
0000
0100
0000
0002
0000
0000
0003
2000
,
0000
3000
0002
0000
,
0003
0000
0200
0300
,
0010
0100
0010
0100
0000
0000
0010
0100
,
0000
0001
0000
1000
0000
0000
0000
0002
,
0000
0000
0003
0000
,
1000
0000
0110
0100
,
0001
1000
0100
1000
,
0001
0000
0010
0000
0001
0000
0000
0200
,
0000
0000
0310
0010
,
1000
0001
0100
0100
,
0010
0100
0010
1000
,
0010
0000
0100
0000
0001
0000
0000
0200
,
0000
0000
0320
0000
,
0030
0000
0000
0110
,
0000
0100
0000
0110
0000
0000
0010
0000
,
0010
0000
1000
0000
0001
0000
0000
2000
,
0000
0000
0000
3001
0000
0000
0100
0000
,
0010
0100
0001
1001
,
0000
1000
0000
1100
0000
0000
0100
0000
,
0010
0001
2000
0000
,
3010
0000
0100
0010
0000
0000
0000
0000
,
0000
0110
2002
0000
,
3003
0000
0001
0200
0000
0000
0300
0001
,
0000
0010
0001
0010
0000
0001
0020
0000
,
0000
0031
1000
1000
,
0010
0100
0002
0003
,
0000
0000
1000
0010
1000
0000
0010
0000
,
1000
0100
0020
0000
,
0031
0000
0000
1000
0000
0000
0001
0000
,
0101
1010
0202
0000
,
0303
0000
0001
0100
0001
0000
0000
0100
,
0000
0100
0010
0100
0000
0010
0200
0000
,
0000
0300
0001
1000
,
1000
0000
0010
0000
1010
0000
0000
2000
,
0000
0000
3001
0000
0002
0000
0000
1003
,
0000
0000
1000
0001
1000
0000
0000
0000
,
0001
0100
0100
0010
,
1000
0000
0001
0100
0000
0002
0200
0000
,
0000
0000
0000
0000
,
0003
0300
0001
0000
,
1000
0000
0010
0100
,
0001
1000
1100
0100
,
1000
0001
0011
0001
,
0100
0010
0100
0001
,
1000
0001
0100
1001
,
0101
0000
0000
2002
0000
0000
0000
0000
,
0000
0000
3003
0000
;

//--------------- dance-single - ----------------
#NOTES:
     dance-single:
     :
     Medium:
     10:
     0.523437,0.534877,0.295614,0.318952,0.10891,471,433,38,41,0,0,0.523437,0.534877,0.295614,0.318952,0.10891,471,433,38,41,0,0:
0000
0000
0000
0000
,
0000
0000
0000
0000
,
0000
0000
0000
0000
0001
0100
0010
1000
,
0000
0010
1000
0001
0000
0100
0010
0100
,
0000
0001
0100
0001
0101
0000
0100
0001
,
2000
0000
3001
1000
0020
0000
1030
0001
,
0020
0000
0130
1000
1001
0000
1000
0100
,
0011
0000
0001
0100
0110
0000
1010
0000
,
0010
0100
0010
0000
2000
0000
3001
0001
,
1000
0000
0001
0100
0010
0000
0000
0100
,
0000
0010
1000
0001
0000
0001
2000
0000
,
0001
0000
0000
0000
3001
0000
0000
0000
0110
0000
0000
0010
0000
0000
1000
0000
,
0001
0000
1000
0000
0001
0100
0010
2000
,
0000
3001
0100
0001
2000
0000
3010
0100
,
0000
0100
0001
2000
0002
0000
3003
0000
,
0110
0000
0001
1000
0100
0010
0010
0000
,
0001
0000
0000
0000
1000
0000
0001
0000
0000
0000
0001
0000
2000
0000
0000
0010
,
0000
0000
0000
0000
3010
0000
0100
0000
0010
0000
0000
0000
1000
0000
0000
0001
,
0000
0000
0000
0000
1000
0000
0001
0000
1000
0000
0000
0000
0010
0000
0000
0100
,
0000
0000
0010
0100
0010
0000
0110
0000
,
0001
0010
1000
0010
0011
0000
1000
0000
,
0001
0100
0001
0100
0010
0000
1010
0000
,
1000
0010
0100
0001
1000
0000
0010
0000
,
0100
0001
0100
1000
0100
0000
1001
0000
,
0001
0100
0001
0100
0010
0000
1000
0000
,
1000
0010
0100
0001
1000
0000
0001
0010
,
0000
0100
1000
0001
2000
0000
3000
0002
,
0000
0000
0003
0000
0100
0010
1000
0000
,
0100
0001
0100
0000
0010
0000
0000
0001
,
0010
0001
0010
0200
0000
0300
1000
0100
,
0000
0010
0000
0002
0000
0003
1000
0002
,
0000
1003
0101
1100
,
1000
0000
0001
0000
1000
0001
0000
0000
1000
0000
0000
0000
0010
0000
0000
0000
,
0100
0001
1000
0010
0100
0000
0101
0000
,
0001
0100
0001
1000
0100
0000
0010
0001
,
0010
0000
0100
1000
0100
0000
0010
0001
,
0010
0001
1000
0000
0110
0000
0001
0100
,
0001
1000
0100
0010
0001
0000
1000
0100
,
0000
0010
0000
0001
0100
0000
0010
1000
,
0010
0000
0100
0001
1000
0000
0010
0000
,
1000
0001
0000
1002
,
0003
0100
0010
0100
0000
0000
1001
0000
,
0011
0000
0001
0010
0002
0000
1003
0100
,
0010
0100
0010
0001
0000
0100
0010
0000
,
1000
0010
1000
0000
1001
0000
2100
0000
,
3001
0100
0010
0100
0000
0010
1000
0000
,
0100
0010
0100
0000
0020
0000
0001
0000
,
0030
0001
0000
0220
0000
0000
0330
0000
,
0000
0000
0001
0000
1000
0001
0100
0000
,
0001
0100
0010
0100
1000
0000
0000
0001
,
0000
1000
0001
0100
0000
0100
0002
0000
,
0103
0000
0000
0000
0010
0000
0000
1000
0001
0000
0000
1000
0000
0000
0001
0000
,
0100
0000
0100
0001
0020
0000
0130
0000
,
0000
0000
1000
0000
0010
0000
1000
0000
0001
0000
0000
0000
0100
0000
0000
0010
,
0100
0000
0000
0000
0100
0000
0000
0001
1000
0000
0000
0000
0010
0000
0100
0000
,
0001
0000
0000
0000
1000
0000
0020
0000
0000
0000
0000
0000
1030
0000
0000
0010
,
1000
0000
0010
0000
0200
0000
0301
0010
,
0000
0010
0001
0000
1001
0000
1000
0001
,
0000
0100
0010
0000
1000
0001
0100
0010
,
0100
0000
0000
0000
0010
0000
0000
1000
0001
0000
0000
0000
1000
0000
0000
0001
,
1000
0000
0010
0100
0002
0000
0003
1000
,
0010
1000
0100
0000
2000
0000
3000
0001
,
0100
0001
0100
0010
0200
0000
0310
0100
,
0010
0000
0100
0001
1000
0000
0002
0000
,
2003
0000
0000
0000
3001
0000
0200
0000
0000
0000
0301
0000
1000
0000
0000
1000
,
0000
0000
0001
0000
0100
0000
0000
0000
0001
0000
0000
0000
0100
0000
0000
0010
,
0000
0000
1000
0000
0100
0000
0000
0000
0010
0000
0000
0000
1001
0000
0000
0001
,
0000
0100
0010
0000
1000
0000
0101
0000
,
0010
0001
0100
0000
0020
0000
0130
0000
,
1000
0001
1000
0000
0100
0000
0011
0000
,
0001
0000
1001
0000
0001
0000
0100
0010
,
1000
0000
0100
0010
0001
0000
0011
0000
,
0001
0100
0010
0100
0000
0000
0000
0000
;

//--------------- dance-single - ----------------
#NOTES:
     dance-single:
     :
     Hard:
     12:
     0.583449,0.619331,0.303393,0.311173,0.272276,525,486,39,40,0,0,0.583449,0.619331,0.303393,0.311173,0.272276,525,486,39,40,0,0:
0000
0000
0000
0000
,
0000
0000
0000
0000
,
0000
0000
0000
0000
0001
0100
0010
1000
,
0000
0010
1000
0001
1000
0010
0010
0100
,
0000
0001
0100
0000
0101
0000
0100
0001
,
0200
0000
0310
1000
0020
0000
0130
0001
,
0010
0100
1000
0000
1100
0100
1100
0000
,
0011
0001
0011
0000
1001
0000
0110
0000
,
0010
0100
0010
1000
0020
0000
0130
0001
,
1000
0000
0000
0000
0001
0000
0100
0010
0100
0000
0000
0000
0100
0000
0010
0000
,
1000
0001
1000
1000
0000
0020
2000
0000
,
3030
0000
0000
0000
0001
0000
0100
0001
0100
0000
0000
0001
0000
0000
0010
0000
,
0002
0000
2003
0000
3001
0000
0100
0010
,
1000
0010
0100
0001
0200
0000
0301
0010
,
0001
0000
1000
0100
2000
0000
0010
0000
,
3010
0100
0100
0001
0200
0010
0310
0000
,
0101
0000
0100
0010
0000
0010
0210
0000
,
0010
0000
0010
0000
0310
0000
0000
0000
0010
0000
0000
0000
1000
0000
0000
0001
,
0000
0000
1000
0000
0001
0000
1000
0000
1001
0000
0000
0000
0010
0000
0000
0100
,
0000
0000
0001
0000
1000
0000
0010
0000
0100
0000
0010
0000
0110
0000
0000
0100
,
0000
0000
0010
0000
1000
0000
0010
0000
0110
0000
0000
0000
1000
0000
0000
0001
,
0000
0000
0100
0000
0101
0000
0001
0000
0101
0000
0000
0000
0001
0000
0000
1000
,
0000
0000
0010
0000
0110
0000
0100
0000
0101
0000
0000
0000
0010
0000
0000
0100
,
0000
0010
0100
0010
1010
1000
1010
0000
,
0001
0100
0100
0010
0100
0000
0001
0000
,
1000
0010
0100
0010
0100
0001
0100
0010
,
0000
0100
0100
0001
0002
0000
1003
0100
,
2000
0000
3010
0100
0002
0000
1003
0010
,
0100
0000
0001
0000
1000
0000
0010
0100
0010
0000
0000
0000
0000
0000
0100
0000
,
0010
0100
0010
1000
0001
1000
0001
0100
,
0010
0100
0000
0010
0110
0000
0010
2000
,
0000
0000
3001
0010
0001
1000
1100
0000
,
1100
0010
0011
0000
0010
0001
0010
0001
,
1000
0100
1000
0010
0100
0000
1010
0100
,
0001
0000
0100
0010
0100
0000
0010
0100
,
0010
0000
1010
1000
0010
0000
0100
0010
,
0100
0001
0100
0000
0001
0000
0000
0000
0110
0000
0000
0000
0020
0000
0030
0000
,
0100
0001
0100
0001
0010
0001
1000
0100
,
0010
0001
0100
0010
0100
0000
0010
1000
,
1000
0010
0100
0000
0001
0010
0200
0300
,
1000
0100
0020
0030
0000
0000
0022
0000
,
0033
0100
0010
0110
0000
0000
1000
0000
,
0010
0100
0001
0010
0001
0000
1001
0001
,
1000
0100
0010
0110
0000
0110
0010
0001
,
0010
0100
1000
0100
1000
0000
1100
0000
,
1000
0100
0010
0110
0000
0010
0001
1000
,
0100
0010
0100
0000
0020
0000
0031
0000
,
0100
0010
0100
0020
0000
0030
0000
0000
,
0000
0001
2000
0001
,
3001
0100
0010
0200
0010
0000
0300
0001
,
0010
0001
1000
0200
0000
0310
0002
0000
,
0100
0000
0000
0000
0103
0000
0000
0010
0100
0000
0000
0000
1010
0000
0000
0000
,
0100
0010
0100
0001
0020
0000
0030
0000
,
0001
1000
0100
1000
0020
0030
0100
0000
,
0010
0100
0100
0000
0010
0100
0020
0030
,
0100
0000
0010
0000
0200
0000
0320
0000
0000
0000
0030
0000
1000
0000
0000
0001
,
1000
0000
0000
0000
0010
0000
0100
0001
0200
0000
0000
0000
0000
0000
0010
0000
,
0300
0010
1000
0001
0200
0000
0310
0020
,
0000
0130
0010
0100
0001
1000
0020
0000
,
0130
0000
0000
0000
0010
0000
1000
0010
1000
0000
0000
0000
0001
0000
0100
0001
,
0100
0000
0000
0000
0010
0000
0100
0010
0200
0000
0000
0000
0001
0000
0001
0000
,
0301
0000
1000
0000
0100
0000
1000
0100
1000
0000
0010
0000
0100
0000
0001
0000
,
0100
0000
0010
0000
0010
0000
0100
0010
0200
0000
0000
0000
0010
0000
0010
0000
,
0310
0000
0100
0010
1000
0000
0002
0000
,
0023
0000
0000
0000
0031
0000
0100
0000
0101
0000
0000
0000
0001
0000
0000
1000
,
0000
0000
0010
0000
0100
0000
0010
0100
0010
0000
0000
0000
0100
0000
0000
0010
,
0000
0000
0010
0000
0100
0000
0001
0100
0001
0000
0000
0000
1001
0000
0000
1000
,
0000
0000
0100
0000
0010
0000
0001
1000
0001
0000
0000
0000
0101
0000
0000
0000
,
0010
0000
0010
0000
0100
0000
0000
0000
0020
0000
0000
0000
0100
0000
0030
0100
,
0000
0000
0001
0000
1000
0000
0001
0000
0200
0000
0000
0000
0001
0000
0300
0001
,
0000
0000
1000
0000
0001
0000
0100
0000
0001
0000
0010
0000
0100
0000
0000
1000
,
0000
0001
0100
0010
0110
0100
0101
0000
,
0001
0100
0001
1001
0000
0000
0000
0000
;

//--------------- dance-single - ----------------
#NOTES:
     dance-single:
     :
     Challenge:
     13:
     0,0,0,0,0:
0000
0000
0000
0000
,
0000
0000
0000
0000
,
0000
0000
0000
0000
0001
0100
0001
0100
,
0000
0010
1000
0010
1000
0010
0100
0010
,
2000
0000
3100
0000
0010
0000
0002
0000
0103
0000
0000
0000
0010
0000
0100
0010
,
0200
0000
0301
0000
2000
0000
3010
0100
,
0002
0000
0103
0010
0101
0000
0001
0010
,
0100
0010
0001
1000
1001
0000
0110
0000
,
0010
0100
0010
0100
0010
0000
0000
0000
0200
0000
0000
0000
0010
0000
0000
0000
,
0301
1000
0001
0100
0010
0000
0100
0001
,
0000
0100
0010
1000
0010
0100
0002
0000
,
1003
0000
0001
0000
0001
0000
0000
0100
0010
0000
0000
0100
0000
0000
0010
0000
,
1000
0100
1000
0000
0001
0000
0100
0000
0020
0000
0000
0000
0130
0000
0010
0000
,
1000
0000
0001
0000
0010
0000
0100
1000
0100
0000
0000
0000
0010
0000
0000
0000
,
0011
0000
0000
0000
0001
0000
1000
0001
2000
0000
0000
0000
3010
0000
0100
0000
,
0010
0000
0100
0000
0001
0000
1000
0001
0010
0000
0001
0000
1000
0000
0000
0000
,
0100
0010
0100
0000
0010
0000
0002
0000
0000
0000
1003
0000
2100
0000
0000
0001
,
3000
0000
0001
0000
0100
0000
0010
0000
0110
0000
0000
0000
1000
0000
0000
0001
,
0000
0100
0001
0000
0010
0000
0100
0000
1100
0000
0000
0000
0010
0000
0000
0100
,
0000
0010
0100
0000
0001
0000
1000
0000
0001
0000
1000
0100
1000
0000
0000
0001
,
0000
0100
0001
0000
0100
0000
0010
0000
1001
0000
0000
0000
1000
0000
0000
0010
,
0000
0010
0100
0000
0001
0100
0001
0100
0001
0000
0000
0000
1001
0000
0000
0010
,
0000
1000
0010
0000
1000
0000
0100
0000
0011
0000
0000
0000
0101
0000
0000
0001
,
0000
0001
0100
0000
0010
0000
1000
0000
0001
0000
0001
0000
1001
0000
0000
0010
,
0100
0100
0100
0001
2000
0000
3100
0000
,
1000
0000
0010
0000
0100
0000
0010
0100
0010
0000
0000
0000
1000
0000
0002
0000
,
0000
0203
0000
0320
0000
0000
0030
2000
,
0001
0000
3001
0100
0001
0000
1000
0100
,
1000
0100
1000
0100
1000
0100
1000
0000
0002
0000
0000
0000
0003
0000
0100
0000
,
0100
0010
1000
0001
0100
0000
0100
0020
,
0000
2030
0000
3020
0000
0130
0001
0200
,
0000
0000
0010
0000
0301
0001
0101
0010
,
1010
0000
0100
0000
0001
0200
0000
0000
0310
0000
1000
0000
0100
0000
0010
0000
,
0001
1000
1000
0010
0110
0100
0001
1000
,
0001
0100
0010
0200
0000
0000
0301
1000
,
0020
0100
0030
0100
0001
1000
0010
1000
,
1000
0001
0001
0100
0101
0000
0110
1000
,
0010
0000
0100
0000
0010
0000
0020
0000
0000
0000
0030
0000
1000
0000
0001
0010
,
0001
1000
0100
1000
0001
0010
0001
0200
,
0000
0010
0310
0100
0200
0000
0310
0000
,
1000
0110
0100
0110
0000
0000
0020
0000
,
0030
0100
0010
2020
0000
3030
0010
0000
,
0100
0000
0010
0000
1000
0000
0001
0100
0001
0000
0000
0000
0101
0000
1000
0000
,
0010
0000
0100
0010
0100
0000
0101
0000
0000
0000
0001
0000
0110
0000
1000
0000
,
0110
0000
0001
0010
0001
0000
1000
0000
0001
0000
0000
0000
1001
0000
0000
0000
,
0100
1000
0100
0101
0000
0000
0100
0001
,
0010
0001
1000
0010
1010
0000
0110
0100
,
0110
0000
0010
0000
0100
0000
0020
0000
0000
0000
0030
0000
0100
0010
0100
0010
,
0100
0001
2001
0001
,
3001
0000
0100
0000
0001
0000
0010
0001
0010
0000
0000
0000
0001
0000
1000
0000
,
0010
0100
0010
0000
0100
0000
0010
0100
0010
0000
0100
0000
0020
0000
0000
0000
,
1030
0000
0101
0000
1000
0010
0100
0000
,
0010
0100
0010
0000
0100
0000
0001
0100
0020
0000
0000
0000
1030
0000
1000
0000
,
0001
0000
0100
0000
0010
0000
1000
0100
1000
0000
0000
0000
0010
0000
0000
0000
,
0101
0001
0100
0000
0020
0000
0100
0000
,
0031
0000
0001
1000
0000
1000
1100
0000
,
0100
0010
0100
0000
0010
0100
0010
0000
0002
0000
0000
0000
0103
0000
0010
0000
,
0100
0001
0200
0001
0302
0000
0000
1000
,
0003
0100
0010
1000
0000
0001
0100
0100
,
0010
0000
0000
0000
0100
0000
0001
0100
0001
0000
1000
0100
1000
0000
0001
0000
,
0100
0001
0100
0000
0001
0000
1000
0000
0010
0000
1000
0100
1000
0000
0001
0000
,
0100
0000
0001
0000
1000
0000
0100
0000
1000
0000
0001
0100
0001
0000
1000
0000
,
0010
0000
0000
0000
0100
0000
0010
0100
0020
0000
0000
0000
0130
0000
0001
0000
,
0000
0000
0001
0000
1000
0010
1000
0010
1000
0000
0000
0000
0001
0000
0000
0000
,
0010
0000
0100
0010
0000
0001
2000
0000
,
0000
0000
0000
0000
3001
0000
0100
0000
0010
0000
0000
0000
0100
0000
0000
0010
,
0000
0100
0001
0000
1000
0000
0010
0000
1000
0000
0000
0000
0001
0000
0000
0100
,
0000
0100
0001
0000
1000
0000
0010
0000
0100
0000
0000
0000
0010
0000
0000
0010
,
0000
0100
0010
0000
1000
0000
0001
1000
0001
0000
0000
0000
1001
0000
0000
0001
,
0000
0100
0001
0000
1000
0000
0100
0010
0001
0000
0000
0000
0001
0000
0000
1000
,
0000
0001
0100
0000
0010
0000
0100
0000
0110
0000
0000
0000
0010
0000
0000
1000
,
0000
0010
1000
0000
0001
0000
0100
0000
0010
0000
0010
0000
1010
0000
0000
0010
,
0100
0110
0011
1001
0000
0000
0000
0000
;
