#TITLE:Parasol;
#SUBTITLE:;
#ARTIST:risette;
#TITLETRANSLIT:;
#SUBTITLETRANSLIT:;
#ARTISTTRANSLIT:;
#GENRE:;
#CREDIT:;
#BANNER:risette - Parasol.png;
#BACKGROUND:;
#LYRICSPATH:;
#CDTITLE:;
#MUSIC:risette - Parasol.ogg;
#OFFSET:-0.362000;
#SAMPLESTART:0.750000;
#SAMPLELENGTH:12.000000;
#SELECTABLE:YES;
#BPMS:0.000000=132.000000
;
#STOPS:
;
#BGCHANGES:;
#KEYSOUNDS:;
#ATTACKS:;

//---------------dance-single - ----------------
#NOTES:
     dance-single:
     :
     Beginner:
     3:
     0.117788,0.177813,0.008328,0.049971,0.000000,99.000000,98.000000,1.000000,6.000000,0.000000,0.000000,0.117788,0.177813,0.008328,0.049971,0.000000,99.000000,98.000000,1.000000,6.000000,0.000000,0.000000:
// measure 0
0000
0100
0000
0000
,  // measure 1
0000
0100
0000
0100
,  // measure 2
0000
0010
0000
0000
,  // measure 3
0000
0100
0000
0000
,  // measure 4
0001
0001
0000
0000
,  // measure 5
1000
1000
0000
0010
,  // measure 6
0000
0100
0000
0001
,  // measure 7
0000
0000
0000
1000
,  // measure 8
0000
0001
0000
0000
,  // measure 9
0000
0001
0000
0000
,  // measure 10
0000
0001
0000
0000
,  // measure 11
0000
1000
0000
0000
,  // measure 12
0000
0001
0000
0000
,  // measure 13
0000
0100
0000
0000
,  // measure 14
0000
0010
0000
0000
,  // measure 15
0000
0100
0000
0000
,  // measure 16
0000
0110
0000
0000
,  // measure 17
0000
0010
0000
0000
,  // measure 18
0000
0100
0000
0000
,  // measure 19
0000
0001
0000
0000
,  // measure 20
0000
1000
0000
0000
,  // measure 21
0000
0001
0000
0000
,  // measure 22
0000
1000
0000
1000
,  // measure 23
0000
0001
0000
0001
,  // measure 24
0000
1000
0000
0001
,  // measure 25
0000
0010
0000
0000
,  // measure 26
0000
0100
0000
0000
,  // measure 27
0001
0001
0000
0000
,  // measure 28
1000
1000
0000
0000
,  // measure 29
0010
0010
0000
0000
,  // measure 30
0000
0100
0000
0010
,  // measure 31
0000
1000
0000
0001
,  // measure 32
0000
0100
0000
0000
,  // measure 33
0000
0010
0000
0000
,  // measure 34
0000
2000
0000
0000
,  // measure 35
3000
0001
0000
0000
,  // measure 36
0000
0020
0000
0000
,  // measure 37
0030
0100
0000
0000
,  // measure 38
0000
0002
0000
0000
,  // measure 39
0003
0010
0000
0000
,  // measure 40
0100
0100
0000
0010
,  // measure 41
0000
0100
0000
0000
,  // measure 42
0010
0010
0000
1000
,  // measure 43
0000
0001
0001
0000
,  // measure 44
0000
1000
0000
0010
,  // measure 45
0000
0100
0000
0001
,  // measure 46
0000
0100
0000
0001
,  // measure 47
0001
0001
0000
1000
,  // measure 48
0000
1000
1000
1000
,  // measure 49
0000
0001
0001
0001
,  // measure 50
0000
0100
0000
0100
,  // measure 51
0000
0010
0000
0000
,  // measure 52
0000
0100
0010
0100
,  // measure 53
0000
0100
0010
0100
,  // measure 54
0000
0010
0000
1000
,  // measure 55
0000
0001
0000
0000
,  // measure 56
0000
0000
1000
0000
,  // measure 57
0010
0000
0200
0000
,  // measure 58
0300
0002
0000
1000
,  // measure 59
0003
0000
1000
0100
,  // measure 60
1000
0200
0000
0000
,  // measure 61
0300
0000
0000
0000
;

//---------------dance-single - ----------------
#NOTES:
     dance-single:
     :
     Easy:
     5:
     0.224869,0.257142,0.099942,0.049971,0.000000,189.000000,177.000000,12.000000,6.000000,0.000000,0.000000,0.224869,0.257142,0.099942,0.049971,0.000000,189.000000,177.000000,12.000000,6.000000,0.000000,0.000000:
0000
0000
0000
0000
,
0000
0000
0000
0000
,
0000
0100
0010
0100
,
0001
1001
0100
0000
,
0010
0100
0000
0010
,
1000
0100
0010
0001
,
0100
0010
1000
0010
,
0001
0010
1000
0001
,
0001
1001
0000
1000
,
0010
0100
0000
0001
,
0000
1000
0000
0001
,
0000
1000
0100
0010
,
0000
1000
0000
0010
,
0000
1000
0100
0010
,
0000
0100
0000
0001
,
0000
0100
0000
1000
,
0010
0001
0000
0100
,
0000
0010
0100
0010
,
0000
0100
0000
0001
,
0000
1000
0000
1001
,
0000
1001
0000
1000
,
0100
1000
0100
1000
,
0000
0001
0010
0001
,
0100
0001
0000
0100
,
0000
0110
0000
0010
,
0100
0100
0000
0001
,
0100
0100
0000
0001
,
1000
0010
0000
0010
,
0000
1000
0000
1100
,
0000
0010
0000
0100
,
0000
0101
0000
0010
,
0000
0100
0010
0100
,
0000
0010
0100
0010
,
0100
1001
0000
1000
,
0000
0002
1000
1000
,
1003
0200
0010
0010
,
0310
0002
0000
1003
,
0000
0020
0000
0130
,
0000
0001
1000
0001
,
0100
0001
1000
0000
,
0010
0110
0100
0001
,
0000
1000
0001
0100
,
0000
0010
1000
0001
,
0000
1000
0000
1000
,
0000
0011
0001
0010
,
0100
1000
0000
0001
,
0100
0010
1000
0001
,
0100
0010
1000
0001
,
0001
2000
0010
0010
,
3010
0100
0100
0100
,
0100
0001
0001
1000
,
1000
0001
0000
0000
,
1000
0001
0000
0100
,
0010
0110
0000
0100
,
0001
0010
0100
1000
,
0000
0100
0010
0010
,
0100
0000
1000
0000
,
0001
0000
1000
0000
,
0001
0100
0010
0010
,
1000
0001
0100
0010
,
0000
1001
1000
0010
,
0100
0002
0000
0003
;

//---------------dance-single - ----------------
#NOTES:
     dance-single:
     :
     Medium:
     8:
     0.292686,0.307321,0.024985,0.049971,0.437245,246.000000,243.000000,3.000000,6.000000,0.000000,0.000000,0.292686,0.307321,0.024985,0.049971,0.437245,246.000000,243.000000,3.000000,6.000000,0.000000,0.000000:
0000
0100
0000
0010
,
0100
0000
0010
0000
0000
0000
0010
0000
0100
0000
0000
0100
,
0000
0000
0010
0000
0000
0010
0000
0000
0100
0000
0000
0010
,
0000
0000
0000
1000
0000
0001
1000
0000
0000
0000
0000
0001
,
0000
0000
0100
0001
0000
0000
0100
0000
0000
0010
0000
0000
,
0100
0000
0010
0000
0000
1000
0000
0000
0001
0000
0000
0100
,
0000
0000
0001
0000
0000
0100
0000
0000
0010
0100
0000
0010
,
0000
0000
0200
0000
0000
0000
0301
0000
1000
0001
0000
0000
,
1000
0000
0000
0010
0000
0000
0100
0000
0000
0001
0000
1000
,
0000
0000
0001
0000
0000
1000
0000
0000
0010
0000
0000
0100
,
0010
0000
0100
0000
0000
0000
0000
0000
0000
0001
0000
0000
,
0000
0000
0001
0000
0000
0000
1000
0000
0000
0010
0000
0100
,
0001
0000
0100
0000
0000
0010
0000
0000
0000
0100
0000
0000
,
0100
0000
0001
0100
0000
0000
0000
0000
0000
0010
0000
0000
,
0000
1000
0100
0001
,
0010
0001
0000
0100
,
0000
0000
0000
0110
0000
0000
1000
0000
0000
0010
0000
1000
,
0000
0000
0010
0000
0000
0100
0000
0000
0010
0000
0000
0001
,
0000
0010
0000
0100
,
0000
0000
0010
0000
0000
0000
0000
0000
0000
0100
0000
0010
,
0100
0000
0010
0000
0000
1000
0000
0000
0000
0000
0000
0000
,
0001
0000
1000
0010
,
0100
0000
0001
0010
0000
0000
0000
0000
0000
0001
0000
0000
,
0000
1000
0010
0100
,
0000
0000
0000
0010
0000
0000
0010
0000
0000
0010
0000
1000
,
0010
0000
1000
0000
0000
0001
0000
0000
0100
0000
0000
0010
,
0000
0100
0001
1000
,
0100
0000
1000
0000
0000
0010
0000
0000
0100
0000
0000
0001
,
0010
0001
0000
1000
,
0010
0000
0100
0000
0000
0100
0000
0000
0001
0000
0000
1000
,
0000
0000
0000
0001
0000
0000
0001
0000
1000
0100
0000
0000
,
0100
0010
0010
0001
,
0001
0000
0000
0200
0000
0000
0000
0000
0001
0000
0000
0000
,
0001
0000
0000
0000
0000
0001
0000
0000
0000
0001
0000
0000
,
0001
0000
0000
0301
0000
1000
0000
0000
0001
0000
0000
0000
,
1000
0000
0000
0001
0000
1000
0000
0000
0001
0000
0000
1000
,
0000
0000
0010
0100
0000
0000
0100
0000
0010
0000
0000
0000
,
0100
0000
0001
0000
0000
1000
0000
0000
0010
0000
0000
0100
,
0000
0000
0000
0010
0000
0000
0010
0000
0100
0000
0000
0000
,
0001
1000
0010
0001
,
0010
1000
0001
0001
,
0100
0000
0001
0000
0000
0000
1000
0000
0000
1000
0000
0000
,
0100
0000
0010
0000
0000
0001
0000
0000
1000
0000
0000
0100
,
0000
0001
0100
0000
,
0010
0001
0001
1000
,
0010
0000
0100
0000
0000
0001
0000
0000
0010
0000
0000
0100
,
0000
0000
0010
0000
0000
0001
1000
0000
0000
0001
0000
1000
,
0000
0000
0001
0000
0000
0000
0110
0000
0000
0100
0000
0000
,
0010
0000
0000
0100
0000
0000
0001
0000
1000
0001
0000
1000
,
0001
0100
0001
0010
,
0001
0000
1000
0000
0000
0001
0000
0000
0010
0000
0000
0100
,
0000
0000
0000
0001
0000
1000
0001
0000
0000
0000
0000
0000
,
0100
0110
0010
0010
,
1000
0000
0010
0000
0000
0100
0000
0000
0001
0000
0000
0100
,
0000
0000
0010
0000
0000
0100
0010
0000
0000
0100
0000
0100
,
0000
0000
0100
0000
0000
0000
0000
0000
0000
0010
0000
0000
,
0000
0000
0020
0000
0000
0000
1030
0000
0000
0001
0000
0000
,
0100
0020
1000
1030
,
0001
0000
0000
0001
0000
0100
0000
0000
0001
0100
0000
0001
,
0000
0000
0200
0000
0000
0000
0310
0000
0000
0100
0000
0000
,
0001
0000
0000
1000
0000
0000
0001
0000
1000
0010
0000
1000
,
0010
0000
2000
0000
0000
0000
3000
0000
0000
0000
0000
0000
;

//---------------dance-single - from pop n music 16----------------
#NOTES:
     dance-single:
     :
     Hard:
     11:
     0.440219,0.514283,0.049971,0.049971,0.816191,370.000000,364.000000,6.000000,6.000000,0.000000,0.000000,0.440219,0.514283,0.049971,0.049971,0.816191,370.000000,364.000000,6.000000,6.000000,0.000000,0.000000:
0000
0000
0000
0100
0000
0000
0010
0000
0100
0000
0000
0010
,
0100
0000
0010
0000
0000
1000
0001
0000
0000
0001
0000
1000
,
0010
0000
0100
0000
0000
0010
0100
0000
0010
0000
0000
0100
,
0000
0000
0000
0001
0000
1000
0010
0000
0110
0000
0000
0010
,
0100
0000
0001
1000
0000
0100
0010
0000
0000
0001
0000
0000
,
1000
0000
0001
0000
0000
0010
0000
0000
0100
0000
0000
1000
,
0000
0000
0001
0000
0000
1000
0001
0000
0010
0100
0000
1000
,
0000
0000
0001
0000
0100
0010
0100
0000
0010
0100
0000
0001
,
1000
0000
0000
1001
0000
0000
1000
0000
0000
0010
0000
0100
,
0000
0000
0001
0000
0000
0001
0000
0000
0100
0000
0000
0010
,
0100
0000
0010
0000
0000
0000
1000
0000
0000
0001
0000
0010
,
0100
0000
0010
0000
0000
0000
0001
0000
0000
1000
0000
0010
,
0100
0000
0010
0000
0000
0100
0000
0000
0000
0001
0000
1000
,
0001
0000
1000
0001
0000
0000
0100
0000
0000
0010
0000
0000
,
0000
0000
0000
0010
0000
0000
0100
0000
0001
0010
0000
0000
,
0100
0000
0000
1000
0000
0000
0100
0001
0100
1000
0100
0010
,
0001
0000
1000
0001
0000
0000
0100
0000
0000
0010
0000
0100
,
0000
0000
0001
0000
0000
1000
0000
0000
0001
0000
0000
0100
,
0001
0000
0100
0000
0000
0000
0010
0000
0100
0010
0000
0100
,
0001
0000
0010
0000
0000
0000
0001
0000
0000
1000
0000
0100
,
0010
0000
0001
0000
0000
1000
0000
0000
0001
0000
0000
0100
,
0000
0000
0010
0100
0000
0001
1000
0000
1001
0000
0000
0001
,
0100
0000
0010
0100
0000
0000
0001
0010
0100
0010
0001
1000
,
0001
1000
0001
1000
0000
0010
0100
0000
0000
0010
0100
0010
,
0100
0010
0100
0010
0000
0000
0100
0000
0000
0001
0000
0100
,
0001
0000
1000
0000
0000
0010
0000
0000
0100
0010
0000
0100
,
0010
0000
0010
0100
0000
0000
0001
0000
0000
1000
0000
0100
,
1000
0000
1000
0000
0000
0100
0000
0000
1000
0000
0000
0010
,
0100
0000
0001
1000
0000
0000
0001
0000
0000
0010
0000
0001
,
0010
0000
0001
0000
0000
0010
0100
0000
1000
0000
0000
1000
,
0001
0000
0000
0100
0000
0000
0010
0000
1000
0010
0000
0100
,
0001
0000
1000
0010
0000
0000
0100
0010
0100
0010
0000
0000
,
0100
0000
0000
0010
0000
0000
0100
0000
0001
0000
0000
1000
,
0100
0000
0010
0000
0000
0100
1000
0000
0001
0100
0000
0000
,
0010
0000
0000
0100
0000
0001
0010
0000
0010
0100
0000
1000
,
0000
0000
0001
0010
0000
1000
0010
0000
0001
0100
0000
0001
,
0000
0000
0100
0010
0100
0010
0000
0000
1000
0100
0010
0100
,
0000
0000
1000
0001
0000
0100
0010
0000
0100
0000
0000
0010
,
0100
0000
0010
0200
0000
0000
0301
0000
0000
1000
0000
0000
,
0000
0000
0001
0000
0000
1000
0001
0000
0000
0100
0010
0100
,
0001
0100
0001
0100
0000
0000
0001
0000
0010
0100
0000
0000
,
0001
0000
0100
0010
0000
0000
0001
0000
1000
0100
0000
0000
,
0001
0000
0100
1000
0000
0001
0000
0000
1000
0000
0000
0010
,
0100
0000
0000
0010
0000
0010
0100
0000
0100
0000
0000
0001
,
1000
0000
0001
1000
0000
0000
0100
0000
0000
0010
0000
0000
,
0001
0000
0100
0000
0000
0010
0000
0000
0100
0000
0000
0001
,
0000
0000
0100
0000
0000
0010
0100
0000
0001
1000
0000
0001
,
0000
0000
0200
0000
0000
0000
0310
0000
0000
0100
0001
0100
,
0001
0100
0001
0100
0000
0000
0010
0000
1000
0010
0000
1000
,
0010
0000
0200
0000
0000
0000
0301
0000
0000
0010
0000
0001
,
1000
0000
0100
0000
0000
1000
0001
0000
1000
0001
0000
0100
,
0000
0000
0000
0001
0000
0100
0001
0000
0101
0000
0000
0001
,
1000
0000
0001
0100
0000
0000
0010
0000
0000
0100
0000
0010
,
0100
0000
0010
0000
0000
0010
0000
0000
0100
0000
0000
0001
,
0000
0000
0100
0010
0000
1000
0001
1000
0001
1000
0000
0001
,
0000
0000
1000
0000
0000
0010
0100
0000
0001
0100
0000
0010
,
0000
0000
0120
0000
0000
0000
0130
0000
0100
0000
0000
0001
,
0100
0000
0001
0000
0000
1000
0100
0000
1000
0010
0000
0100
,
0010
0100
0010
0100
0000
0001
0000
0000
0010
0100
0000
0100
,
1000
0000
0002
0000
0000
0000
0103
0000
0010
0100
0000
0001
,
0000
1000
0000
0001
0000
0000
0010
0000
0100
0010
0000
0001
,
0100
0000
0102
0000
0000
0000
0000
0000
0000
0003
0000
0000
;
