#TITLE:Otokozakari;
#SUBTITLE:;
#ARTIST:Silk Road;
#TITLETRANSLIT:;
#SUBTITLETRANSLIT:;
#ARTISTTRANSLIT:;
#GENRE:;
#CREDIT:from pop n music 13;
#BANNER:Silk Road - Otokozakari.png;
#BACKGROUND:;
#LYRICSPATH:;
#CDTITLE:;
#MUSIC:Silk Road - Otokozakari.ogg;
#OFFSET:-0.058000;
#SAMPLESTART:39.341000;
#SAMPLELENGTH:12.000000;
#SELECTABLE:YES;
#BPMS:0.000000=144.977997
;
#STOPS:
;
#BGCHANGES:;
#KEYSOUNDS:;
#ATTACKS:;

//---------------dance-single - ----------------
#NOTES:
     dance-single:
     :
     Beginner:
     4:
     0.179472,0.202365,0.057105,0.114210,0.000000,132.000000,126.000000,6.000000,12.000000,0.000000,0.000000,0.179472,0.202365,0.057105,0.114210,0.000000,132.000000,126.000000,6.000000,12.000000,0.000000,0.000000:
// measure 0
0000
0000
0000
0000
,  // measure 1
0000
0000
0000
0000
,  // measure 2
0000
0000
0000
0001
,  // measure 3
0000
0000
0000
0001
,  // measure 4
0000
1000
0000
0001
,  // measure 5
0000
0000
0000
0001
,  // measure 6
0000
0001
0000
0001
,  // measure 7
0000
0000
0000
0100
,  // measure 8
0000
0100
0000
0001
,  // measure 9
0000
0001
0000
1000
,  // measure 10
0000
0100
0000
2000
,  // measure 11
0000
3000
0000
0001
,  // measure 12
0000
0010
0000
0001
,  // measure 13
0000
0010
0000
0001
,  // measure 14
0000
0100
0000
2000
,  // measure 15
0000
3000
0000
0001
,  // measure 16
0000
0000
0101
0000
,  // measure 17
0000
0000
0101
0000
,  // measure 18
0000
0000
1010
0000
,  // measure 19
0000
0000
0101
0000
,  // measure 20
0001
0000
0010
0000
,  // measure 21
0001
1000
0001
0000
,  // measure 22
1000
0000
0100
0000
,  // measure 23
1000
0100
0010
0000
,  // measure 24
0001
0000
0010
0000
,  // measure 25
0001
0010
0100
0000
,  // measure 26
1000
0000
0010
0100
,  // measure 27
0010
0000
0100
0200
,  // measure 28
0300
0001
0001
0002
,  // measure 29
0003
1000
1000
2000
,  // measure 30
3000
0001
0001
0002
,  // measure 31
0003
0010
0010
0020
,  // measure 32
0030
0001
0001
1000
,  // measure 33
0000
0001
0001
1000
,  // measure 34
0000
1000
0001
0001
,  // measure 35
0000
0100
0100
0020
,  // measure 36
0000
0000
0030
0200
,  // measure 37
0000
0000
0300
0001
,  // measure 38
0000
1000
0000
0001
,  // measure 39
0000
1000
0000
0002
,  // measure 40
0000
0000
0003
1000
,  // measure 41
0000
1000
0000
1000
,  // measure 42
0000
0001
0000
0001
,  // measure 43
0000
0001
0000
1000
,  // measure 44
0001
1000
0000
0001
,  // measure 45
1000
0001
0000
1000
,  // measure 46
1000
1000
0000
0001
,  // measure 47
0001
0001
0000
0100
,  // measure 48
0100
0100
0000
0010
,  // measure 49
0010
0010
0000
0100
,  // measure 50
0000
0110
0000
0010
,  // measure 51
0000
0110
0000
0002
,  // measure 52
0000
0000
0003
1000
,  // measure 53
0000
1000
0000
2000
,  // measure 54
0000
0000
3000
0001
,  // measure 55
0000
0100
0000
0001
,  // measure 56
0000
0100
0000
0001
,  // measure 57
1000
0001
0000
1000
,  // measure 58
0100
1000
0000
0001
,  // measure 59
1000
0001
0000
0001
,  // measure 60
0010
0001
0000
1000
;

//---------------dance-single - ----------------
#NOTES:
     dance-single:
     :
     Easy:
     8:
     0.371181,0.462549,0.228419,0.161797,0.000000,273.000000,249.000000,24.000000,17.000000,0.000000,0.000000,0.371181,0.462549,0.228419,0.161797,0.000000,273.000000,249.000000,24.000000,17.000000,0.000000,0.000000:
0000
0000
0000
0000
,
0000
0000
0000
0000
,
0000
0000
0000
0001
,
0100
0100
0000
0001
,
0010
1000
0000
0011
,
0100
0101
0000
0001
,
1000
0001
0100
0010
,
0000
0100
0000
0200
,
0300
0001
1000
0002
,
0003
1000
0010
2000
,
3000
0200
0300
0020
,
0000
0031
0000
0001
,
1000
0010
0000
0101
,
0100
0001
0000
1000
,
0010
0200
0300
0020
,
0000
1030
0000
0001
,
0100
0000
0000
0100
0001
0000
1000
0000
,
0010
0100
0000
0100
0001
0000
1000
0000
,
0001
1000
0000
1000
0100
0000
0010
0000
,
0001
0100
0000
0001
1000
0000
1001
0000
,
0001
0100
0001
1000
0010
1000
0001
0000
,
1000
0000
0002
0003
0000
0000
0100
0000
,
1010
0101
0100
0010
,
1000
0001
0200
0000
0300
0000
0001
1000
,
0001
1000
0001
0000
1000
0000
0010
0000
,
0001
0100
0010
0110
,
1000
1100
0010
0011
,
0100
0010
0100
0000
0100
0000
0100
0000
,
0101
0000
0001
1000
0001
0000
1001
0000
,
1001
0000
0100
0001
0100
0000
1001
0000
,
0011
0000
0001
0010
0001
0000
1000
0000
,
0100
0000
0010
0001
0010
0001
0010
0000
,
0100
0000
1000
0010
1000
0010
0100
0000
,
0001
0000
0100
0010
0100
0010
1000
0000
,
0100
0000
0010
0001
0010
0001
1000
0000
,
1001
0000
0100
0010
0100
0010
0200
0000
,
0000
0300
0001
0000
1000
0000
0020
0000
,
0000
0030
1000
0000
0001
0000
1001
0000
,
0100
0010
0100
0000
0010
0100
0010
0000
,
1000
0000
1000
0001
1000
0000
0001
0010
,
0001
0000
1000
0000
0001
0000
1000
0010
,
1000
1000
0100
0011
,
0001
0000
1000
0000
0010
0100
0010
0000
,
0100
0001
1000
0001
,
0001
1001
1000
0110
,
0010
0200
0300
0001
,
1000
0000
1000
0001
0100
0000
0001
0000
,
0001
0000
0001
1000
0010
0000
0100
0000
,
0010
0000
0100
0010
0100
0000
0010
0000
,
0110
0020
0030
1001
,
1000
0110
0001
0010
,
1000
0020
0030
0002
,
0000
1000
0003
1000
1000
0000
2000
0000
,
0000
0001
3000
0001
0001
0000
0200
0000
,
0000
0010
0300
0010
0010
0000
0100
0000
,
0010
0000
0100
0010
0100
0000
0001
1000
,
0000
1000
0000
0010
0100
0000
0001
1000
,
0000
1000
0000
0010
0001
0000
0010
0100
,
0000
0100
0000
0001
1000
0000
0001
1000
,
0001
0100
0001
1000
0001
0000
1000
0000
,
0110
0001
0011
1000
;

//---------------dance-single - ----------------
#NOTES:
     dance-single:
     :
     Medium:
     11:
     0.493549,0.578186,0.361664,0.152279,0.033311,363.000000,325.000000,38.000000,16.000000,0.000000,0.000000,0.493549,0.578186,0.361664,0.152279,0.033311,363.000000,325.000000,38.000000,16.000000,0.000000,0.000000:
0000
0000
0000
0000
,
0000
0000
0000
0000
,
0000
0000
0000
0101
,
0100
0010
0100
0001
0100
0000
1010
1000
,
0001
0100
0101
1000
0001
0000
0101
0010
,
0110
0100
1001
0000
0001
0000
2000
0000
,
3002
0203
0300
0010
,
0100
0020
0030
2000
,
3001
0000
0100
0000
0010
1000
0001
0000
,
1000
0000
0100
0000
0010
0001
1000
0000
,
1000
0102
0103
0110
,
1000
0001
0100
0000
0010
0000
0110
0000
,
1000
0001
1000
0000
0001
0100
0101
0000
,
1000
0000
0010
0000
1000
0001
1000
0000
,
0010
0000
0100
0000
0001
1000
0002
0000
,
1003
0000
0110
0000
0000
0100
0010
0000
,
0100
0010
0100
0110
0110
0000
1000
0001
,
0100
0100
0000
0101
0101
0000
0001
1000
,
0010
0100
0000
1100
1100
0000
0001
0010
,
0001
0010
0000
0110
0110
0000
1000
0010
,
0100
0010
0001
0010
1000
1000
0001
0001
,
0010
0100
2000
0000
3000
0000
0001
0010
,
0001
0100
0100
0001
0010
0001
0100
0100
,
0010
1000
0020
0000
0030
0000
1000
0100
,
0010
0001
0100
0010
0100
0001
0010
0100
,
1000
0000
0000
1000
0001
0000
0000
0000
0000
0000
0000
0000
0110
0000
0000
0000
,
0100
0001
0010
0000
1000
0100
1000
0000
,
0001
0000
0010
0000
0001
0000
0000
0000
0100
0000
0010
0000
0100
0000
0000
0100
,
0010
0000
0000
0000
0100
0000
0001
0000
0100
0000
0001
0000
1000
0000
0000
0001
,
1000
0000
0000
0000
0001
0000
0010
0000
0001
0000
0010
0000
0001
0000
0000
1000
,
0001
0000
1000
0010
0100
0010
0110
0000
,
0100
0000
0001
0100
0001
0100
0101
0000
,
0010
0000
0010
1000
0010
0100
0101
0000
,
0001
0000
1000
0100
1000
0010
1100
0000
,
0010
0000
0001
0010
0001
0100
0011
0000
,
0001
0000
1000
0001
1000
0001
2000
0000
,
0000
0000
0010
0000
3100
0010
0002
0000
,
0000
0000
0100
0000
0013
0100
1000
0000
,
0010
0100
0001
0001
0001
0010
0100
0010
,
1000
0000
0001
0000
0100
0010
0002
0000
,
0000
0000
0100
0000
0013
0001
0200
0000
,
0000
0000
0301
0000
0010
1000
0020
0000
,
0000
0000
1000
0000
0130
0001
0100
0000
,
0010
0000
0000
0000
1000
0000
0001
0000
1000
0000
0001
0000
1000
0000
0000
1000
,
0010
0000
0100
0000
0001
0000
1000
0000
1000
0000
0001
0000
0100
0000
0000
0010
,
0100
0001
0200
0000
0300
0000
0010
0000
,
1001
0000
0000
0000
1000
0000
0001
0000
1000
0000
0001
0000
0010
0000
0000
0010
,
0100
1000
0010
0000
0100
0000
0001
0000
,
1000
0010
1000
0001
0100
0000
0011
0000
,
0001
0100
0020
0000
0030
0000
1001
0000
,
0010
1000
0001
1000
0010
0000
1000
0000
,
0001
1000
0010
0000
0000
0000
0100
0110
,
0000
0010
0000
1000
0001
0000
1000
1001
,
0000
0010
0000
0100
1000
0000
0010
0011
,
0000
0001
0000
0100
0010
0000
0100
0010
,
0100
0010
1000
0001
0101
0000
1000
0110
,
0000
1000
0000
0100
0010
0000
0001
0010
,
0000
0100
0000
1000
1000
0000
0001
0011
,
0000
0010
0000
0100
0010
0000
0001
0010
,
0001
0100
0010
1000
0100
0001
0101
0000
,
1100
0000
0110
0000
0011
0010
0001
0000
;

//---------------dance-single - ----------------
#NOTES:
     dance-single:
     :
     Hard:
     14:
     0.694775,0.722732,0.276006,0.171314,0.537737,511.000000,482.000000,29.000000,18.000000,0.000000,0.000000,0.694775,0.722732,0.276006,0.171314,0.537737,511.000000,482.000000,29.000000,18.000000,0.000000,0.000000:
0000
0000
0000
0000
,
0000
0000
0000
0000
,
0000
0000
0000
0000
0000
0000
0000
0000
0000
0000
0000
0000
0100
0001
0100
0001
,
0100
0010
0110
1000
0001
0000
1001
0010
,
0100
0000
0001
0100
0001
0000
1000
0000
0001
0000
0100
0000
0100
0001
0000
0010
,
0100
0000
1000
0000
2001
0000
0000
0000
3001
0000
0000
0000
1000
0000
0001
0100
,
0001
0100
0000
0001
0100
0001
0100
0001
0100
0000
0010
1000
0001
1000
0001
0000
,
0100
0000
0010
0000
0100
0010
0000
0010
0100
0000
0001
1000
0002
0000
0000
0000
,
1003
0000
0000
0000
0100
0000
0000
0000
0010
0000
0010
0000
0001
1000
0000
0001
,
1000
0010
0100
0000
0010
0100
0110
0000
,
0010
1000
1002
0000
1003
0001
0110
0000
,
0100
0000
0001
0000
0100
0000
0000
0100
0010
0000
0000
0000
0110
0000
0000
0000
,
1000
0000
0001
0000
1000
0001
0000
1000
0001
0000
0100
0000
0101
0000
0000
0000
,
0100
0001
0000
0100
0001
0000
0000
0000
1000
0000
0010
0100
0020
0000
0030
0000
,
0100
0010
0100
0000
0020
0000
0000
0000
0130
0000
0001
0000
1000
0001
0000
1000
,
0001
0000
0100
0000
0110
0000
0000
0000
0100
0000
0100
0000
0010
0100
0010
0000
,
0100
0000
0010
0000
0100
0000
0100
0000
0010
0000
0000
0000
1000
0001
0000
1000
,
0100
0000
0010
0000
0001
0000
0100
0001
0100
0000
0000
0000
0001
0010
0001
0000
,
0010
0000
0100
0000
1000
0000
0100
0010
0001
0000
0000
0000
0001
0010
0000
0001
,
0010
0000
0100
0000
1000
0000
0010
0100
0010
0000
0000
0000
0101
0000
0010
0000
,
0100
0000
0010
0100
0001
0000
0010
0000
0100
0000
0001
0000
0100
1000
0100
0000
,
0010
0001
0010
0000
0002
0000
0003
0000
1000
0000
0000
0000
0001
0000
0010
0000
,
0001
0000
1000
0000
0100
0000
1000
0000
0010
0000
0100
0000
0010
0100
0010
0100
,
0010
0100
0020
0000
0030
0000
0110
0100
,
0010
0010
0100
0001
0100
1000
0100
0001
,
0100
0000
0000
0100
0001
0000
0000
0000
1000
0000
0000
0000
1010
0000
0000
0000
,
0100
0010
0200
0300
0010
0100
0020
0030
,
1000
0000
0010
0000
0001
0000
0000
0000
1000
0000
0100
0000
0010
0100
0000
0001
,
0010
0000
0000
0000
0100
0000
0010
0000
0100
0000
0010
0000
0001
1000
0000
1000
,
0100
0000
0010
0000
0001
0000
0010
0000
0100
0000
1000
0000
0001
0010
0000
0010
,
0100
0000
0000
0000
0100
0000
0010
0000
0001
0000
0100
0000
0010
0100
0000
0100
,
0010
0000
0000
0000
0100
0000
1000
0000
0100
0000
0010
0000
0100
0010
0000
0010
,
0001
0000
0000
0000
1000
0000
0100
0000
0010
0000
0100
0000
0001
0100
0000
0010
,
1000
0000
0000
0000
0010
0000
0100
0000
0010
0000
0010
0000
0100
0010
0000
1000
,
0010
0000
0100
0000
0001
0000
0010
0000
0100
0000
0010
0000
0001
0010
0000
0001
,
0010
0000
1100
0110
1100
0110
0000
0000
,
0010
0000
0000
0100
0010
0000
0000
0000
0100
0000
0010
0000
0020
0000
0000
0000
,
0130
0000
0000
0010
0100
0000
0000
0000
1000
0000
0100
0000
0001
0000
0100
0000
,
1000
0000
0100
0000
0010
0000
0100
0000
0010
0000
0001
0000
0100
0010
0000
0010
,
1000
0000
0001
0100
0001
0000
0100
0010
0100
0000
0110
0000
0200
0000
0000
0000
,
0301
0000
0100
0001
0100
0000
0001
0010
0100
0000
0010
0000
0020
0000
0000
0000
,
0130
0000
1000
0010
1000
0000
1000
0100
0010
0000
0100
0000
0020
0000
0000
0000
,
0031
0000
1000
0010
0100
0000
0001
0100
0001
0000
0001
0000
0200
0000
0000
0000
,
0310
0000
1000
0010
0100
0000
0001
1000
0001
0000
0001
0000
1001
0000
0000
0100
,
0010
0000
0100
0000
0101
0000
0100
0000
0100
0000
0001
0010
0001
0010
0000
0010
,
0100
0000
1000
0000
0200
0000
0000
0000
0300
0000
0010
0001
0010
0000
0000
0001
,
0010
0000
0001
0000
0100
0000
0101
0000
0101
0000
0001
1000
0001
1000
0000
0010
,
0100
0000
0010
0000
0200
0000
0000
0000
0300
0000
0000
0000
1001
0000
0000
0010
,
1000
0000
0010
0000
0110
0000
0010
0000
0010
0000
0100
0010
1000
0010
0000
1000
,
0010
0000
0100
0000
0020
0000
0000
0000
0030
0000
0100
0001
0100
0000
0001
0000
,
0010
0000
0100
0000
1000
0000
0011
0000
0110
0000
1000
0100
1000
0100
0000
0100
,
0010
0000
0001
0000
0002
0000
0000
0000
0003
0000
0000
0000
0100
0000
0010
0100
,
0010
0000
0100
0001
0100
0000
0001
0010
0001
0000
0000
0000
1000
0000
0001
0100
,
0001
0000
0010
1000
0010
0000
0001
0100
0001
0000
0000
0000
0010
0000
0001
0010
,
0001
0000
1000
0100
1000
0000
0001
0010
0001
0000
0000
0000
0100
0000
0010
0000
,
1000
0000
0001
0000
0110
0000
0011
0000
0101
0000
0000
0000
1000
0010
0000
0100
,
0001
0000
0001
1000
0001
0000
0100
0001
0010
0000
0000
0000
0001
0000
0100
0001
,
0100
0000
0010
0100
0010
0000
0100
0001
0100
0000
0000
0000
0001
0010
0000
0100
,
1000
0000
0010
0100
0010
0000
0100
0010
0100
0000
0000
0000
0001
0000
0100
0000
,
0001
0000
0100
0000
0010
0000
1000
0100
0010
0000
0000
0000
0011
0000
0001
0100
,
0010
0000
0010
1000
0100
0000
0100
0010
0001
0000
1000
0010
0100
0000
0000
0000
;
