#TITLE:Otenki to chocolate;
#SUBTITLE:;
#ARTIST:Parquets;
#TITLETRANSLIT:;
#SUBTITLETRANSLIT:;
#ARTISTTRANSLIT:;
#GENRE:MODE;
#CREDIT:from pop n music 9 / 7 CS;
#BANNER:CS7_MODE.png;
#BACKGROUND:;
#LYRICSPATH:;
#CDTITLE:Popn_music_9_logo_small.png;
#MUSIC:Parquets - Otenki to chocolate.mp3;
#OFFSET:-0.093000;
#SAMPLESTART:6.932000;
#SAMPLELENGTH:16.000000;
#SELECTABLE:YES;
#BPMS:0.000000=140.000000
;
#STOPS:
;
#BGCHANGES:;
#KEYSOUNDS:;
#ATTACKS:;

//---------------dance-single - ----------------
#NOTES:
     dance-single:
     :
     Beginner:
     1:
     0.079585,0.111419,0.037140,0.055709,0.000000,60.000000,56.000000,4.000000,6.000000,0.000000,0.000000,0.079585,0.111419,0.037140,0.055709,0.000000,60.000000,56.000000,4.000000,6.000000,0.000000,0.000000:
0000
0000
0000
0000
,
0001
0000
0000
0000
,
1000
0000
0000
0000
,
0001
0000
0000
0000
,
0101
0000
0000
0000
,
0001
0000
0000
0000
,
2000
0000
3000
0000
,
0002
0000
0000
0003
,
2000
0000
0000
3000
,
0001
0000
0000
0000
,
0200
0000
0300
0000
,
0010
0000
0000
0000
,
0010
0000
0000
0000
,
1000
0000
0000
0000
,
1000
0000
0000
0000
,
0001
0000
0000
0000
,
1001
0000
0000
0000
,
1000
0000
0000
0000
,
0001
0000
0000
0000
,
1000
0000
0000
0000
,
0010
0000
0000
0000
,
0010
0000
0000
0000
,
0010
0000
0000
0000
,
0010
0000
0000
0000
,
1000
0000
0000
0000
,
0100
0000
0000
0000
,
0100
0000
0000
0000
,
0100
0000
0000
0000
,
1000
0000
0000
0000
,
0001
0000
0000
0000
,
0001
0000
0000
0000
,
1000
0000
0000
0000
,
0001
0000
0000
0000
,
1000
0000
0000
0000
,
1000
0000
0000
0000
,
0001
0000
0000
0000
,
0100
0000
0000
0000
,
0001
0000
0000
0000
,
0100
0000
0000
0000
,
0100
0000
0000
0000
,
0001
0000
0000
0000
,
1000
0000
0000
0000
,
0002
0000
0003
0000
,
0000
0000
0000
0000
,
1001
0000
0000
0000
,
0001
0000
0000
0000
,
0001
0000
0000
0000
,
0000
0000
0000
0000
,
1001
0000
0000
0000
,
1000
0000
0000
0000
,
1000
0000
0000
0000
,
0000
0000
0000
0000
,
0001
0000
0000
0000
,
0001
0000
0000
0000
,
0001
0000
0000
0000
,
0000
0000
0000
0000
,
1000
0000
0000
0000
,
1000
0000
0000
0000
,
2000
0000
3000
0000
,
0001
0000
0000
0000
,
0001
0000
0000
0000
;

//---------------dance-single - ----------------
#NOTES:
     dance-single:
     :
     Easy:
     4:
     0.171107,0.228408,0.092849,0.120703,0.000000,129.000000,119.000000,10.000000,13.000000,0.000000,0.000000,0.171107,0.228408,0.092849,0.120703,0.000000,129.000000,119.000000,10.000000,13.000000,0.000000,0.000000:
0000
0000
0000
0000
,
0001
1001
0000
0000
,
1000
1001
0000
0000
,
0100
0110
0000
0000
,
0110
0000
1000
0000
,
0001
0100
0001
0000
,
2000
0000
3100
0000
,
0020
0000
0031
0000
,
1000
0001
1000
0000
,
0001
0100
0001
0000
,
0200
0000
0310
0000
,
0020
0000
0130
0000
,
0001
0000
0000
0000
,
1000
0000
0100
0000
,
2000
3000
0000
0000
,
0001
0000
0010
0000
,
0001
0000
0000
0000
,
0100
0000
0010
0000
,
0200
0300
0000
0000
,
0001
1000
0001
0000
,
0110
0000
0010
0000
,
0010
0000
0100
0100
,
0100
0000
0010
0000
,
0010
0000
0100
0100
,
0100
0000
0010
0000
,
0100
0000
0001
0001
,
0001
0000
0000
0000
,
0100
0000
0010
0000
,
1000
0000
0001
0000
,
0001
0000
0100
0000
,
0010
0000
0010
0000
,
1000
0000
0100
0000
,
0010
0000
0001
0000
,
1000
0000
0001
0000
,
1000
0000
0010
0000
,
0100
0000
0010
0000
,
0110
0000
0000
0001
,
1001
0000
0000
0000
,
0110
0000
0000
0000
,
0200
0000
0300
0000
,
0001
0000
0010
0000
,
1000
0000
0100
0000
,
0002
0000
0003
0000
,
0100
0000
0000
0000
,
1001
0000
1000
0000
,
0001
0000
0000
0000
,
0001
0000
1000
0000
,
0001
1000
0001
0000
,
1001
0000
1000
0000
,
0100
0010
0100
0000
,
2000
0000
3002
0000
,
1003
0000
0001
0000
,
1000
0000
1000
0000
,
0001
0000
0001
0000
,
2000
0000
3000
0000
,
0010
0000
0010
0000
,
1000
0000
0001
0000
,
1000
0001
1000
0000
,
0002
0000
0103
0000
,
0001
0000
1000
0001
,
0100
0000
0000
0200
0000
0000
0000
0000
,
0000
0000
0300
0000
;

//---------------dance-single - ----------------
#NOTES:
     dance-single:
     :
     Medium:
     9:
     0.343540,0.372672,0.120703,0.315686,0.013927,259.000000,246.000000,13.000000,34.000000,0.000000,0.000000,0.343540,0.372672,0.120703,0.315686,0.013927,259.000000,246.000000,13.000000,34.000000,0.000000,0.000000:
// measure 0
0000
0000
0000
0000
,  // measure 1
0000
0000
0000
0000
,  // measure 2
0001
1000
0001
1000
0000
0001
0000
0000
,  // measure 3
2000
3200
0320
0032
,  // measure 4
0103
0000
0010
1000
0010
0000
0000
0100
,  // measure 5
0010
0000
0010
0100
0000
0001
0000
0000
,  // measure 6
2000
3000
0002
0003
,  // measure 7
1000
0100
1000
0000
0001
0000
0010
0001
,  // measure 8
0020
0000
0031
0000
0010
0000
0000
0001
,  // measure 9
1000
0000
0001
0100
0000
0001
0000
0000
,  // measure 10
0200
0300
0002
0003
,  // measure 11
0100
0000
0000
0010
0000
0000
0000
0000
,  // measure 12
0020
0000
0000
0230
0000
0300
0000
0001
,  // measure 13
1000
0001
1000
0100
0000
0100
0000
0000
,  // measure 14
2000
0000
0000
3200
0000
0300
0000
1000
,  // measure 15
0100
0010
0001
0011
,  // measure 16
1001
0000
0000
0001
0000
0000
0000
1000
,  // measure 17
0001
0100
0010
0100
0000
0010
0000
0000
,  // measure 18
0200
0000
0000
0302
0000
0003
0000
0100
,  // measure 19
0010
0000
0110
0000
0100
0010
0000
0000
,  // measure 20
0100
0001
1000
0000
1001
0000
0000
0010
,  // measure 21
0100
0000
0100
0010
0000
0110
0000
0000
,  // measure 22
0010
1000
0100
0000
0100
0010
0001
0000
,  // measure 23
0100
0000
0000
0001
0000
0000
0020
0000
0000
0000
0030
0000
0000
0000
0000
0000
,  // measure 24
0010
0100
0000
0100
0010
0000
0000
0001
,  // measure 25
0100
0001
0100
0010
0000
0100
0000
0010
,  // measure 26
0200
0000
0302
0000
1003
0000
0001
1000
,  // measure 27
0000
1000
0001
0000
0000
0100
0001
0010
,  // measure 28
0002
0000
0000
0023
0000
0030
0000
0100
,  // measure 29
1000
0100
1000
0100
0000
0010
0000
0000
,  // measure 30
0002
0000
0000
0203
0000
0300
0000
1000
,  // measure 31
0010
0000
1010
0000
1000
0010
0000
0000
,  // measure 32
1000
0000
0010
0100
0010
0000
0000
0100
,  // measure 33
0010
0100
0010
0010
0000
0010
0000
0000
,  // measure 34
2000
0000
0000
3002
0000
0003
0000
1000
,  // measure 35
0001
0000
0001
0000
0010
0010
0000
0000
,  // measure 36
0100
1000
0000
1000
0020
0000
0030
0100
,  // measure 37
0010
0000
1000
0100
0000
0010
0001
0000
,  // measure 38
0000
1000
0000
0001
1000
0000
0001
0000
,  // measure 39
0010
0000
0000
0001
0000
0000
0010
0000
0000
0000
0002
0000
0000
0000
0003
0000
,  // measure 40
1000
0100
0000
0100
1000
0000
0000
0001
,  // measure 41
0001
0000
0100
0010
0000
0100
0000
0010
,  // measure 42
0100
0000
0110
0000
0011
0000
0001
0010
,  // measure 43
0000
0010
0002
0000
0000
0000
0003
0000
,  // measure 44
0110
0000
0100
0000
0020
0000
0030
1000
,  // measure 45
0001
0000
0100
0001
0000
1000
0001
1000
,  // measure 46
0001
0000
0100
0100
,  // measure 47
0101
0000
0000
0101
0000
0101
0000
0000
,  // measure 48
0001
1000
0000
0001
1000
0000
0000
0001
,  // measure 49
0010
0000
0001
0010
0000
0001
0000
0100
,  // measure 50
0020
0000
0030
0000
0220
0000
0330
0001
,  // measure 51
1000
0001
0100
0001
0000
0010
0000
1000
,  // measure 52
0000
0000
0001
0100
,  // measure 53
1000
0000
0000
0001
0000
0000
2000
0000
0000
0000
3000
0000
0010
0000
0000
0000
,  // measure 54
0010
0000
0000
0000
0100
0010
0000
0010
,  // measure 55
1000
0100
0010
0001
0000
0001
1000
0020
,  // measure 56
0000
0000
0100
0000
,  // measure 57
1030
0100
0001
0100
,  // measure 58
1000
0001
1000
0001
1000
0000
0000
0001
,  // measure 59
0100
0000
0001
0100
0000
0001
0000
0001
,  // measure 60
1000
0000
0000
0020
0000
0000
0000
0100
,  // measure 61
0000
0000
0000
0100
0000
0000
0030
0000
;

//---------------dance-single - ----------------
#NOTES:
     dance-single:
     :
     Hard:
     12:
     0.486793,0.659342,0.204267,0.222837,0.120703,367.000000,345.000000,22.000000,24.000000,0.000000,0.000000,0.486793,0.659342,0.204267,0.222837,0.120703,367.000000,345.000000,22.000000,24.000000,0.000000,0.000000:
0000
0000
0000
0000
,
0000
0000
0000
0000
,
0001
1000
0001
1000
0000
0001
0100
0010
,
1000
0100
1000
0000
0010
0100
0010
0000
0100
0010
0100
0000
0001
0010
0001
0000
,
0100
0010
0010
0100
0110
0000
0010
0100
,
0010
0000
0010
1000
0000
0001
1000
1000
,
0002
0000
0000
0000
0103
0000
0100
0000
0001
0000
0100
0001
0100
0001
0100
0000
,
0001
0010
0001
0000
0100
0010
0100
0000
0010
0100
0010
0000
1000
0100
1000
0000
,
0002
0100
0103
0010
0100
0000
0001
0010
,
1000
0000
0010
0001
0000
0100
0001
1000
,
0002
0000
0000
0000
0103
0000
0100
0000
0010
0000
0000
0000
1000
0001
1000
0001
,
1000
0000
0000
0001
0000
0000
0000
0000
,
0020
0000
0000
0000
0000
0000
0031
0000
0000
0000
0001
0000
0000
1000
0001
0000
,
1000
0000
0100
0000
0010
0000
0001
0000
0000
0000
0100
0000
0000
0010
0000
0000
,
2000
0000
0000
3001
0000
1000
0100
1000
,
1100
0000
0011
0000
0001
0100
0000
0001
,
0012
0000
0000
1003
0000
0100
0000
1000
,
0001
0010
0001
0100
0000
0001
0000
0000
,
0200
0000
0000
0310
0000
0010
0100
0010
,
0100
0000
0110
0000
0100
0010
0000
0000
,
1000
0000
0002
0000
0000
0000
0003
0000
1000
0000
0000
0000
0000
0100
0010
0000
,
0001
0000
0100
0010
0000
1000
0000
0000
,
1000
0100
0010
0100
0010
0001
1000
0000
,
0100
0000
0000
0001
0000
0000
0020
0000
0000
0000
0030
0000
0000
0000
0000
0000
,
0001
0100
0000
0100
1000
0000
0000
0001
,
0100
0001
0100
0010
0000
0100
0010
0100
,
0001
0000
1000
0010
1000
0000
0001
1000
,
0001
1000
0020
0000
0030
0100
0010
0100
,
0002
0000
0000
0000
0000
0000
0013
0000
0000
0000
0100
0000
0000
1000
0100
0000
,
0010
0100
0010
0001
0000
0010
0000
0000
,
2001
0000
0000
3001
0000
0100
0010
0100
,
0010
0000
1010
0000
1000
0100
0000
0000
,
1000
0000
0010
0000
0000
0010
0100
0000
0000
0000
0010
0000
0000
0000
0100
0000
,
0010
0000
0100
0000
0100
0000
0001
0000
0000
0000
0010
0000
0000
0001
0010
0000
,
0200
0000
0000
1300
0000
0001
0000
1000
,
0001
0100
0101
0000
0010
0110
0000
0000
,
0100
0010
0000
1000
0002
0000
0003
0100
,
0010
0000
0010
0100
0000
0010
0100
0001
,
1000
0001
0000
0001
1001
0000
0100
0010
,
0110
0000
0000
0100
0000
0000
0010
0000
0000
0000
0220
0000
0000
0000
0330
0000
,
0100
0010
0000
0100
0001
0000
1000
0100
,
0010
0001
0100
0010
0000
0100
0000
0010
,
0110
0000
1000
0100
0010
0000
0001
0010
,
0100
0010
0002
0000
0000
0103
0010
0100
,
0010
0010
0100
0000
0020
0000
1030
0100
,
0100
0000
0010
0000
0010
0000
0001
0000
0000
0000
0001
0000
1000
0001
1000
0000
,
0000
0011
0000
0001
0010
0000
1000
0000
,
0101
0000
0000
0101
0000
0110
0000
0000
,
0001
0000
1000
0000
0000
0000
0001
0000
1000
0000
0000
0000
0000
1000
0001
0000
,
1000
0000
0100
0010
0000
0010
0000
0001
,
0022
0000
0033
0000
0100
0010
1000
0001
,
2000
0001
0001
0001
3000
0010
0100
0010
,
0110
0101
0001
1000
,
1001
0000
0000
0001
0000
0000
0200
0000
0000
0000
0301
0000
0010
0000
0001
0000
,
0010
0000
0100
1000
0100
0010
0100
0010
,
0001
0000
1000
0000
0010
0000
0200
0000
0000
0000
0301
0000
1000
0001
1000
0000
,
0001
0000
0100
0010
0100
0010
1000
0100
,
0010
0100
0010
0100
1000
0100
1000
0100
,
0010
0100
1000
0100
1000
0000
0000
0001
,
0101
0000
0000
0000
0001
0100
0001
0000
0000
0000
0100
0000
0000
0010
0100
0000
,
0001
0001
0001
0020
0000
0000
0000
0000
,
0000
0000
0000
0030
;
