#VERSION:0.83;
#TITLE:Oshioki nin no theme;
#SUBTITLE:;
#ARTIST:Yuichi Tsuchiya;
#TITLETRANSLIT:;
#SUBTITLETRANSLIT:;
#ARTISTTRANSLIT:;
#GENRE:;
#ORIGIN:;
#CREDIT:;
#BANNER:Yuichi Tsuchiya- Oshioki nin no theme.png;
#BACKGROUND:;
#PREVIEWVID:;
#JACKET:;
#CDIMAGE:;
#DISCIMAGE:;
#LYRICSPATH:;
#CDTITLE:;
#MUSIC:Yuichi Tsuchiya- Oshioki nin no theme.mp3;
#OFFSET:-0.050000;
#SAMPLESTART:-0.050000;
#SAMPLELENGTH:12.000000;
#SELECTABLE:YES;
#BPMS:0.000=153.000;
#STOPS:;
#DELAYS:;
#WARPS:;
#TIMESIGNATURES:0.000=4=4;
#TICKCOUNTS:0.000=4;
#COMBOS:0.000=1;
#SPEEDS:0.000=1.000=0.000=0;
#SCROLLS:0.000=1.000;
#FAKES:;
#LABELS:0.000=Song Start;
#BGCHANGES:;
#KEYSOUNDS:;
#ATTACKS:
;

//---------------dance-single - ----------------
#NOTEDATA:;
#CHARTNAME:;
#STEPSTYPE:dance-single;
#DESCRIPTION:;
#CHARTSTYLE:;
#DIFFICULTY:Beginner;
#METER:2;
#RADARVALUES:0.111698,0.155457,0.022663,0.079322,0.005666,69.000000,67.000000,2.000000,7.000000,0.000000,0.000000,0.000000,0.000000,0.000000,0.111698,0.155457,0.022663,0.079322,0.005666,69.000000,67.000000,2.000000,7.000000,0.000000,0.000000,0.000000,0.000000,0.000000;
#CREDIT:;
#NOTES:
0000
0000
0000
0000
,
0000
0000
0000
0000
,
0100
0000
0000
0100
,
0000
0000
0010
0000
,
0010
0000
0000
1000
,
0000
0000
0001
0000
,
0001
0000
0000
1000
,
0000
0000
1000
0000
,
0010
0000
0000
0100
,
0000
0000
0000
0000
,
0010
0000
0000
0000
,
0100
0000
0000
0000
,
0010
0000
0000
0000
,
0100
0000
0000
0000
,
0020
0000
0000
0030
,
0100
0000
0100
0000
,
0002
0000
0000
0003
,
0000
0000
1000
0000
,
0002
0000
0003
0000
,
1000
0000
0000
0000
,
0020
0000
0030
0000
,
0100
0000
0000
0000
,
0010
0000
0010
0000
,
0010
0000
0000
0000
,
0100
0000
0100
0000
,
0001
0000
0000
0000
,
1001
0000
0000
0000
,
0000
0000
0000
0000
,
0110
0000
0000
0000
,
0010
0000
0000
0000
,
0100
0000
0000
0000
,
0000
0000
0001
0000
,
1000
0000
0000
0001
,
0000
0000
0100
0000
,
0010
0000
0000
0100
,
0000
0000
0010
0000
,
1000
0000
0000
0000
,
0001
0000
0000
0000
,
1000
0000
0010
0000
,
1000
0000
0010
0000
,
0100
0000
0000
0000
,
0010
0000
0000
0000
,
0100
0000
0100
0000
,
0001
0000
0000
0000
,
1000
0000
1000
0000
,
0010
0000
0000
0000
,
0200
0000
0000
0000
,
0300
0000
0001
0000
,
0002
0000
0000
0000
,
0003
0000
1000
0000
,
0001
0000
1000
0000
,
0001
0000
0000
0000
,
2000
0000
0000
0000
,
3001
0000
0000
0000
,
0100
0000
0000
0000
0000
0000
0000
0010
0000
0000
0000
0000
0000
0000
0100
0000
;

//---------------dance-single - ----------------
#NOTEDATA:;
#CHARTNAME:;
#STEPSTYPE:dance-single;
#DESCRIPTION:;
#CHARTSTYLE:;
#DIFFICULTY:Easy;
#METER:7;
#RADARVALUES:0.259010,0.305956,0.090654,0.090654,0.000000,160.000000,152.000000,8.000000,8.000000,0.000000,0.000000,0.000000,0.000000,0.000000,0.259010,0.305956,0.090654,0.090654,0.000000,160.000000,152.000000,8.000000,8.000000,0.000000,0.000000,0.000000,0.000000,0.000000;
#CREDIT:;
#NOTES:
0000
0000
0000
0000
,
0000
0000
0000
0000
,
0100
0000
0000
0001
0000
0000
0100
0000
,
0000
0001
0000
0000
1000
0000
1000
0000
,
0001
0000
0000
0001
0000
0000
1000
0000
,
0000
0001
0000
0000
0100
0000
0100
0000
,
0010
0000
0000
0010
0000
0000
0010
0000
,
0000
0100
0000
0000
0100
0000
0100
0000
,
0100
0000
0000
0010
0000
0000
1000
0000
,
0000
0001
0000
0000
1000
0000
0000
0000
,
1002
1000
1003
0000
,
1000
1000
0001
0000
,
0100
0100
0010
0000
,
0010
0010
0100
0000
,
0020
0000
0030
0100
,
0000
0100
0000
0000
0001
0000
0100
0000
,
0002
0000
0000
1000
0003
0000
1000
0000
,
0001
0000
1000
0001
0000
0001
1000
0000
,
0001
0100
0110
0000
,
1000
0100
0110
0000
,
0001
0100
0101
0000
,
1000
0100
0101
0000
,
1000
0000
0001
0000
,
1000
0001
1000
0001
,
1001
0000
0010
0100
,
0110
0000
0100
0010
,
0100
0000
0000
0010
0000
0000
0100
0000
,
0000
0001
0000
0000
1000
0001
0000
0001
,
1000
0000
0000
0001
0000
0000
1000
0000
,
0100
0010
0001
1000
,
1000
0001
0001
0000
,
1000
0000
0001
0000
,
0100
0000
0000
0010
0000
0000
0100
0000
,
0010
0100
0000
0100
0010
0000
0000
0000
,
0010
0000
0000
1000
0000
0000
0001
0000
,
1000
0001
0000
0001
1000
0000
0000
0000
,
0002
0000
0000
0203
,
0000
0000
0000
0310
,
0000
0000
0010
0010
,
1000
1000
0001
0001
,
0100
0000
0000
0010
0000
0000
0100
0000
,
0010
0000
0000
0100
0000
0000
0000
0001
,
0000
1001
0000
1000
,
0001
0010
0100
0010
,
0001
0000
0000
0000
,
0100
0000
0010
0000
,
0100
0000
0010
0100
0000
0000
0010
0000
,
0000
0100
0000
0000
0001
0000
1000
0000
,
0001
0000
0000
1000
0000
0000
0010
0000
,
1000
0010
0010
0000
,
0200
0000
0000
0001
0000
0000
0001
0000
,
0300
0001
0000
0000
1000
0000
0001
0000
,
0200
0000
0000
0010
0000
0000
0010
0000
,
0300
0020
0000
0000
,
0030
0000
0000
0000
;

//---------------dance-single - ----------------
#NOTEDATA:;
#CHARTNAME:;
#STEPSTYPE:dance-single;
#DESCRIPTION:;
#CHARTSTYLE:;
#DIFFICULTY:Medium;
#METER:9;
#RADARVALUES:0.401466,0.471682,0.022663,0.101985,0.130315,248.000000,246.000000,2.000000,9.000000,0.000000,0.000000,0.000000,0.000000,0.000000,0.401466,0.471682,0.022663,0.101985,0.130315,248.000000,246.000000,2.000000,9.000000,0.000000,0.000000,0.000000,0.000000,0.000000;
#CREDIT:;
#NOTES:
// measure 0
0000
0000
0000
0000
,  // measure 1
0000
0000
0000
0000
,  // measure 2
0100
0000
0001
0100
0000
0100
0001
0000
,  // measure 3
1000
0010
0000
0010
1000
0100
0010
0001
,  // measure 4
1000
0000
0001
1000
0000
0001
1000
0000
,  // measure 5
0100
0010
0000
0000
0001
0100
0010
0100
,  // measure 6
0001
0000
0100
0001
0000
1000
0010
0000
,  // measure 7
0010
1000
0000
0000
0001
1000
0001
1000
,  // measure 8
0001
0000
1000
0100
0000
1000
0100
0000
,  // measure 9
0010
0001
0000
0000
1000
0000
0000
0000
,  // measure 10
0002
0000
0100
0100
0000
0000
0100
0000
,  // measure 11
0003
0100
0010
0100
0010
0100
0000
0010
,  // measure 12
0100
0000
0100
0010
0000
0010
0100
0000
,  // measure 13
0020
0000
0100
0100
0030
0100
0001
0000
,  // measure 14
2000
0000
0001
0001
0000
0000
0001
0000
,  // measure 15
3000
0001
0010
0001
0010
0001
0000
1000
,  // measure 16
0001
0000
1000
0001
0000
0100
0010
0000
,  // measure 17
0200
0000
0001
0001
0300
0001
0100
0000
,  // measure 18
0001
0000
0100
0010
0000
0000
0100
0010
,  // measure 19
0100
0000
0010
1000
0000
1000
0010
1000
,  // measure 20
0020
0000
0130
0010
,  // measure 21
0100
0001
1001
1001
,  // measure 22
1000
0010
1000
0010
1000
0000
0001
0100
,  // measure 23
0001
0000
0100
0001
0100
0000
0001
0100
,  // measure 24
0001
0000
0002
0000
0003
1000
0100
0010
,  // measure 25
0001
0000
0000
0000
0100
0010
0100
0010
,  // measure 26
0100
0000
0000
0000
,  // measure 27
0010
0000
0000
0100
0000
0000
0010
0000
0000
0000
0200
0000
0000
0000
0000
0000
,  // measure 28
0301
0000
0000
0000
0000
0001
0000
0000
0001
0000
0000
0001
0000
0000
0000
0000
,  // measure 29
1000
0000
0000
0000
0100
0000
0000
0000
0100
0000
0000
0000
0000
0010
0000
0000
,  // measure 30
0010
0000
0000
0000
0000
0000
0100
0000
0000
0000
0000
0000
0000
0100
0000
0000
,  // measure 31
0100
0000
0000
0000
0000
0000
0000
0000
0001
0000
0000
0001
0000
0000
0001
0000
,  // measure 32
1000
0000
0001
1000
0000
0001
1000
0000
,  // measure 33
0001
0100
0000
0000
0010
0100
0010
1000
,  // measure 34
0001
0000
1000
0010
0000
1000
0100
0000
,  // measure 35
0010
0100
0000
0000
1000
0100
0010
0001
,  // measure 36
1000
0000
0000
0000
0000
0001
0000
0000
0000
0000
0100
0000
,  // measure 37
0000
0000
0000
0000
0000
0001
0000
0000
0000
0000
0000
0000
,  // measure 38
1000
0000
0001
0000
0000
0000
1000
0000
0001
0000
0000
0000
,  // measure 39
0010
0000
0100
0000
0000
0000
0100
0000
1000
0000
0000
0000
,  // measure 40
1000
0000
0200
0000
0000
0000
0300
0000
1000
0000
0000
0000
,  // measure 41
0000
0000
0001
0000
0000
0100
0000
0000
0010
0000
0000
0000
,  // measure 42
0200
0000
0001
0300
,  // measure 43
0000
0000
1000
0000
0000
0000
0001
0000
0000
0000
0000
0000
,  // measure 44
0001
0000
0100
0000
0010
0000
1000
0001
,  // measure 45
1000
0000
0001
0010
0001
0000
0100
0010
,  // measure 46
0100
0000
0001
0100
0000
0100
0001
0000
,  // measure 47
0000
1000
0000
0000
0010
0100
0010
0100
,  // measure 48
0010
0000
0100
0010
0000
0010
1000
0000
,  // measure 49
0000
0001
0000
0000
1000
0001
1000
0001
,  // measure 50
0100
0000
0010
0100
0000
0010
0100
0000
,  // measure 51
0000
0001
0000
0000
1000
0001
1000
0001
,  // measure 52
0100
0000
0001
0100
0000
0001
0010
0000
,  // measure 53
0001
0001
1000
1000
,  // measure 54
0001
0000
0000
0100
0000
0000
0010
0000
0000
0100
0000
0000
0001
0000
0000
0010
,  // measure 55
0000
0000
0001
0000
0000
0100
0000
0000
0010
0000
0000
0000
0000
0000
0000
0000
;

//---------------dance-single - ----------------
#NOTEDATA:;
#CHARTNAME:;
#STEPSTYPE:dance-single;
#DESCRIPTION:;
#CHARTSTYLE:;
#DIFFICULTY:Hard;
#METER:13;
#RADARVALUES:0.628100,0.660355,0.135980,0.113317,0.481597,388.000000,376.000000,12.000000,10.000000,0.000000,0.000000,0.000000,0.000000,0.000000,0.628100,0.660355,0.135980,0.113317,0.481597,388.000000,376.000000,12.000000,10.000000,0.000000,0.000000,0.000000,0.000000,0.000000;
#CREDIT:;
#NOTES:
0000
0000
0000
0000
,
0000
0000
0000
0000
,
0110
0000
0000
0000
0100
0000
0010
0000
0000
0000
0100
0010
0100
0000
0000
0000
,
0010
0100
0000
0010
1000
0001
0100
0001
,
1000
0000
0000
0000
0001
0000
0100
0000
0000
0000
0010
0100
0001
0000
0000
0000
,
1000
0010
1000
0010
1000
0001
0100
0001
,
0100
0000
0110
0000
0010
0100
0010
0000
,
0100
0010
0100
0000
0000
0000
0010
0000
1000
0000
0001
0000
0100
0010
0001
0000
,
1000
0000
0000
0000
0100
0000
0010
0000
0000
0000
0100
0010
0100
0000
0000
0000
,
0001
1000
0001
1000
0001
0000
1000
0001
1000
0001
1000
0000
0001
0000
1000
0000
,
0200
0000
0010
0001
0000
0001
0310
0000
,
0010
0100
0010
0001
1000
0100
0010
0100
,
0010
0001
0100
0010
1000
0001
1000
0100
,
1100
0000
0010
0011
0000
1000
1100
0010
,
0002
0000
1000
0100
0000
0100
1003
0000
,
0010
0100
0010
0100
0001
0010
0100
0010
,
0002
0000
0100
0100
0000
0100
0103
0000
,
0110
0000
0000
0000
0010
0000
0100
0000
0000
0000
0100
0000
0010
0000
1000
0010
,
0200
0000
0000
0000
0301
0000
0001
0000
0000
0000
0001
0000
1000
0000
0100
0010
,
0001
0000
1000
0010
0100
0010
1000
0100
,
0002
0000
0100
0100
0003
0100
1000
0010
,
0001
0000
0010
0000
1000
0100
0010
0001
,
0010
0001
1000
0100
1000
0100
0010
0001
,
0010
0001
1000
0100
0010
0001
0001
0010
,
0100
0001
0100
0000
1000
0010
0100
0010
,
0200
0000
0001
0001
0000
0001
0301
0100
,
0001
0000
0001
0100
0000
0010
0100
0000
0010
0100
0000
0001
1000
0000
0010
0000
,
0001
0010
0000
1000
0000
0000
0001
0100
0000
0000
0020
0000
0000
0000
0030
0000
,
0100
0000
0001
0000
0000
0100
0000
0000
0010
0000
0000
0001
0000
0000
0000
0000
,
1000
0000
0010
0000
0100
0010
0000
0100
0000
0010
0000
0100
0010
0000
0000
0000
,
0100
0000
0000
0001
0000
0000
0010
0000
0100
1000
0100
0000
0000
0010
0000
0000
,
0001
0000
1000
0000
0001
1000
0001
0000
1000
0000
0100
0010
0000
0100
0010
0000
,
0001
0000
0100
0010
0000
0010
0100
0000
,
0001
1000
0100
1000
0010
0100
0010
0100
,
0101
0000
0010
0100
0000
0001
1000
0000
,
1000
0001
0100
0010
0010
0100
0001
0100
,
0011
0000
0001
0000
1000
0001
0000
1000
0001
1000
0001
1000
,
0000
0000
0001
0010
0100
1000
0001
0000
0100
0010
0100
0001
,
0100
0000
0010
0000
0100
0000
0010
0000
1000
0100
0010
0000
,
0000
0100
0000
0010
0100
0000
0001
0100
0000
0010
0100
0010
,
0100
0001
0200
0000
0000
0000
1000
0000
1000
0300
0000
0100
,
0010
0000
0100
0000
0000
0010
0000
0000
0001
0000
1000
0100
,
1000
0000
0010
0100
0000
0010
1000
0000
0001
1000
0001
1000
,
0100
0000
0010
0000
0001
0000
1000
0000
0100
0010
0100
1000
,
0001
0000
0000
0000
0100
0000
0000
0000
0010
0000
0000
0000
0100
0010
0100
0000
,
0010
0000
0000
0000
0100
0010
0100
0000
0010
0000
0010
0000
0010
0000
0010
0000
,
1010
0000
0000
0000
0100
0000
0101
0000
0000
0000
0010
0100
0010
0000
0100
0010
,
0100
0000
0010
0000
1000
0000
0001
0000
1000
0000
0010
1000
0010
0000
0100
0000
,
0101
0000
0000
0000
0001
0000
1000
0000
0000
0000
0010
0100
0010
0000
0100
0001
,
0100
0000
0010
0000
1000
0000
0001
0000
1000
0000
0001
1000
0001
0000
1000
0000
,
1002
0000
0000
0000
0003
0000
0100
0001
,
0010
0000
0001
0100
0001
0000
0100
0000
0010
0000
1000
0100
1000
0000
0001
0000
,
0100
0000
0010
0100
0000
1000
0001
0200
,
0000
0000
0000
0300
,
0001
0000
0000
1000
0000
0000
0001
0000
0000
0100
0000
0000
0010
0000
0000
0001
,
0000
0000
0010
0000
0000
0100
0000
0000
0100
0000
0000
0000
0000
0000
0000
0000
;
