#VERSION:0.83;
#TITLE:Ophelia;
#SUBTITLE:;
#ARTIST:kabotya;
#TITLETRANSLIT:;
#SUBTITLETRANSLIT:;
#ARTISTTRANSLIT:;
#GENRE:;
#ORIGIN:;
#CREDIT:from pop n music eclale;
#BANNER:Ec_Ophelia.png;
#BACKGROUND:;
#PREVIEWVID:;
#JACKET:;
#CDIMAGE:;
#DISCIMAGE:;
#LYRICSPATH:;
#CDTITLE:;
#MUSIC:Ophelia [TubeRipper.cc].ogg;
#OFFSET:-0.437000;
#SAMPLESTART:36.084000;
#SAMPLELENGTH:18.100000;
#SELECTABLE:YES;
#BPMS:0.000=165.000;
#STOPS:;
#DELAYS:;
#WARPS:;
#TIMESIGNATURES:0.000=4=4;
#TICKCOUNTS:0.000=4;
#COMBOS:0.000=1;
#SPEEDS:0.000=1.000=0.000=0;
#SCROLLS:0.000=1.000;
#FAKES:;
#LABELS:0.000=Song Start;
#BGCHANGES:;
#KEYSOUNDS:;
#ATTACKS:
;

//---------------dance-single - ----------------
#NOTEDATA:;
#CHARTNAME:;
#STEPSTYPE:dance-single;
#DESCRIPTION:;
#CHARTSTYLE:;
#DIFFICULTY:Beginner;
#METER:3;
#RADARVALUES:0.111439,0.260025,0.154390,0.008126,0.000000,96.000000,77.000000,19.000000,1.000000,0.000000,0.000000,0.000000,0.000000,0.000000,0.111439,0.260025,0.154390,0.008126,0.000000,96.000000,77.000000,19.000000,1.000000,0.000000,0.000000,0.000000,0.000000,0.000000;
#CREDIT:;
#NOTES:
// measure 0
0000
0000
0000
0000
,  // measure 1
0000
0000
0000
0000
,  // measure 2
0000
0000
0000
0000
,  // measure 3
0000
0000
0000
0000
,  // measure 4
0000
0000
0000
0000
,  // measure 5
1000
0000
0000
0000
,  // measure 6
0001
0000
0000
0000
,  // measure 7
1000
0000
0000
0000
,  // measure 8
0000
0000
0000
0000
,  // measure 9
0000
0001
0000
0001
,  // measure 10
0000
0000
0000
1000
,  // measure 11
0000
1000
0000
0000
,  // measure 12
0000
0010
0000
0000
,  // measure 13
0000
0100
0000
0000
,  // measure 14
0000
0100
0000
0000
,  // measure 15
0000
0010
0000
0000
,  // measure 16
0000
1000
0000
0000
,  // measure 17
0000
0001
0000
0000
,  // measure 18
0000
0000
0000
1000
,  // measure 19
0000
0000
0000
0001
,  // measure 20
0000
0000
0000
1000
,  // measure 21
0000
1000
0000
0000
,  // measure 22
0000
0001
0000
0001
,  // measure 23
0000
0000
0000
0100
,  // measure 24
0000
0000
0000
0000
,  // measure 25
0000
0100
0000
0000
,  // measure 26
0000
0010
0000
0000
,  // measure 27
0000
0100
0000
0000
,  // measure 28
0000
0010
0000
0000
,  // measure 29
0010
0010
0000
0000
,  // measure 30
0100
0100
0000
0000
,  // measure 31
0000
0001
0000
0000
,  // measure 32
0000
0000
0000
0000
,  // measure 33
0000
1001
0000
0000
,  // measure 34
0000
0001
0000
0000
,  // measure 35
0000
1001
0000
0000
,  // measure 36
0000
1000
0000
0000
,  // measure 37
0000
1001
0000
0000
,  // measure 38
0000
0001
0000
0000
,  // measure 39
0000
0000
0000
1000
,  // measure 40
0000
0000
0000
0000
,  // measure 41
1001
0000
0000
0000
,  // measure 42
1000
0000
0000
0000
,  // measure 43
0001
0000
0000
0000
,  // measure 44
0100
0000
0000
0000
,  // measure 45
0110
0000
0000
0000
,  // measure 46
0100
0000
0000
0000
,  // measure 47
0010
0000
0000
0000
,  // measure 48
0010
0000
0000
0000
,  // measure 49
1010
0000
0000
0000
,  // measure 50
0000
0000
0000
0000
,  // measure 51
1010
0000
0000
0000
,  // measure 52
0000
0000
0000
0000
,  // measure 53
0101
0000
0000
0000
,  // measure 54
0101
0000
0000
0000
,  // measure 55
1001
0000
1001
0000
,  // measure 56
1001
0000
0000
0000
,  // measure 57
0000
0000
0000
0000
,  // measure 58
0000
0000
0000
0000
,  // measure 59
0000
0100
0000
0000
,  // measure 60
0000
0010
0000
0000
,  // measure 61
0000
1000
0000
0000
,  // measure 62
0000
0001
0000
0000
,  // measure 63
0000
0100
0000
0000
,  // measure 64
0000
0110
0000
0000
,  // measure 65
0110
0000
0000
0000
,  // measure 66
1001
0000
0000
0000
,  // measure 67
0001
0000
0001
0000
,  // measure 68
0001
0000
0000
0000
,  // measure 69
0101
0000
0000
0000
,  // measure 70
1001
0000
0000
0000
,  // measure 71
1000
0000
1000
0000
,  // measure 72
1000
0000
0000
0000
,  // measure 73
0101
0000
0000
0000
,  // measure 74
1001
0000
0000
0000
,  // measure 75
0001
0000
0100
0000
,  // measure 76
0001
0000
0000
0000
,  // measure 77
2000
0000
3000
0000
,  // measure 78
0001
0000
0000
0000
,  // measure 79
1000
0000
0001
0000
,  // measure 80
1000
0000
0000
0000
;

//---------------dance-single - ----------------
#NOTEDATA:;
#CHARTNAME:;
#STEPSTYPE:dance-single;
#DESCRIPTION:;
#CHARTSTYLE:;
#DIFFICULTY:Easy;
#METER:8;
#RADARVALUES:0.343605,0.454333,0.316906,0.000000,0.000000,296.000000,257.000000,39.000000,0.000000,0.000000,0.000000,0.000000,0.000000,0.000000,0.343605,0.454333,0.316906,0.000000,0.000000,296.000000,257.000000,39.000000,0.000000,0.000000,0.000000,0.000000,0.000000,0.000000;
#CREDIT:;
#NOTES:
0000
0000
0000
0000
0000
0110
0000
0000
,
0010
0000
0100
0000
0000
1001
0000
0000
,
0001
0000
1000
0000
0000
0110
0000
0000
,
1000
0000
0001
0000
0000
0101
0000
0001
,
0000
0101
0000
0001
0000
1001
0000
0000
,
1000
0000
0100
0000
0000
0011
0000
0000
,
0001
0000
1000
0000
0000
1100
0000
0000
,
0000
0010
0000
0001
0000
1000
0000
0000
,
0000
0001
0000
0000
0000
1001
0000
0000
,
0000
0100
0001
0100
,
0010
1000
0010
1000
,
0001
1000
0010
1000
,
0010
1000
0000
0001
,
0100
0001
0100
1000
,
0100
0001
1000
0010
,
0000
0000
0100
0000
0000
0000
1000
0001
,
1000
0000
0001
0000
1000
0001
0000
0000
,
1000
0010
0100
0001
,
1000
0010
0100
0001
,
1000
0001
0000
0001
,
1000
1000
0010
1000
,
0000
0001
0100
0001
,
0100
0010
1000
0100
,
0010
0000
0001
0000
0000
1000
0000
0010
,
0000
1000
0000
0000
0000
0100
0000
0000
,
0100
0000
0100
0000
0000
0010
0000
0000
,
0010
0000
0010
0000
0000
0001
0000
0000
,
1000
0000
1000
0000
0000
0010
0000
0000
,
0100
0000
0100
0000
0000
0110
0000
0000
,
0001
0000
0001
0000
0000
1001
0000
0000
,
0100
0000
0100
0000
0000
1001
0000
0000
,
0010
0000
0010
0000
0000
0100
0000
0000
,
0000
0010
0000
0000
0000
1001
0000
0000
,
0001
0000
1000
0000
0000
0001
0000
0000
,
0100
0000
0010
0000
0000
1000
0000
0010
,
0000
0010
0000
1000
0000
0010
0000
0000
,
0000
0000
0100
0000
0000
0110
0000
0000
,
0001
0000
1000
0000
0001
1000
0000
1000
,
0001
0000
0100
0000
0010
1000
0000
0001
,
0000
1000
0000
0100
0000
0010
0000
0001
,
0000
1000
0001
0000
0000
1001
0000
0000
,
0100
0000
0100
0000
0000
0101
0000
0000
,
0001
0000
0010
0000
0100
1000
0000
0100
,
0000
0010
0000
0001
0000
1000
0000
0010
,
0000
0000
0100
0000
0000
1010
0000
0000
,
0010
0000
0100
0000
0000
1001
0000
0000
,
0001
0000
0100
0000
0000
0110
0000
0110
,
0000
1001
0000
1001
0000
1001
0000
0010
,
0000
0000
0000
0000
0000
1010
0000
0000
,
0010
0000
0010
0000
0000
0100
0000
0000
,
0010
0000
0100
0000
0000
1001
0000
0000
,
0001
0100
0001
1000
,
0001
0000
0000
0000
0000
1001
0000
0000
,
1000
0000
0001
0000
0000
0101
0000
0000
,
0001
0000
1000
0000
0000
1100
0000
0000
,
0000
1010
0000
0000
0000
1100
0000
0000
,
0000
0001
0000
0000
0000
0110
0000
0000
,
0000
0010
0000
0000
0000
0010
0000
0000
,
0000
0000
0000
0000
0000
0100
0000
0000
,
0000
0100
0000
0000
0000
1000
0000
0000
,
0000
0000
0000
0000
0000
1000
0000
0001
,
0000
0100
0000
0000
0000
0001
0000
0010
,
0000
0100
0000
0000
0000
1000
0000
0010
,
0000
0100
0000
0000
0000
0010
0000
0100
,
0000
0001
0000
0000
0000
0110
0000
0000
,
0100
0000
0010
0000
0000
1001
0000
0000
,
0001
0000
1000
0000
0010
0100
0000
0010
,
0000
0100
0000
0001
0000
1000
0000
0000
,
0000
1000
0001
0000
0000
1001
0000
0000
,
1000
0000
0100
0000
0000
1010
0000
0000
,
0100
0000
0010
0000
0001
1000
0000
0001
,
0000
1000
0000
0010
0000
1000
0000
0010
,
0000
0100
0001
0000
0000
0101
0000
0000
,
0001
0000
1000
0000
0000
1001
0000
0000
,
1000
0000
0100
0000
0010
0001
0000
1000
,
0000
0001
0000
1000
0000
0001
0000
0100
,
0000
0010
0000
1000
0000
0001
0000
0100
,
0010
0000
0100
0000
0000
0101
0000
0000
,
0001
0000
1000
0000
0010
0100
0000
0001
,
0000
1000
0000
0001
0000
1000
0000
1001
;

//---------------dance-single - ----------------
#NOTEDATA:;
#CHARTNAME:;
#STEPSTYPE:dance-single;
#DESCRIPTION:;
#CHARTSTYLE:;
#DIFFICULTY:Medium;
#METER:12;
#RADARVALUES:0.546749,0.649047,0.390038,0.016252,0.081258,471.000000,423.000000,48.000000,2.000000,0.000000,0.000000,0.000000,0.000000,0.000000,0.546749,0.649047,0.390038,0.016252,0.081258,471.000000,423.000000,48.000000,2.000000,0.000000,0.000000,0.000000,0.000000,0.000000;
#CREDIT:;
#NOTES:
0000
0000
0000
0000
0000
0110
0000
0100
,
0010
0000
0100
0010
0000
1001
0000
0001
,
1000
0000
0100
0010
0000
0011
0000
0001
,
1000
0000
0010
0100
0000
0010
0000
0100
,
0000
0010
0000
1000
0000
1001
0000
0001
,
1000
0000
0001
1000
0000
1100
0000
0100
,
0001
0000
0100
0001
0000
0100
0000
1000
,
0010
0100
0000
0010
0100
0001
0000
2000
,
0000
0000
0010
3000
0000
0010
0000
0000
,
0000
0000
0100
0010
1000
0001
0000
0000
,
0000
1000
0000
0010
0100
0010
0000
0000
,
0100
0010
0100
0010
0010
0100
0000
0001
,
0000
1000
0000
0001
0000
1000
0001
0000
,
0000
1000
0010
1000
0010
0100
0000
0000
,
0000
0001
0010
0100
1000
0001
0000
0001
,
0000
1000
0010
1000
0000
0001
0100
0001
,
0000
1000
0010
0100
0010
0110
0000
0000
,
0001
1000
0100
0010
0001
0010
0000
0000
,
0000
0010
0100
1000
0001
1000
0000
0000
,
0001
0100
0001
0010
0100
0100
0000
1000
,
0000
0000
0000
0010
0000
0000
0100
0000
0000
0000
0001
0000
0000
0000
1000
0000
,
0000
0001
0100
0001
1000
0010
0000
0010
,
1000
0001
0100
0001
0100
0010
0000
0010
,
0000
0010
1000
0001
0100
0010
0000
0100
,
0110
0110
0000
0010
0000
0110
0000
1000
,
0100
0010
0001
1000
0000
0001
0000
0001
,
0010
0100
1000
0001
0000
1001
0000
1000
,
0010
0100
0001
0100
0110
0110
0000
1000
,
0001
1000
0010
0000
0100
0110
0000
0010
,
1000
0001
0100
0010
0000
0010
0000
0010
,
1000
0100
0010
0001
0000
0011
0000
0010
,
0100
1000
0100
0010
0001
0011
0000
0001
,
0000
0000
1000
0000
0010
0000
0000
0100
0000
0000
0101
0000
0000
0000
0001
0000
,
1000
0000
0010
0000
0100
0000
0000
0010
0000
0000
0110
0000
0000
0000
0010
0000
,
0100
0010
1000
0001
0001
0001
0000
1000
,
1000
1000
0000
0010
0010
0110
0000
1001
,
0000
0000
1000
0000
1100
0000
0000
0010
0000
0000
0011
0000
0000
0000
0001
0000
,
0010
0000
0100
0000
1000
0000
0000
0100
0000
0000
0011
0000
0000
0000
0001
0000
,
0100
0000
0010
0100
0010
1000
0000
1000
,
0100
0001
0000
0001
0100
1000
0000
1000
,
0100
0000
0000
0000
0001
0000
0000
0100
0000
0000
1100
0000
0000
0000
0010
0000
,
0001
0000
1000
0010
1000
0000
0000
0010
0000
0000
1001
0000
0000
0000
0100
0000
,
0001
0000
1000
0010
0100
0001
0000
0001
,
1000
1000
0000
0100
0001
0100
0000
0010
,
0000
0000
0001
0000
0011
0000
0000
0100
0000
0000
1010
0000
0000
0000
0010
0000
,
0100
0000
0001
1000
0001
0000
0000
1000
0000
0000
1001
0000
0000
0000
0001
0000
,
0100
0000
0010
0010
0100
0100
0000
1000
,
0100
0001
0000
1000
0100
0001
0000
1000
,
0010
0000
0001
0000
1000
0000
0000
0001
0000
0000
1001
0000
0000
0000
0000
0000
,
1000
0000
0010
0100
0010
0200
0000
0300
,
0001
0000
1000
0001
0000
1001
0000
0001
,
0100
0010
0000
0010
1000
0100
0000
0100
,
0001
0100
0000
0100
0010
0100
0000
0100
,
1000
0001
1000
0010
0000
0110
0000
0010
,
0100
0000
0001
0010
1000
0010
0000
0001
,
0010
1000
0000
0001
0100
1000
0000
1000
,
0100
0001
0000
1000
0010
0001
0000
0000
,
0000
0000
0000
0000
,
0000
0000
0000
0000
,
0000
0000
0000
0000
,
0000
0000
0100
0000
0010
0000
0000
0010
0000
0000
0100
0000
0000
0000
0000
0000
,
0000
0000
0001
0000
1000
0001
0000
0000
,
0000
0000
1000
0000
0100
0011
0000
0001
,
0010
0100
0000
1000
0100
0011
0000
0101
,
0000
0000
0000
0000
0000
0110
0000
1000
,
0100
0010
0100
1000
0000
0011
0000
0001
,
0010
0100
0010
0001
0000
1000
0000
0100
,
0000
0010
0000
0001
0000
1000
0000
1010
,
0000
0000
0010
0000
0100
0000
0000
0001
0000
0000
1001
0000
0000
0000
1000
0000
,
0010
0000
0100
0000
0001
0000
0000
0001
0000
0000
0011
0000
0000
0000
1000
0000
,
0100
0000
1000
0100
0010
0100
0010
0001
,
1000
0010
0000
0100
0010
0100
0000
0010
,
0000
0000
0100
0000
0010
0000
0000
0100
0000
0000
0110
0000
0000
0000
0010
0000
,
1000
0000
0010
0100
0010
0000
0000
0100
0000
0000
0110
0000
0000
0000
0010
0000
,
0100
0000
0001
1000
0001
0000
0000
0000
1000
0000
1001
0000
0000
0000
0110
0000
,
0000
1000
0100
0010
0001
1000
0000
0100
,
0000
0010
0000
0001
0010
0001
0000
1000
,
0100
0000
1000
0000
0010
0000
0000
0010
0000
0000
0110
0000
0000
0000
0100
0000
,
0010
0100
0001
1000
0010
0110
0000
0010
,
0110
0110
0000
0001
1001
1001
0000
1000
;

//---------------dance-single - ----------------
#NOTEDATA:;
#CHARTNAME:;
#STEPSTYPE:dance-single;
#DESCRIPTION:;
#CHARTSTYLE:;
#DIFFICULTY:Hard;
#METER:15;
#RADARVALUES:0.670958,0.681500,0.414415,0.105635,0.349409,578.000000,527.000000,51.000000,13.000000,0.000000,0.000000,0.000000,0.000000,0.000000,0.670958,0.681500,0.414415,0.105635,0.349409,578.000000,527.000000,51.000000,13.000000,0.000000,0.000000,0.000000,0.000000,0.000000;
#CREDIT:;
#NOTES:
0000
0000
0000
0000
0000
0110
0000
0100
,
0010
0000
0000
0000
0100
0010
0100
0010
0100
0000
1010
0000
0000
0000
0001
0000
,
1000
0000
0000
0000
1000
0100
0010
0001
1000
0000
1100
0000
0000
0000
0001
0000
,
1000
0000
0000
0000
0010
0100
0010
1000
0010
0000
0110
0000
0000
0000
0101
0000
,
0000
0000
0010
0000
0000
0000
1000
0010
1000
0000
1001
0000
0000
0000
0001
0000
,
0100
0000
0000
0000
0001
0010
0100
1000
0001
0000
1001
0000
0000
0000
0100
0000
,
0010
0000
0000
0000
1000
0100
0010
0001
0010
0000
0011
0000
0000
0000
1000
0010
,
0100
0000
0001
0000
0000
0000
0010
0100
1000
0000
0001
0000
0000
0000
1000
0000
,
0010
0000
0100
0000
0010
0000
0000
0010
0000
0000
0020
0000
0000
0000
0030
0000
,
0000
0000
0100
0010
1000
0001
0000
0010
,
0000
1000
0100
0010
0000
0001
0000
0000
,
1000
0010
0100
0001
0010
0100
0000
1000
,
0000
0100
0010
0000
0000
0000
0001
0000
0000
0000
1000
0000
0000
0000
0100
0000
,
0000
1000
0010
0100
0010
1000
0000
0001
,
0000
0010
0001
0100
0001
1000
0000
0001
,
0000
1000
0010
1000
0010
0001
0010
0001
,
0010
0000
1000
0000
0000
0000
0010
0100
0001
0000
0110
0000
0000
0000
0001
0000
,
0000
1000
0100
0001
0001
0100
0000
1000
,
0000
0010
0100
0010
0100
0001
0000
0001
,
0000
0100
0001
0010
0100
1000
0000
0010
,
0000
0100
0010
0100
0000
0001
0000
0010
,
0000
0001
0100
0010
1000
0100
0000
0100
,
0000
0010
0001
1000
0100
0010
0000
0010
,
0000
0010
0001
1000
0100
0010
0000
0100
,
0010
0000
0001
1000
0001
0000
0020
0000
0030
0000
0100
0000
0000
0000
1000
0000
,
0100
0000
0010
0001
0001
0010
0000
0010
,
0100
0001
0100
1000
0000
1010
0000
1000
,
0010
0100
0010
0010
0100
0110
0000
1001
,
0001
0000
1000
0000
0010
0100
0010
1000
0010
0000
0110
0000
0000
0000
0010
0000
,
1000
0000
0100
0010
0001
0010
0000
0010
,
0100
1000
0010
0001
0001
0011
0000
0010
,
0100
0001
0100
0010
0100
0011
0000
0001
,
0000
0000
1000
0000
0010
0000
0000
0100
0000
0000
0101
0000
0000
0000
0001
0000
,
1000
0000
0000
0000
0100
0010
0100
0010
0001
0000
0011
0000
0000
0000
0010
0000
,
0100
0000
0000
0000
1000
0000
0001
0100
0010
0000
0100
0000
0000
0000
0010
1000
,
0010
0000
1010
0000
0000
0000
0010
0001
0010
0000
0101
0000
0000
0000
1000
0000
,
0000
0000
1000
0000
0100
0000
0000
0010
0000
0000
0011
0000
0000
0000
0001
0000
,
0001
0000
0000
0000
1000
0100
0010
0001
1000
0000
1100
0000
0000
0000
0001
0000
,
0100
0000
0000
0000
0010
0000
0100
0010
0100
0000
0010
0000
0000
0000
1000
0100
,
1000
0000
0101
0000
0000
0000
0001
0010
0001
0000
1010
0000
0000
0000
1000
0000
,
0000
0000
0010
0000
0001
0000
0000
0010
0000
0000
1001
0000
0000
0000
0010
0000
,
0001
0000
0000
0000
1000
0001
1000
0001
1000
0000
1001
0000
0000
0000
0100
0000
,
0010
0000
0000
0000
1000
0010
0100
0001
0100
0000
0001
0000
0000
0000
0001
0010
,
0100
0000
1100
0000
0000
0000
0001
0010
0100
0000
1100
0000
0000
0000
1000
0000
,
0000
0000
0001
0000
1000
0000
0000
0010
0000
0000
1010
0000
0000
0000
0010
0000
,
0100
0000
0000
0000
0001
1000
0001
1000
0010
0000
1001
0000
0000
0000
0001
0000
,
0100
0000
0000
0000
0010
0100
0001
0100
0010
0000
0100
0000
0000
0000
0010
0100
,
0010
0000
1010
0000
0000
0000
0100
0010
0100
0000
0101
0000
0000
0000
1000
0000
,
1000
0000
0001
0000
0100
0000
0000
0001
0000
0000
2001
0000
0000
0000
0000
0000
,
0001
0000
3000
0000
0100
0010
1000
0010
0100
0000
0020
0000
0000
0000
0030
0000
,
0100
0000
0000
0000
0001
0100
0001
0000
1000
0010
1000
0000
0000
0000
0001
0000
,
0100
0010
0000
0100
0010
0110
0000
0100
,
0000
0100
0000
0010
0100
0020
0000
1030
,
1000
0000
0000
0000
0001
0100
0010
0100
0001
0000
0200
0000
0000
0000
0310
0000
,
0010
0000
0000
0000
1000
0100
1000
0010
0100
0000
0200
0000
0000
0000
0301
0010
,
0001
0000
2000
0000
3000
0001
0100
0000
0010
0000
2000
0000
0000
0000
3001
0000
,
0100
0000
0101
0000
0001
0000
0000
0010
0000
0000
1001
0000
0000
0000
0000
0000
,
0000
0000
0100
0000
0010
0000
0000
0100
0000
0000
0010
0000
0000
0000
0000
0000
,
0000
0000
1000
1000
0100
0010
0000
0001
,
0010
0001
0000
1000
0100
1000
0000
0010
,
0000
0000
0100
0000
0010
0000
0000
1000
0000
0000
0001
0000
0000
0000
0000
0000
,
0000
1000
0001
0000
1000
0001
0000
0000
,
0000
0000
1000
0000
0100
0020
0000
0031
,
0001
0100
0100
1000
0100
0001
0000
0101
,
0000
0000
0000
0000
0000
0110
0000
1000
,
0100
0000
0000
0000
0010
0001
0010
0001
1000
0000
0011
0000
0000
0000
0001
0000
,
0100
0000
0000
0000
0010
1000
0010
0100
0010
0000
1100
0000
0000
0000
0100
0010
,
0001
0000
0011
0000
0000
0001
0010
0000
0100
0000
1000
0000
0000
0000
1000
0000
,
0000
0000
0010
0000
0110
0000
0000
0001
0000
0000
1001
0000
0000
0000
1000
0000
,
0010
0000
0000
0000
1000
0001
0010
0100
1000
0000
0011
0000
0000
0000
1000
0000
,
0100
0000
0000
0000
1000
0100
1000
0100
1000
0000
0110
0000
0000
0000
0001
0010
,
0001
0000
0010
0000
0000
0100
1000
0000
0010
0000
0100
0000
0000
0000
0110
0000
,
0000
0000
0100
0000
0010
0000
0000
0100
0000
0000
0101
0000
0000
0000
0010
0000
,
1000
0000
0000
0000
0010
0100
0010
0100
0010
0000
0110
0000
0000
0000
0010
0000
,
1000
0000
0000
0000
0001
0100
0010
1000
0001
0000
1001
0000
0000
0000
0100
0010
,
0100
0000
0010
0000
0000
0000
0100
0001
0100
0000
1010
0000
0000
0000
0101
0000
,
0000
1000
0100
0010
0001
0002
0003
1000
,
0100
0000
0000
0000
1000
0010
0100
0010
0100
0000
0110
0000
0000
0000
0010
0000
,
0100
0000
0000
0000
0001
0100
0010
1000
0001
0000
0200
0000
0000
0000
0310
0100
,
0010
0100
0002
0000
0000
1003
0001
0000
0010
0000
1000
0000
0000
0000
0010
0000
;
