#VERSION:0.83;
#TITLE:Ocean Love;
#SUBTITLE:;
#ARTIST:Tomoki Hirata feat. Crystal Mint;
#TITLETRANSLIT:;
#SUBTITLETRANSLIT:;
#ARTISTTRANSLIT:;
#GENRE:;
#ORIGIN:;
#CREDIT:;
#BANNER:;
#BACKGROUND:;
#PREVIEWVID:;
#JACKET:;
#CDIMAGE:;
#DISCIMAGE:;
#LYRICSPATH:;
#CDTITLE:;
#MUSIC:Tomoki Hirata feat. Crystal Mint - Ocean Love (cut).mp3;
#OFFSET:-0.364000;
#SAMPLESTART:16.027000;
#SAMPLELENGTH:17.100000;
#SELECTABLE:YES;
#BPMS:0.000=126.000;
#STOPS:;
#DELAYS:;
#WARPS:;
#TIMESIGNATURES:0.000=4=4;
#TICKCOUNTS:0.000=4;
#COMBOS:0.000=1;
#SPEEDS:0.000=1.000=0.000=0;
#SCROLLS:0.000=1.000;
#FAKES:;
#LABELS:0.000=Song Start;
#BGCHANGES:;
#KEYSOUNDS:;
#ATTACKS:
;

//---------------dance-single - ----------------
#NOTEDATA:;
#CHARTNAME:;
#STEPSTYPE:dance-single;
#DESCRIPTION:;
#CHARTSTYLE:;
#DIFFICULTY:Beginner;
#METER:3;
#RADARVALUES:0.141059,0.205078,0.000000,0.195312,0.000000,91.000000,91.000000,0.000000,18.000000,0.000000,0.000000,0.000000,0.000000,0.000000,0.141059,0.205078,0.000000,0.195312,0.000000,91.000000,91.000000,0.000000,18.000000,0.000000,0.000000,0.000000,0.000000,0.000000;
#CREDIT:;
#NOTES:
0000
0000
0000
0000
,
0000
0000
0000
0000
,
0000
1000
0000
0000
,
0001
0001
0000
0000
,
1000
1000
0000
0000
,
0010
0010
0000
0000
,
0100
0100
0000
0000
,
0001
0002
0000
0003
,
0000
1000
0000
0001
,
0000
0100
0000
0010
,
0000
1000
0000
0001
,
0000
0100
0000
0010
,
0000
1000
0000
0001
,
0000
0010
0000
0100
,
0000
1000
0000
0001
,
0000
0100
0000
0010
,
0000
2000
0000
3000
,
0000
0001
0001
0000
,
0000
0200
0000
0300
,
0000
0010
0010
0000
,
0000
2000
0000
3000
,
0000
0001
0001
0000
,
0000
0020
0000
0030
,
0000
0100
0100
0000
,
0000
0001
1000
0001
,
0000
1000
0100
1000
,
0000
0001
0100
0001
,
0000
0001
0010
0001
,
0000
1000
0010
1000
,
0000
0001
0100
0001
,
0000
0100
0100
0010
,
0000
0010
0010
0100
,
0000
0002
0000
0003
,
0000
1000
0001
1000
,
0001
1000
0000
0010
,
0100
0010
0100
0010
,
0000
0200
0000
0301
,
0000
0001
1000
0001
,
0000
2000
3000
0020
,
0030
0200
0300
0002
,
0003
0000
2000
0000
0000
0000
0000
3000
,
0000
0000
0002
0000
0000
0000
0000
0003
,
0000
0000
0200
0000
0000
0000
0000
0300
,
0000
0000
0020
0000
0000
0000
0000
0030
,
0000
0000
2000
0000
0000
0000
0000
3000
,
0000
0000
0002
0000
0000
0000
0000
0003
,
0000
0000
0200
0000
0000
0000
0000
0300
,
0000
0100
0000
0000
;

//---------------dance-single - ----------------
#NOTEDATA:;
#CHARTNAME:;
#STEPSTYPE:dance-single;
#DESCRIPTION:;
#CHARTSTYLE:;
#DIFFICULTY:Easy;
#METER:6;
#RADARVALUES:0.305370,0.387573,0.227865,0.130208,0.000000,197.000000,176.000000,21.000000,12.000000,0.000000,0.000000,0.000000,0.000000,0.000000,0.305370,0.387573,0.227865,0.130208,0.000000,197.000000,176.000000,21.000000,12.000000,0.000000,0.000000,0.000000,0.000000,0.000000;
#CREDIT:;
#NOTES:
0000
0000
0000
0000
,
0000
0000
0000
0000
,
0000
0000
0101
0000
0100
0001
0000
0000
,
1001
0000
1000
0000
0010
1000
0000
0000
,
0101
0000
0001
0000
0100
0010
0000
0000
,
1010
0000
1000
0000
0001
0100
0000
0000
,
0110
0000
0010
0000
1000
0100
1000
0000
,
0001
0000
0100
0000
0010
0200
0000
0300
,
0000
0000
0110
0000
0010
0100
0001
0000
,
1001
0000
1001
0000
0001
0100
0001
0000
,
1000
0000
1010
0000
0010
1000
0100
0000
,
0010
0000
0001
0000
0100
0001
0010
0000
,
0001
0000
1001
0000
1000
0100
1000
0000
,
0001
0000
0110
0000
0100
0010
0100
0000
,
0001
0000
1000
0000
0010
1000
0001
0000
,
1001
0000
1100
0000
1000
0100
1000
0000
,
0002
0003
0200
0000
0310
0100
0000
0000
,
0110
0000
0010
0000
0100
0001
0000
0000
,
1100
0000
1000
0000
0001
0100
0000
0000
,
0010
0000
2000
0000
3001
0100
0000
0000
,
0100
0000
0020
0000
1030
0001
0000
0000
,
1000
0000
0001
0000
0100
0010
0100
0000
,
0001
0000
0001
0000
1000
0001
1000
0000
,
0010
0000
0100
0000
0001
0010
0100
0000
,
1000
0000
1000
0000
0001
0100
0000
0000
,
0100
0000
0010
0000
1000
0001
0000
0000
,
0100
0000
0110
0000
0010
0100
0000
0000
,
0010
0000
1001
0000
0001
1000
0001
0000
,
0100
0010
1000
0001
,
0101
0110
1000
0001
,
0010
0100
1000
0001
,
0101
1010
1000
0001
,
0100
0020
0000
0130
,
0100
0010
1000
0001
,
1000
0002
0000
1003
,
0010
1000
0001
0100
,
0010
0200
0000
0301
,
1000
0010
0100
0001
,
1000
0002
1003
2000
,
3010
0020
0130
0002
,
0003
0000
1000
0000
0000
1000
0000
0000
,
0000
0000
0001
0000
0000
0001
0000
0000
,
0000
0000
0100
0000
0000
0100
0000
0000
,
0000
0000
0010
0000
0000
0010
0000
0000
,
0000
0000
0100
0000
0000
0001
0000
0000
,
0000
0000
0001
0000
0000
0100
0000
0000
,
0000
0000
0010
0000
0000
1000
0000
0000
,
0000
0000
1000
0000
0000
0001
0000
0000
;

//---------------dance-single - ----------------
#NOTEDATA:;
#CHARTNAME:;
#STEPSTYPE:dance-single;
#DESCRIPTION:;
#CHARTSTYLE:;
#DIFFICULTY:Medium;
#METER:8;
#RADARVALUES:0.358073,0.387573,0.217014,0.238715,0.000000,231.000000,211.000000,20.000000,22.000000,0.000000,0.000000,0.000000,0.000000,0.000000,0.358073,0.387573,0.217014,0.238715,0.000000,231.000000,211.000000,20.000000,22.000000,0.000000,0.000000,0.000000,0.000000,0.000000;
#CREDIT:;
#NOTES:
0000
0000
0000
0000
,
0000
0000
0000
0000
,
0000
0000
0101
0000
0001
0100
0000
0000
,
0110
0000
1000
0000
0100
1000
0000
0000
,
1001
0000
0001
0000
0100
0010
0000
0000
,
1100
0000
0100
0010
0001
0010
0000
0000
,
1001
0000
1000
0100
0010
0100
0000
0000
,
0011
0000
1000
0000
0001
0100
0000
0000
,
0000
0000
0110
0000
0100
0010
0000
1000
,
0000
0001
0000
0200
0000
0300
0010
0000
,
1001
0000
1000
0000
0010
1000
0010
0000
,
0100
0001
0100
0000
0100
0010
0100
0000
,
0001
0000
1001
0000
1000
0010
0000
0100
,
0000
0001
0000
1000
0000
0010
0100
0000
,
0001
0100
0010
0000
0010
0100
0000
0001
,
1000
0001
1000
1100
,
0011
0000
1001
0000
0100
0010
0010
0000
,
1000
0000
0101
0000
0001
0100
0100
0000
,
0010
0100
0010
0000
1000
0000
0001
0000
,
0100
0000
0110
0000
0010
0100
0010
0000
,
1000
0002
0100
0103
,
0010
1000
0100
0000
0010
0001
0100
0000
,
0010
2000
0001
3001
,
0100
0010
1000
0000
1001
0000
1001
0000
,
0110
0000
1001
0000
0001
1000
0010
0000
,
0100
0010
0200
0300
0001
1000
0100
0000
,
0100
0000
0010
0000
0001
1000
0010
0000
,
1000
0010
0200
0300
0010
1000
0001
0000
,
1000
0002
0100
1003
,
0100
0010
0001
0100
,
0010
0000
1001
0000
1000
0100
0010
0000
,
0011
0000
0001
0000
0001
1000
0200
0300
,
0020
0030
0001
0000
1000
0000
0100
0010
,
0100
0000
0010
0100
0010
0000
0100
0010
,
0100
0000
1000
0001
1000
0000
0001
0100
,
0001
0100
0000
0010
0000
1000
0000
0001
,
0000
1000
0001
0100
0001
0000
1000
0010
,
1000
0010
0100
1000
0100
0000
0001
0100
,
0001
0100
0010
0001
0010
0000
0100
0010
,
1000
0000
0100
0010
1000
0000
0001
0100
,
0010
1000
0002
0000
0000
0203
0000
0000
,
0300
0000
0020
0000
0000
2030
0000
0000
,
3000
0000
0002
0000
0000
0023
0000
0000
,
0030
0200
0000
0300
1000
0200
0000
0300
,
0010
0002
0000
0003
0100
0020
0000
0030
,
0000
1000
0002
0000
0000
0203
0000
0000
,
0300
0000
0020
0000
0000
2030
0000
0000
,
3000
0000
0001
0000
0000
0100
0000
0000
;

//---------------dance-single - ----------------
#NOTEDATA:;
#CHARTNAME:;
#STEPSTYPE:dance-single;
#DESCRIPTION:;
#CHARTSTYLE:;
#DIFFICULTY:Hard;
#METER:10;
#RADARVALUES:0.413876,0.465088,0.434028,0.499132,0.141059,267.000000,227.000000,40.000000,46.000000,0.000000,0.000000,0.000000,0.000000,0.000000,0.413876,0.465088,0.434028,0.499132,0.141059,267.000000,227.000000,40.000000,46.000000,0.000000,0.000000,0.000000,0.000000,0.000000;
#CREDIT:;
#NOTES:
// measure 0
0000
0000
0000
0000
,  // measure 1
0000
0000
0000
0000
,  // measure 2
0000
0000
1010
0000
1000
0010
0000
0000
,  // measure 3
0101
0000
0110
0000
0010
0200
0000
0300
,  // measure 4
1001
0000
1100
0000
1000
0200
0000
0300
,  // measure 5
0010
0000
0001
1000
0010
0100
0010
0100
,  // measure 6
0001
0000
2000
0000
0010
0010
3000
0000
,  // measure 7
0010
0100
0002
0000
0000
0100
0003
0000
,  // measure 8
0000
0000
1001
0000
0010
0100
0010
1000
,  // measure 9
0000
0001
0100
0010
0000
1000
0001
0000
,  // measure 10
0101
0001
0100
0000
0010
1000
0001
0000
,  // measure 11
0100
0001
1000
0010
1000
0001
0000
0001
,  // measure 12
1001
0000
0110
1000
0100
0010
0001
1000
,  // measure 13
0000
0001
0100
0020
0000
1030
0100
0000
,  // measure 14
0010
0001
1000
0000
0001
0100
0101
0000
,  // measure 15
0010
0000
0110
0000
0100
0010
0100
0000
,  // measure 16
0020
0000
0030
0000
0100
0001
0000
0100
0000
0000
0010
0000
1000
0000
0000
0001
,  // measure 17
0000
0000
1000
0000
1001
0000
0000
0001
0000
0000
0100
0000
0110
0000
0000
0000
,  // measure 18
0110
0000
0000
0000
0002
0000
0000
1000
0003
0000
1000
0000
0010
0000
0000
0100
,  // measure 19
0000
0000
0001
0000
0101
0000
0000
0001
0000
0000
1000
0000
0010
0000
0100
0000
,  // measure 20
0002
0000
0000
0000
1003
0010
0000
0010
0000
0000
0100
0000
0001
0000
0000
0001
,  // measure 21
0000
0000
1000
0000
1100
0000
0000
0100
0000
0000
0010
0000
0011
0000
0000
0000
,  // measure 22
0101
0000
0000
0000
0020
0000
0000
0100
0030
0000
0100
0000
0001
0000
0000
0100
,  // measure 23
0000
0000
0010
0000
0110
0000
0000
0100
0000
0000
0010
0000
1010
0000
0000
0000
,  // measure 24
0002
0000
0000
0000
0103
0010
0000
0010
0000
0000
0010
0000
1000
0000
0000
0001
,  // measure 25
0000
0000
0010
0000
0011
0000
0000
0001
0000
0000
1000
0000
1001
0000
0000
0000
,  // measure 26
0110
0000
0000
0000
0210
0000
0000
0010
0300
0000
0100
0000
0001
0000
0000
0010
,  // measure 27
0000
0000
0100
0000
1000
0000
0000
0010
0000
0000
0100
0000
0101
0000
0000
0000
,  // measure 28
0110
2000
3002
0203
,  // measure 29
0320
0000
0000
0000
0130
0000
0000
0100
0000
0000
0010
0000
0100
0000
0000
0000
,  // measure 30
0011
0000
0000
0000
1100
0000
0000
0001
0000
0000
1000
0000
0001
0000
0000
0100
,  // measure 31
0000
0000
0010
0000
0100
0010
0000
0100
0000
0000
0100
0000
0001
0000
0000
0000
,  // measure 32
1000
1000
0002
0000
0203
0300
0010
0100
,  // measure 33
0020
0030
1000
0001
2000
3000
0010
0100
,  // measure 34
0002
0003
1000
0001
0200
0300
0001
1000
,  // measure 35
0010
0100
0000
0101
0000
2000
0000
3002
,  // measure 36
0100
0003
0010
1000
1001
0000
0010
0100
,  // measure 37
1001
0000
0010
0001
1001
0000
0100
0010
,  // measure 38
1010
0000
0001
0100
0110
0000
1000
0010
,  // measure 39
0200
0300
0001
0100
0002
0003
0100
0010
,  // measure 40
0200
0300
0002
0000
0003
2000
0000
3000
,  // measure 41
0000
0000
0020
0000
0030
0200
0000
0300
,  // measure 42
0000
0000
2002
0000
3003
2020
0000
3030
,  // measure 43
0000
0000
0202
0000
0303
2020
0000
3030
,  // measure 44
0000
0000
2200
0000
3300
0022
0000
0033
,  // measure 45
0000
0000
0002
0000
0003
2000
0000
3000
,  // measure 46
0000
0000
0020
0000
0030
0200
0000
0300
,  // measure 47
0000
0000
0001
0000
0000
0100
0000
0000
;
