#TITLE:Nobodyknows;
#SUBTITLE:Holy Knight Ending Theme;
#ARTIST:16th Labo;
#TITLETRANSLIT:;
#SUBTITLETRANSLIT:;
#ARTISTTRANSLIT:;
#GENRE:;
#CREDIT:;
#BANNER:;
#BACKGROUND:;
#LYRICSPATH:;
#CDTITLE:;
#MUSIC:16th Labo - Nobodyknows.ogg;
#OFFSET:-0.021000;
#SAMPLESTART:13.145000;
#SAMPLELENGTH:14.800000;
#SELECTABLE:YES;
#BPMS:0.000000=160.000000
;
#STOPS:
;
#BGCHANGES:;
#KEYSOUNDS:;
#ATTACKS:;

//---------------dance-single - ----------------
#NOTES:
     dance-single:
     :
     Hard:
     10:
     0.486708,0.527360,0.430764,0.678780,0.032634,261.000000,228.000000,33.000000,52.000000,0.000000,0.000000,0.486708,0.527360,0.430764,0.678780,0.032634,261.000000,228.000000,33.000000,52.000000,0.000000,0.000000:
// measure 0
0000
0000
0000
0220
,  // measure 1
0330
0101
0000
0010
1000
0010
0000
0110
,  // measure 2
0000
0001
2000
0000
3002
0000
0103
0010
,  // measure 3
0100
0000
0010
0100
0000
1001
0000
1100
,  // measure 4
0000
0001
0100
0000
0110
0000
0101
0000
,  // measure 5
0002
0000
0000
0003
0000
1000
0001
0010
,  // measure 6
0100
0000
2000
0000
3001
0010
0001
0010
,  // measure 7
0000
0001
0000
0000
1000
2000
0000
3000
,  // measure 8
0011
0000
0000
0000
0110
0000
0000
0000
2002
0000
3003
0000
0001
0000
0000
0100
,  // measure 9
0000
0020
0000
0030
0100
0100
0000
0010
,  // measure 10
0100
0010
2000
0000
3002
0000
0103
0000
,  // measure 11
0010
0100
0020
0000
0230
0000
0301
0000
,  // measure 12
0000
0000
1100
0000
0000
0000
0100
0000
0010
0000
0000
0000
0001
0000
0000
0100
,  // measure 13
0000
0010
0000
0000
0010
0010
0000
0100
,  // measure 14
0001
0000
1000
0000
0010
0000
0001
0000
0010
0000
0000
0000
1000
0000
0000
0010
,  // measure 15
0000
0000
0100
0000
0001
0000
0000
1000
0001
0000
0000
0000
1000
0000
0000
0001
,  // measure 16
0000
0010
0100
0000
1001
0000
0002
0000
,  // measure 17
0000
0203
0000
0000
0301
0000
1000
0100
,  // measure 18
0010
0001
0010
0001
1000
0100
0000
0010
,  // measure 19
0001
0010
0001
1000
0001
0100
0020
0000
,  // measure 20
0130
0020
0000
0000
0030
0000
0101
0000
,  // measure 21
0011
0000
1000
0020
0030
0100
0000
0010
,  // measure 22
0100
0001
0200
0000
0300
0000
0010
0000
,  // measure 23
1000
0010
0000
0100
0000
0101
0000
0101
,  // measure 24
0000
0001
0200
0000
0300
0000
0110
0000
,  // measure 25
0010
0000
1000
0000
0001
0100
0000
0002
,  // measure 26
0000
2003
0000
3020
0000
0130
0000
0000
,  // measure 27
0001
0000
1001
0000
1000
0002
0000
0203
,  // measure 28
0000
0000
0310
0220
,  // measure 29
0030
0000
0302
0000
1003
0020
0000
0000
,  // measure 30
0130
0001
1000
0001
0000
1000
0010
0000
,  // measure 31
0101
0000
0011
0000
0001
1000
0000
0010
,  // measure 32
0000
0100
0000
0010
0010
0000
0100
0000
,  // measure 33
0001
0000
1000
0100
0010
0100
0000
0010
,  // measure 34
0000
0001
0000
0011
0000
1100
0000
0000
,  // measure 35
0020
0000
0130
0010
0100
0002
0000
0003
,  // measure 36
1001
0100
0100
0020
,  // measure 37
0230
0000
0301
1000
0000
0001
0000
0010
,  // measure 38
0001
1000
0010
0000
0000
0000
0020
0000
,  // measure 39
0000
0000
0230
0000
0310
0200
0000
0000
,  // measure 40
0000
0000
0300
0010
0010
0000
2002
0000
,  // measure 41
3003
0100
0000
0010
0100
0010
0000
1000
,  // measure 42
0001
1000
0000
0001
0010
0100
1000
0000
,  // measure 43
0011
0000
0011
0000
0100
0002
0000
2003
,  // measure 44
0000
3020
0000
0130
0000
0000
0220
0000
,  // measure 45
0330
1000
0000
0001
0010
0100
0000
1000
,  // measure 46
0010
0100
0000
0010
1000
0100
1000
0000
,  // measure 47
1100
0000
1100
0000
0001
0200
0000
0320
,  // measure 48
0000
2030
0000
3001
0001
0000
0220
0330
,  // measure 49
0202
0303
0010
0100
0000
0011
0000
0001
,  // measure 50
1000
0200
0000
0000
0300
0000
0000
0000
;

//---------------dance-single - ----------------
#NOTES:
     dance-single:
     :
     Medium:
     7:
     0.346849,0.395520,0.287176,0.365497,0.000000,186.000000,164.000000,22.000000,28.000000,0.000000,0.000000,0.346849,0.395520,0.287176,0.365497,0.000000,186.000000,164.000000,22.000000,28.000000,0.000000,0.000000:
0000
0000
0100
0020
,
0030
0200
0000
0000
0300
0001
0000
0100
,
0000
0001
2000
0000
3002
0000
0003
0000
,
0100
0000
0010
0000
0000
1001
0000
0100
,
0000
0001
0100
0000
,
2002
0000
0000
3003
0000
1000
0000
0000
,
0010
1000
0000
0011
,
0000
0001
0000
0000
0010
0100
0000
0000
,
0011
1001
1001
0001
,
0100
0010
0000
0000
0100
0010
0000
0000
,
1000
0001
0000
0000
0101
0000
0000
0000
,
0100
0001
0000
0000
0010
0100
0000
0000
,
0000
2000
0000
0000
3020
0000
0130
0000
,
0010
0100
0000
0000
0010
1000
0000
0000
,
0001
0100
0000
0000
0100
0001
0000
0000
,
0100
0010
0000
0000
0001
0000
1000
0000
,
0000
0110
1002
0200
,
0000
0000
0303
0001
,
0010
0100
1000
0010
,
0100
0000
0001
0000
0000
1000
0000
1000
,
0000
0010
0000
0100
0000
0000
0100
0000
,
1010
0000
1010
0000
0000
0100
0000
0010
,
0100
0020
0030
0010
,
1000
0000
0010
0100
0010
0200
0000
0000
,
0300
0202
0303
0110
,
0010
0000
1000
0000
0001
0100
0000
0002
,
0000
2003
0000
3020
0000
0130
0000
0000
,
0001
0000
1001
0000
0000
0002
0000
0203
,
0000
0000
0310
0200
,
0000
0000
0302
0000
0000
2003
0000
0000
,
3000
0000
0000
1000
0000
0001
1000
0000
,
0101
0000
0011
0000
0000
1001
0000
0010
,
0000
0100
0000
0010
0100
0000
0100
0000
,
0001
0000
1000
0000
0010
0100
0000
0010
,
0000
0100
0000
0001
0000
1000
0000
0000
,
0200
0000
0000
0000
0300
1001
0000
0000
,
0001
0100
0100
0010
,
0010
0000
1000
0000
0000
0011
0000
0000
,
0001
1000
0001
0000
0000
0000
0020
0000
,
0000
0000
0032
0000
0000
0203
0000
0000
,
0000
0300
0010
1001
,
0000
0100
0000
0000
0000
0110
0000
0000
,
0001
1000
0000
0000
0001
1000
0000
0000
,
0010
0000
0001
0000
0000
0001
0000
1000
,
0000
0010
0000
0100
0000
0000
0100
0000
,
0000
0001
0000
0000
0000
0101
0000
0000
,
0010
0001
0000
0000
0010
0001
0000
0000
,
1000
0000
0001
0000
0000
0100
0000
0010
,
0000
0100
0000
0001
0000
0000
0100
0000
,
0001
0000
0200
0000
0000
0001
0000
0301
,
0000
0020
0000
0000
0030
0000
0000
0000
;

//---------------dance-single - ----------------
#NOTES:
     dance-single:
     :
     Easy:
     4:
     0.203261,0.261722,0.078321,0.143588,0.000000,109.000000,103.000000,6.000000,11.000000,0.000000,0.000000,0.203261,0.261722,0.078321,0.143588,0.000000,109.000000,103.000000,6.000000,11.000000,0.000000,0.000000:
0000
0000
0000
0100
,
0000
0010
0000
0100
,
0000
0001
0001
0001
,
0000
1000
1000
1000
,
0000
0100
0000
1001
,
0000
0110
0000
0100
,
0000
0100
0000
0010
,
0000
0000
0010
0000
,
0010
0010
0010
0010
,
0000
0000
0001
0000
,
0010
0000
0100
0000
,
0010
0000
0001
0000
,
0100
0000
0110
0000
,
0010
0000
1000
0000
,
0001
0000
1000
0010
,
0000
0110
0000
0010
,
0000
0010
0000
0200
,
0000
0000
0300
0002
,
0000
0000
0003
2000
,
0000
0000
3000
0100
,
0100
0100
0000
0001
,
1000
1000
0000
0010
,
0000
0010
0000
0100
,
0000
0002
0000
0000
,
0000
0003
0000
0110
,
0000
0010
0000
1000
,
0001
0001
0000
1000
,
1000
0010
0000
0200
,
0000
0300
0000
0022
,
0000
0000
0033
0000
,
0000
0001
0000
0100
,
0100
0100
0000
0010
,
0010
0010
0000
1000
,
1000
0001
0001
0001
,
0000
1000
0000
0010
,
0000
0010
0000
0010
,
0000
0100
0000
0001
,
0001
0001
0001
1000
,
1000
1000
0000
0001
,
0000
0200
0000
0000
,
0000
0300
0000
0200
,
0000
0300
0000
0002
,
0000
1003
0000
1000
,
1000
0010
0000
0100
,
0000
0100
0100
0100
,
0000
0001
0001
0100
,
0000
0010
0000
1000
,
0000
1000
0000
1000
,
0000
0001
0000
0020
,
0000
0000
0000
0000
,
0000
0030
0000
0000
0000
0000
0000
0000
;

//---------------dance-single - ----------------
#NOTES:
     dance-single:
     :
     Beginner:
     3:
     0.136129,0.194823,0.039160,0.039160,0.000000,73.000000,70.000000,3.000000,3.000000,0.000000,0.000000,0.136129,0.194823,0.039160,0.039160,0.000000,73.000000,70.000000,3.000000,3.000000,0.000000,0.000000:
0000
0000
0000
0000
,
0000
0000
0000
0000
,
0000
0000
0000
1000
,
0000
0000
0000
0001
,
0000
0000
0000
0100
,
0000
0000
0000
0100
,
0000
0000
0000
0100
,
0000
0000
0000
0001
,
0000
0001
0000
1001
,
0000
0000
0000
1000
,
0000
0000
0000
0010
,
0000
0100
0000
0010
,
0000
0000
0000
0110
,
0000
0000
0000
0100
,
0000
0001
0000
0100
,
0000
0001
0000
1000
,
0000
0010
0000
0200
,
0000
0000
0000
0300
,
0000
0000
0000
0001
,
0000
1000
0000
0001
,
0000
0100
0000
0010
,
0010
0010
0000
1000
,
0000
0001
0000
0100
,
0100
0100
0000
0000
,
0000
0100
0000
0110
,
0000
0000
0000
0000
,
0000
0001
0000
1000
,
0000
0010
0000
0000
,
0000
0100
0000
0100
,
0000
0000
0000
0010
,
0000
0000
0000
0100
,
0000
0100
0000
0001
,
0000
0000
0000
1000
,
0000
1000
0000
0001
,
0000
0000
0000
1000
,
0000
0001
0000
1000
,
0000
0000
0000
0010
,
0010
0010
0000
0000
,
0000
0100
0000
0200
,
0000
0300
0000
0020
,
0000
0030
0000
0100
,
0000
0010
0000
0100
,
0000
0000
0000
0001
,
0000
1000
0000
0001
,
0000
0000
0000
0100
,
0000
0100
0000
0010
,
0000
0000
0000
0001
,
0000
1000
0000
0001
,
0000
0000
0000
0100
,
0000
0100
0000
0010
;

//---------------dance-single - ----------------
#NOTES:
     dance-single:
     :
     Challenge:
     13:
     0.637755,0.719736,0.221909,0.143588,0.208855,342.000000,325.000000,17.000000,11.000000,0.000000,0.000000,0.637755,0.719736,0.221909,0.143588,0.208855,342.000000,325.000000,17.000000,11.000000,0.000000,0.000000:
0000
0000
0000
0220
,
0330
0010
0000
0100
0010
0100
0000
0001
,
0000
0000
1000
0000
0100
0000
1000
0000
0100
0010
0001
0000
0000
0000
1000
0000
,
1001
0000
0001
0000
1000
0000
0001
0000
0000
0000
1000
0000
0001
1000
0001
0000
,
1000
0000
0100
0000
0010
0000
0100
0000
0010
0100
0010
0000
0001
0000
0000
0000
,
1000
0000
0000
0000
0100
0000
1000
0000
0100
1000
0100
0000
0010
0000
0100
0000
,
1000
0000
0100
0000
0010
0000
0001
0000
1000
0000
0001
0010
0001
0000
0000
0000
,
1000
1001
0000
0100
0010
0100
0010
0010
,
0100
0000
0000
0000
0010
0000
0100
0000
0010
0100
0010
0100
0010
0000
0000
1000
,
0000
0001
1000
0100
0001
0100
1000
0010
,
0001
0000
0010
0000
1000
0000
0000
0000
0001
0010
0001
0000
1001
0000
0100
0000
,
0100
0000
0010
0000
0010
0000
0100
0000
0001
0000
1000
0001
0100
0000
0000
0000
,
0010
0100
0010
0000
0100
0010
0100
0010
0100
0000
0000
0000
0110
0000
0000
0010
,
0000
0100
0010
0100
0001
0010
0001
0010
,
0100
0000
1000
0000
0010
0000
0100
0000
0001
0000
1000
0000
0001
0000
0000
0010
,
0000
0000
0001
0000
1000
0000
0000
0000
0100
0010
0001
0000
0100
0000
0000
0010
,
0000
0000
0001
0000
0010
0000
0000
0000
1000
0001
1000
0001
0010
0000
0000
0000
,
0002
0000
1003
0100
0010
0001
0100
0010
,
0100
0001
0010
0001
0100
0010
0000
0100
,
0000
0001
0100
0001
0000
1000
0001
0000
,
0100
0000
0020
0000
0030
0000
0000
0000
0100
0000
0010
0100
0010
0000
0000
0000
,
0100
0010
0100
0010
0000
1000
0000
1000
,
0001
0000
0100
0000
0010
0100
0001
0000
0100
0001
0010
0000
0001
0000
0000
0000
,
1000
0000
0001
1000
0001
0000
0100
0001
0100
0000
0010
0000
0000
0000
0110
0000
,
0000
0100
0020
0000
0030
0000
1001
0000
,
1000
0010
0100
0010
1000
1001
0000
0101
,
0000
0001
1000
0001
1000
0010
0000
0000
,
0100
0000
0010
0100
0010
0100
0000
0010
,
0100
0000
0001
0000
1000
0000
0000
0000
0001
0000
1000
0010
0200
0000
0000
0000
,
0300
0000
0002
0000
1003
1000
0000
0001
,
1000
0001
0100
0010
0000
0010
0100
0001
,
1000
0100
0010
0001
1000
1001
0000
1000
,
0000
0100
0000
0010
0001
0010
0001
0000
,
1001
0000
0110
0000
0010
0010
0100
0100
,
0010
0010
0000
0100
0000
0010
0000
0000
,
0100
0010
0100
0001
1000
0020
0000
0030
,
1000
0000
0000
0000
0001
0000
0000
0000
1000
0000
0001
0100
0001
0000
0000
0000
,
0001
0000
0100
0100
0000
1000
0100
0001
,
0001
1000
0100
0000
0001
1000
0002
0000
,
1003
0000
0001
0100
0010
0210
0000
0000
,
0000
0000
0300
0010
0010
0000
0200
0000
,
0301
0000
0010
0000
0000
0000
0010
0000
0001
0000
1000
0100
1000
0000
0000
0000
,
0001
0010
0001
0100
0010
0100
0010
0000
,
1000
0100
0000
0000
0000
0000
0010
0001
0000
0000
0000
0000
1000
0000
0000
1001
0000
0000
0000
0000
0000
0110
0000
0000
,
0000
0100
0010
0100
0001
1000
0010
0001
,
0010
1000
0000
0001
0100
0001
1000
0000
,
0001
0010
0100
1000
0001
0100
0010
0000
,
1000
0001
0000
0000
0000
0000
0100
0001
0000
0000
0000
0000
1000
0000
0000
1001
0000
0000
0000
0000
0000
0001
0000
0000
,
0000
0100
0000
0100
0100
0000
0010
0000
,
0100
0000
0000
0000
0001
0000
1000
0000
0000
0000
0001
0000
0000
0000
1000
0100
,
1000
1001
0000
0000
0000
0000
0000
0000
;
