#TITLE:No! No! Way;
#SUBTITLE:;
#ARTIST:ApachE;
#TITLETRANSLIT:;
#SUBTITLETRANSLIT:;
#ARTISTTRANSLIT:;
#GENRE:ULTRA 90's;
#CREDIT:from pop n music 20;
#BANNER:20140805015101!20_ULTRA_90's.png;
#BACKGROUND:;
#LYRICSPATH:;
#CDTITLE:;
#MUSIC:ApachE - No!_No!_Way.mp3;
#OFFSET:-0.168000;
#SAMPLESTART:63.210003;
#SAMPLELENGTH:17.000000;
#SELECTABLE:YES;
#BPMS:0.000000=124.000000
;
#STOPS:
;
#BGCHANGES:;
#KEYSOUNDS:;
#ATTACKS:;

//---------------dance-single - ----------------
#NOTES:
     dance-single:
     :
     Beginner:
     2:
     0.101972,0.144472,0.029334,0.029334,0.000000,73.000000,70.000000,3.000000,3.000000,0.000000,0.000000,0.101972,0.144472,0.029334,0.029334,0.000000,73.000000,70.000000,3.000000,3.000000,0.000000,0.000000:
0000
0000
0000
0000
,
0000
0000
0000
0000
,
0000
0000
0000
0000
,
0000
0000
0000
0000
,
0000
0000
0000
0000
,
0000
0000
0000
0000
,
0000
0000
0000
1000
,
0000
1000
0000
0001
,
0000
0001
0000
1000
,
0000
0100
0000
1000
,
0000
0000
0000
1001
,
0000
0001
0000
0010
,
0000
0001
0000
0010
,
0000
0001
0000
1000
,
0000
0000
0000
1001
,
0000
1000
0000
0100
,
0000
1000
0000
0100
,
0000
1000
0000
0010
,
0000
0000
0000
1001
,
0000
1000
0000
0001
,
0000
1000
0000
0001
,
0000
1000
0000
0001
,
0000
0000
0000
1000
,
0000
1000
0000
1000
,
0000
0000
0000
0001
,
0000
0001
0000
0001
,
0000
0000
0000
0001
,
0000
0100
0000
0001
,
0000
0000
0000
1000
,
0000
0100
0000
1000
,
0000
0000
0000
0002
,
0000
0003
0000
2000
,
0000
3000
0000
0001
,
0000
1000
0000
0001
,
0000
1000
0000
0001
,
0000
0100
0000
0001
,
0000
0000
0000
1000
,
0000
0010
0000
1000
,
0000
0010
0000
1000
,
0000
0010
0000
1000
,
0000
0000
0000
0002
,
0000
0003
0000
1000
,
0000
1000
0000
1000
,
0000
0000
0000
1000
,
0000
0001
0000
1000
,
0000
0000
0000
0001
,
0000
1000
0000
0001
,
0000
0000
0000
1000
,
0000
0010
0000
1000
,
0000
0010
0000
0000
;

//---------------dance-single - ----------------
#NOTES:
     dance-single:
     :
     Easy:
     5:
     0.247247,0.314611,0.215119,0.136894,0.000000,177.000000,155.000000,22.000000,14.000000,0.000000,0.000000,0.247247,0.314611,0.215119,0.136894,0.000000,177.000000,155.000000,22.000000,14.000000,0.000000,0.000000:
0000
0000
0000
0000
,
0000
0000
0000
0000
,
0000
0000
0000
1000
,
0000
1000
0000
0001
,
0100
0101
0000
1000
,
0000
0010
0000
1000
,
0100
1010
0000
0001
,
0100
1000
0100
0001
,
1000
0001
0100
0010
,
0100
0100
0010
0010
,
0000
0000
0000
0110
,
0100
0001
1000
1010
,
0001
1000
0010
0100
,
0010
0100
0001
1100
,
0100
0010
0001
1001
,
1000
1000
0100
0100
,
0010
0010
0001
0100
,
0010
1000
1000
0001
,
0010
0001
0000
1100
,
0100
0100
1000
1000
,
0100
1000
0000
0011
,
0001
1000
0100
1000
,
0100
0010
0000
0011
,
0100
1000
0000
1000
,
0100
0001
0000
0001
,
0010
1000
0000
0001
,
0100
0100
0000
0001
,
0010
0010
0000
0002
,
0000
2003
0000
3001
,
0001
0110
0110
1000
,
1000
0110
0110
0002
,
1000
1003
0000
2000
,
0010
3010
0000
0001
,
0100
1000
0100
0001
,
1000
1000
0100
0010
,
0001
0100
0010
0001
,
0000
0101
0000
1000
,
1100
0010
0011
1000
,
1000
0010
0010
1000
,
0100
0010
0001
0202
,
0000
0303
0000
0002
,
0100
0103
0010
2000
,
0010
3010
0100
0002
,
0100
0103
0010
1000
,
0001
1001
0000
1000
,
0010
0101
0000
0001
,
0010
0110
0000
0002
,
0100
1000
1000
1003
,
0100
0220
0330
2002
,
0000
0000
3003
0000
;

//---------------dance-single - ----------------
#NOTES:
     dance-single:
     :
     Medium:
     9:
     0.391125,0.387214,0.254231,0.058669,0.073336,280.000000,254.000000,26.000000,6.000000,0.000000,0.000000,0.391125,0.387214,0.254231,0.058669,0.073336,280.000000,254.000000,26.000000,6.000000,0.000000,0.000000:
0000
0000
0000
0000
,
0000
0000
0000
0000
,
0000
0000
0000
0000
0000
0000
1000
0100
,
1000
0000
0010
0000
1000
0000
0000
0001
0000
0000
0000
0000
0001
0000
0100
0000
,
0010
0000
1000
0000
0100
0000
0000
0100
0000
0000
0000
0000
1000
0000
0100
0000
,
0010
0000
0001
0000
0010
0000
0000
0100
0000
0000
0000
0000
1000
0000
0001
0000
,
0100
0000
0000
0100
0000
0000
0010
0000
0100
0000
0000
0000
1001
0000
0001
0000
,
0100
0000
0010
1000
0100
0000
0010
0001
,
1000
0000
0001
0000
0100
0000
0000
0100
0000
0000
0000
0000
0001
0000
0001
0000
,
1000
0000
0001
0000
0100
0000
0000
0010
0000
0000
0000
0000
0100
0000
0100
0000
,
0100
0000
0000
0200
0000
0000
0000
0000
0300
0000
0000
0000
0101
0000
0000
0000
,
0100
0000
0000
0001
0000
0000
1000
0000
1000
0000
0000
0000
1001
0000
0000
0000
,
1000
0000
0000
0001
0000
0000
0010
0000
0010
0000
0000
0000
1100
0000
0000
0000
,
0001
0000
0000
0100
0000
0000
0010
0000
0010
0000
0000
0000
0011
0000
0000
0000
,
0001
0000
0000
1000
0000
0000
0100
0000
0100
0000
0000
0000
1001
0000
0000
0000
,
1000
0000
1000
0100
0010
0001
0100
0000
,
0010
0100
0010
1000
0001
0000
0100
0000
,
0110
0000
1000
0001
1000
0100
0001
0000
,
0100
0000
1000
0001
1000
0100
0001
0000
,
0100
0000
1000
0010
1000
0100
1000
0000
,
0011
0000
0001
1000
0001
0010
1000
0000
,
0010
0000
0001
1000
0100
0010
0100
0000
,
0010
0000
0001
0100
0010
0100
0001
0000
,
0110
0010
0100
0000
0110
0000
0100
0100
,
0100
0000
0001
1000
0001
0000
0110
0010
,
0010
0000
1000
0001
0100
0000
0010
0010
,
0010
0000
1000
0001
0100
0000
0101
0000
,
1010
0010
0010
0000
1000
0000
0001
0000
,
0101
0000
1000
0100
1000
0010
0100
0000
,
0001
0010
0001
0010
0001
0000
0010
0001
,
0010
0001
0010
0100
1000
0000
0002
0000
,
1000
0000
1003
0000
0100
0010
0100
0000
,
0000
0000
0110
1001
,
1100
0000
0001
0000
0011
0000
1000
0010
,
0100
0001
1000
0100
0001
0000
0100
0000
,
1100
0010
0011
0001
,
0010
0000
0000
0010
0000
0000
0000
0000
0001
0000
0000
0000
1001
0000
0000
0000
,
0101
0000
1001
0000
1010
0000
0001
0100
,
0010
1000
0001
0010
1000
0000
0010
0000
,
0011
0000
0100
0000
0010
0000
0100
0010
,
0100
0000
0000
0010
0000
0000
0000
0000
0110
0000
0000
0000
0002
0000
0000
0000
,
1000
0000
1003
0100
0010
0100
0010
0001
,
1000
0000
0001
0100
0010
0000
1000
0100
,
0001
0100
1000
0000
0001
0000
1000
0000
,
0001
0000
0000
1000
0000
0000
0000
0000
0001
0000
0000
0000
0100
0000
0010
0000
,
0100
0000
0010
1000
0010
0000
1000
0001
,
0100
0000
0010
1000
0010
0000
2000
0000
,
0001
0000
0001
0000
3001
0000
0001
0100
,
0001
0100
0002
0000
0000
0000
1003
0100
,
1000
0000
0000
0200
0000
0000
0000
0000
0300
0000
0000
0000
0000
0000
0000
0000
;

//---------------dance-single - ----------------
#NOTES:
     dance-single:
     :
     Hard:
     11:
     0.479129,0.485240,0.215119,0.117338,0.391125,343.000000,321.000000,22.000000,12.000000,0.000000,0.000000,0.479129,0.485240,0.215119,0.117338,0.391125,343.000000,321.000000,22.000000,12.000000,0.000000,0.000000:
0000
0000
0000
0000
,
0000
0000
0000
0000
,
0000
0000
0000
0000
0000
0000
1000
0100
,
1000
0000
0010
0000
1000
0000
0000
0001
0000
0000
0000
0000
0001
0000
1000
0000
,
0010
0000
1000
0000
0100
1000
0000
0100
0000
0000
0000
0000
1000
0000
0010
0000
,
0100
0000
0001
0000
0010
0000
0000
0100
0000
0000
0000
0000
2000
0000
0000
0000
,
3001
0100
0000
0101
0000
0000
0010
0000
0100
0010
0000
0000
1001
0000
1000
0000
,
0100
0000
0010
0000
0001
0000
1000
0100
0000
0000
0000
0000
0010
0000
0100
0000
,
0001
0000
1000
0000
0001
0100
0000
0001
0000
0000
0000
0000
1001
0000
0100
0000
,
1000
0000
0001
0000
0100
0010
0000
0100
0000
0000
0000
0000
0100
0000
0100
0000
,
0100
0010
0000
0200
0000
0000
0000
0000
0301
0000
0000
0000
0101
0000
0000
0000
,
0100
0000
0000
0001
1000
0000
0010
0000
1000
0000
0001
0000
1001
0000
0000
0000
,
1000
0000
0000
0100
0010
0000
0001
0000
1000
0000
0100
0000
1100
0000
0000
0000
,
0001
0000
0000
0100
0001
0000
1000
0000
0001
0000
0100
0000
0001
0000
1000
0000
,
0001
0000
0000
1000
0010
0000
0100
0000
0001
0000
1000
0000
1001
0000
0010
0000
,
1000
0000
0010
0000
1000
0100
0000
0010
0000
0001
0000
0100
0000
0000
0010
0000
,
0100
0000
0001
0000
0101
0000
1000
0000
0001
0000
1000
0000
0001
0000
0100
0010
,
0100
0000
0001
0000
1000
0001
1000
0001
0000
0100
0000
0002
0000
0000
1003
0000
,
0100
1000
0100
0010
0001
0100
0101
0010
,
0100
0000
0010
0000
1000
0001
0000
1000
0000
0001
0000
0100
0000
0000
0010
0000
,
0100
0000
0001
0000
1000
0100
0000
0100
0000
1000
0000
0000
0001
0000
0100
0001
,
0100
0000
0001
0100
0000
0000
0001
0100
0001
0000
0100
0001
0000
0000
1000
0000
,
0010
0000
0100
0000
0001
0100
0000
0010
0000
0000
0000
0000
0110
0000
0000
0000
,
1000
0000
0001
0000
0100
0000
0000
0010
0000
0000
0100
0000
0200
0000
0000
0000
,
0300
0001
1000
0001
0000
0000
0100
0000
,
0010
0100
1000
0100
0010
0000
1000
0001
,
1000
0001
1000
0001
0100
0000
0011
0000
,
1000
0000
0001
0000
0100
0000
1000
0000
0100
0000
0001
0000
1000
0000
0000
0001
,
0000
1000
0010
0100
1000
0100
0001
0000
,
1000
0010
0100
0010
0110
0000
1000
0001
,
0010
0000
0001
0000
1000
0000
0000
0000
1001
0000
0000
1000
0002
0000
0000
0000
,
1003
0001
1000
0000
0001
0100
0010
0000
,
0000
0000
0000
0000
0100
0010
0000
0000
0200
0000
0300
0000
0010
0100
0000
0010
,
0000
0000
1000
0000
0001
1000
0000
0002
0000
0000
0003
0000
1000
0000
0000
0000
,
0101
0000
0000
0000
1000
0000
0000
0110
0000
0000
0001
0000
0100
0000
0010
0100
,
0000
0000
0001
0000
0010
0100
0000
0010
0000
0000
0000
0000
0001
0000
0000
0000
,
1000
0100
0000
0010
0000
0000
0001
0000
0001
0000
0000
0000
1000
0010
0000
0100
,
0000
0000
0010
0000
1000
0001
0000
1000
0000
0000
0000
0000
0001
0000
0000
0000
,
1010
0000
0000
0000
0001
0000
0000
0101
0000
0000
0100
0000
0001
0000
0010
0100
,
0000
0000
0010
0000
0100
1000
0000
0001
0000
0000
0000
0000
0100
0000
0010
0000
,
0100
0010
0000
0110
0000
0000
0000
0000
0210
0000
0000
0000
0302
0000
0000
0000
,
1000
0000
0000
0000
1003
0001
0000
1000
0001
0000
0000
0000
0010
0000
0100
0000
,
0010
0000
0100
0000
1000
0000
0000
0100
0000
0000
0000
0000
1000
0000
0100
0000
,
1000
0000
0010
0000
1000
0000
0000
0001
0000
0000
0000
0000
1000
0000
0100
0000
,
1000
0010
0000
1000
0000
0000
0001
0000
0101
0000
0000
0000
0100
0000
0010
0000
,
0110
0000
0000
0000
0010
1000
0000
0010
1000
0000
0000
0000
0001
0000
0010
0000
,
0100
0000
0010
0000
0100
1000
0000
0010
0000
0000
0000
0000
1000
0000
0100
0000
,
0010
0000
0001
0000
1000
0001
0000
1000
0001
0000
0000
0000
0100
0001
0100
0000
,
0001
0000
0100
0000
0001
0100
0001
0000
2000
0000
0000
0000
3001
0000
0100
0000
,
0001
0100
0000
0001
0000
0000
0000
0000
0202
0000
0303
0000
0000
0000
0000
0000
;

//---------------dance-single - ----------------
#NOTES:
     dance-single:
     :
     Challenge:
     15:
     0.650944,0.653424,0.352013,0.156450,0.757805,466.000000,430.000000,36.000000,16.000000,0.000000,0.000000,0.650944,0.653424,0.352013,0.156450,0.757805,466.000000,430.000000,36.000000,16.000000,0.000000,0.000000:
// measure 0
0000
0000
0000
0000
,  // measure 1
0000
0000
0000
0000
,  // measure 2
0000
0000
0000
0000
,  // measure 3
0000
0000
0000
0000
0000
0000
0001
1000
,  // measure 4
0010
0000
0000
1000
0000
0000
0100
0000
0000
1000
0100
1000
0100
0000
0000
0001
0000
1000
0001
0000
0000
0010
0000
0000
,  // measure 5
0100
0000
0000
0010
0000
0000
0001
0000
0000
1000
0001
1000
0001
0000
0000
0000
0000
0000
2002
0000
0000
0003
0000
0000
,  // measure 6
3001
0100
0000
0110
0000
0000
0010
0000
0100
0010
0000
0000
1001
0000
0001
0000
,  // measure 7
0100
0000
0000
0010
0000
0000
0100
0000
0000
0010
0100
0010
0100
0000
0000
0000
0000
0000
0010
0000
0000
0100
0000
0000
,  // measure 8
1001
0000
0000
1000
0000
0000
0011
0000
0000
1000
0001
1000
0001
0000
0000
0000
0000
0000
1001
0000
0000
0100
0000
0000
,  // measure 9
1100
0000
0000
0010
0000
0000
0100
0000
0000
1000
0100
1000
0100
0000
0000
0000
0000
0000
0110
0000
0000
0110
0000
0000
,  // measure 10
0100
0110
0000
0200
0000
0000
0000
0000
0301
0000
0000
0000
0101
0000
0000
0000
,  // measure 11
0100
0000
0000
0000
0000
0001
1000
0000
0001
1000
0000
0000
0100
0000
0000
0001
0000
0000
0100
0000
0000
0000
0000
0000
,  // measure 12
1100
0000
0000
0000
0000
0100
0010
0000
0010
0001
0000
0000
1000
0000
0000
0100
0000
0000
1100
0000
0000
0000
0000
0000
,  // measure 13
0101
0000
0000
0000
0000
0100
0001
0000
1000
0001
0000
0000
1000
0000
0000
0100
0000
0010
0001
0000
0000
1000
0000
0000
,  // measure 14
1001
0000
0000
0000
0000
0010
0100
0000
0100
0010
0000
1000
0001
0000
1000
0001
0000
0000
1001
0000
0000
0010
0000
0000
,  // measure 15
1000
0000
0010
0000
1000
0100
0000
0010
0000
0100
0000
0010
0000
0000
0001
0010
,  // measure 16
0100
0000
1000
0000
0001
1000
0010
0100
0001
0000
1000
0100
0010
0000
0001
0010
,  // measure 17
0001
0000
1000
0000
0001
0010
0100
1000
0000
0100
0000
0020
0000
0000
0031
0000
,  // measure 18
0010
0000
0100
0000
0010
0100
0000
0010
0000
0001
0000
0000
0101
0000
0010
0000
,  // measure 19
0100
0000
0001
0000
1000
0001
0000
1000
0000
0001
0000
0110
0000
0000
0010
0000
,  // measure 20
0100
0010
0100
0000
0010
0100
0000
0010
0000
0110
0000
0000
0001
0000
1000
0100
,  // measure 21
0010
0000
0001
0100
0010
0000
1000
0100
0010
0000
0001
1000
0001
0000
1000
0000
,  // measure 22
0010
0100
0001
0000
0100
0001
0000
0100
0010
0000
0000
0000
0110
0000
0000
0000
,  // measure 23
1000
0000
0001
0100
0001
0000
0100
0010
0000
0010
0100
0000
0002
0000
0000
0000
,  // measure 24
1003
0000
0001
0000
1000
0000
0001
0100
0010
0000
0100
0001
0100
0000
0000
0000
,  // measure 25
0001
0000
0100
0000
0010
1000
0000
0010
0000
0000
1000
0000
0110
0000
0001
0000
,  // measure 26
1001
0000
1000
0001
0100
0001
0000
0010
0000
0000
0100
0000
1100
0000
0000
0000
,  // measure 27
1000
0000
0001
0010
0100
0000
1000
0100
0000
0010
0001
0000
1000
0000
0000
1001
,  // measure 28
0000
0000
0000
0011
0000
0000
0220
0000
0000
0330
0000
0000
1000
0000
0000
0100
0000
1000
0100
0000
0000
1000
0000
0000
,  // measure 29
1100
0000
0000
0010
0000
0100
0010
0000
1000
0010
0000
0000
0100
0000
0000
0001
0000
1000
0001
0000
0000
1000
0000
0000
,  // measure 30
0010
0000
0000
0000
0100
0000
0001
0000
0000
0000
1000
0000
0001
0000
0000
0000
0000
0000
1000
0000
0000
0000
0000
0000
0001
0000
0000
0000
0000
0000
0100
0000
0000
0001
0000
0000
0020
0000
0000
0000
0000
0000
0000
0000
0000
0000
0000
0000
,  // measure 31
0130
0000
0000
1000
0000
0001
1000
0000
0001
0100
0000
0000
0001
0000
0000
0100
0000
0000
0010
0100
0010
0100
0010
0100
,  // measure 32
0010
0000
0100
0000
0010
0000
0100
0000
0001
0000
0100
0000
0001
0000
0000
0000
0000
0000
0000
0000
0000
0000
0000
0000
0100
0000
0010
0000
0000
0000
0000
0000
0000
0000
0000
0000
0100
0000
0000
0001
0000
0000
0000
0000
0000
0010
0000
0000
,  // measure 33
0000
0010
1000
0000
0010
0100
0000
2000
0000
0000
3000
0000
0001
0000
0000
0000
,  // measure 34
0101
0000
0010
0000
1000
0001
0100
0010
1000
0000
0001
0000
0101
0000
0010
0100
,  // measure 35
0000
0000
0010
0000
0010
0100
0001
1000
0000
0000
0001
0000
2020
0000
3030
0000
,  // measure 36
1000
1100
0000
1001
0000
0000
0001
0100
0001
0000
1000
0000
0001
1000
0000
0100
,  // measure 37
0000
0010
0010
0000
0100
0001
0000
0100
0000
0000
0000
0000
1000
0000
0000
0000
,  // measure 38
1010
0000
0100
0000
0001
0100
0001
0100
0010
0000
0100
0000
0001
0000
0010
0100
,  // measure 39
0000
0010
0001
0000
0100
0001
0000
1000
0000
0000
0010
0000
0100
0000
0100
0000
,  // measure 40
0100
0010
0000
0110
0000
0000
0000
0000
0210
0000
0000
0000
0301
0000
1000
0000
,  // measure 41
0010
0000
0000
0000
1000
0100
0010
0001
1000
0000
0000
0000
0010
0100
0010
0100
,  // measure 42
0010
1000
0001
1000
0001
0100
0001
0100
0010
0000
0000
0000
1000
0000
0100
1000
,  // measure 43
0100
0010
0001
1000
0100
0000
0010
0000
0002
0000
0003
0000
1000
0001
0100
0010
,  // measure 44
1000
0010
0000
1000
0000
0000
0002
0000
0203
0000
0300
0000
0001
0000
0100
0010
,  // measure 45
1000
0001
0100
0010
1000
0100
0010
0001
1000
0000
0001
0000
0100
0010
0100
0001
,  // measure 46
0100
0010
0100
0001
1000
0000
0000
0001
0000
0000
0000
0000
1000
0001
0100
0010
,  // measure 47
1000
0001
0100
0000
0010
1000
0010
0100
0010
1000
0001
0100
0002
0000
0000
0000
,  // measure 48
1003
0001
1000
0000
0001
1000
0001
0000
1000
0001
1000
0000
0001
0100
0010
0100
,  // measure 49
0010
0100
0000
0010
0000
0000
0000
0000
0101
0000
0000
0000
0000
0000
0000
0000
;
