#TITLE:Night in KAUAI;
#SUBTITLE:;
#ARTIST:Beat Waikikii;
#TITLETRANSLIT:;
#SUBTITLETRANSLIT:;
#ARTISTTRANSLIT:;
#GENRE:;
#CREDIT:from pop n music 11;
#MUSIC:Beat Waikiki - Night in KAUAI.ogg;
#BANNER:Beat Waikiki - Night in KAUAI.png;
#BACKGROUND:;
#CDTITLE:;
#SAMPLESTART:33.178;
#SAMPLELENGTH:12.000;
#SELECTABLE:YES;
#OFFSET:-0.189;
#BPMS:0.000=120.000;
#STOPS:;
#BGCHANGES:;
#FGCHANGES:;

//--------------- dance-single - ----------------
#NOTES:
     dance-single:
     :
     Beginner:
     1:
     0.055917,0.068756,0.010301,0,0,38,37,1,0,0,0,0.055917,0.068756,0.010301,0,0,38,37,1,0,0,0:
0000
0000
0000
0000
,
0000
0000
0000
0000
,
0000
0000
0000
0000
,
0000
0000
0000
0000
,
0000
0000
1000
0000
,
0000
0000
0001
0000
,
0000
0000
1000
0000
,
0000
0000
0010
0000
,
0000
0000
1000
0000
,
0000
0000
0001
0000
,
0000
0000
0100
0000
,
0000
0000
0001
0000
,
0000
0000
1000
0000
,
0000
0000
0001
0000
,
0000
0000
1000
0000
,
0000
0000
0001
0000
,
0000
0000
0100
0000
,
0000
0000
0100
0000
,
0000
0000
0001
0000
,
0000
0000
0001
0000
,
0000
0000
0100
0000
,
0000
0000
0100
0000
,
0000
0000
0001
0000
,
0000
0000
0001
0000
,
0000
0000
1000
0000
,
0000
0000
0000
0000
,
0000
0000
1000
0000
,
0000
0000
0000
0000
,
0000
0000
1000
0000
,
0000
0000
0010
0000
,
0000
0000
0010
0000
,
0000
0000
0000
0000
,
0000
0000
0110
0000
,
0000
0000
0000
0000
,
0000
0000
0001
0000
,
0000
0000
1000
0000
,
0000
0000
0001
0000
,
0000
0000
1000
0000
,
0000
0000
0001
0000
,
0000
0000
1000
0000
,
0000
0000
0010
0000
,
0000
0000
0010
0000
,
0000
0000
0010
0000
,
0000
0000
1000
0000
,
0000
0000
0010
0000
;

//--------------- dance-single - ----------------
#NOTES:
     dance-single:
     :
     Easy:
     3:
     0.139793,0.18335,0.061803,0.082405,0,95,89,6,8,0,0,0.139793,0.18335,0.061803,0.082405,0,95,89,6,8,0,0:
0000
0000
0000
0000
,
0000
0000
0000
0000
,
0000
0000
1000
0000
,
0000
0000
0001
0000
,
0000
0000
1000
0000
,
0100
0000
0010
0000
,
0001
0000
1001
0000
,
1000
0000
0100
0000
,
0010
0000
1001
0000
,
1000
0100
0010
0000
,
1000
0000
0001
0000
,
0001
0010
0100
0000
,
0001
0000
0011
0000
,
0001
0010
0100
0000
,
0001
0000
0011
0000
,
0001
0010
0100
0000
,
0000
0000
2000
0000
,
3001
0000
0001
0000
,
0002
0000
1003
0000
,
1000
0000
1000
0000
,
0000
0000
0002
0000
,
0003
0000
1000
0000
,
0100
0000
0020
0000
,
0030
0000
0001
0000
,
0100
0000
0010
0000
,
0000
0000
0100
0000
,
0010
0000
0100
0100
,
0010
0000
0100
0010
,
0010
0000
0100
0000
,
0001
0000
1000
0000
,
0010
0000
1000
0000
,
0001
0000
0100
0000
,
0010
0000
0200
0000
,
0300
0000
0001
1000
,
0001
1000
0002
0000
,
1003
0000
1000
0100
,
0010
0000
1100
0000
,
1000
0100
0010
0000
,
1000
0000
1100
0000
,
1000
0100
0010
0000
,
0001
0000
0002
0000
,
1003
0000
1000
1000
,
1000
0000
0020
0000
,
0030
0000
0100
0000
,
0100
0100
0100
0000
;

//--------------- dance-single - ----------------
#NOTES:
     dance-single:
     :
     Medium:
     6:
     0.272229,0.34185,0.144208,0.144208,0,185,171,14,14,0,0,0.272229,0.34185,0.144208,0.144208,0,185,171,14,14,0,0:
0000
0000
0000
0000
,
0000
0000
0000
0000
,
0000
0000
1000
0000
,
0001
0001
0001
0000
,
1000
0000
0000
0000
1000
0000
0100
1000
,
0010
0100
0101
0001
,
1000
0000
0001
0100
0002
0000
1003
0000
,
0100
0000
1000
0100
0010
0000
0001
0010
,
0002
0000
1003
0000
1001
0000
1000
0100
,
0010
0000
0001
0010
0001
0000
1000
0000
,
1100
0000
1000
0100
1000
0000
0001
0000
,
0010
0100
1100
0100
,
0010
0001
0010
0001
0010
0000
0001
0000
,
1000
0000
0100
0010
0001
0000
1000
0000
,
1100
0000
0010
0100
0001
0000
1000
0000
,
0100
1000
0100
1000
0100
0000
0001
0000
,
0100
0000
0010
0001
0020
0000
0000
0000
,
0031
0000
0001
0000
1000
0000
0000
1000
,
0000
0100
0000
0010
0002
0000
0000
0000
,
1003
0000
0100
0010
0001
0000
1000
0010
,
0100
0000
0210
0001
,
0301
1000
0001
0000
1001
0000
1000
0100
,
1000
0100
1000
0000
0110
0000
0010
0000
,
0100
0000
0001
0010
0001
0000
0010
0001
,
0010
0001
0010
0000
0002
0000
0003
0000
,
2000
3000
0020
0030
,
0100
0000
0200
0000
,
0300
0000
0001
0000
,
1000
0000
2000
3000
,
0002
0003
1000
0100
,
0010
0100
0010
0001
,
1000
0100
0110
0001
,
1000
1000
0002
0003
,
1000
0000
1000
0000
,
1000
0000
0200
0000
,
0310
0001
0010
0100
,
1000
0000
0100
0000
0010
0001
0100
0000
,
0001
0100
0010
0000
0100
0001
0010
0000
,
0010
0001
0100
0000
0102
0000
0000
0000
,
0103
0010
1000
0001
,
1000
0100
0110
0010
,
0001
1000
1100
0100
,
0010
0001
0011
1000
,
0010
1000
0011
0010
,
1000
0010
0000
0000
;

//--------------- dance-single - ----------------
#NOTES:
     dance-single:
     :
     Hard:
     9:
     0.540044,0.527132,0.381121,0.113306,0.288416,367,330,37,11,0,0,0.540044,0.527132,0.381121,0.113306,0.288416,367,330,37,11,0,0:
0000
0000
0000
0000
,
0000
0000
0000
0000
,
0000
0000
1000
0001
,
0100
0010
0100
0001
,
1000
0000
0001
0000
2001
0000
3001
0010
,
0001
0000
1000
0100
1000
0000
0001
0010
,
0001
0010
0001
0000
0110
0000
0100
0010
,
0100
0000
0001
1000
0001
0000
1000
0100
,
0020
0000
0032
0000
1003
0000
0100
1000
,
0100
0000
1000
0100
1000
0000
0001
0010
,
0100
1000
0100
0010
0001
0000
0100
0010
,
0100
0000
0010
0100
0010
0000
0100
0001
,
0100
0010
0100
0000
0110
0000
1000
0000
,
0100
0010
0001
0010
0100
0000
1000
0000
,
0010
0001
0010
0000
1100
0000
0010
0000
,
0001
1000
0100
1000
0001
0000
1000
0000
,
0001
1000
0010
1000
0001
0000
1000
0100
,
0010
0000
0100
0010
0100
0000
0010
0001
,
0010
0001
1000
0000
0101
0000
0010
0100
,
0010
1010
0101
0100
,
0001
1000
0001
0100
0001
0000
1000
0100
,
1000
0000
0100
0010
0001
0000
0010
0000
,
0001
0010
0100
0010
0100
0000
1000
0100
,
0010
0000
0010
0100
1000
0000
1000
0001
,
0100
0010
1000
0100
0010
0000
0011
0000
,
0010
0001
0010
0100
0010
0001
0010
0100
,
0010
0100
0010
0001
2000
0000
3001
0010
,
0001
0000
1000
0010
0100
0000
0010
1000
,
0010
0001
0010
1000
0002
0000
0103
0010
,
0100
0000
0001
1000
0100
0000
0100
0001
,
0100
0000
1000
0100
0020
0000
0130
0010
,
0001
0000
0001
0010
0001
0000
0010
0001
,
0010
0001
1000
0010
0200
0000
0300
0000
,
0010
0100
0010
0000
1001
0000
1000
0100
,
0010
0001
0010
0100
2000
0000
3000
0000
,
1000
0001
1000
0000
0001
0100
0001
0000
,
0010
0001
0010
0001
0200
0000
0300
0000
,
0100
0010
0100
0001
1000
0000
0010
0100
,
0001
0100
0001
0000
2002
0000
3003
0000
,
1000
0100
0010
0100
1000
0000
1000
0100
,
0010
0100
0010
0000
0022
0000
0033
0000
,
1000
0100
0010
0001
0100
0000
0001
2000
,
3200
2300
3200
0300
2200
0000
3300
0000
,
1000
0100
0001
0100
1000
0000
0100
2000
,
3020
0230
0320
0030
0100
0000
0000
0000
;

//--------------- dance-single - ----------------
#NOTES:
     dance-single:
     :
     Challenge:
     12:
     0.540044,0.527132,0.370821,0.113306,0.288416,367,331,36,11,0,0,0.540044,0.527132,0.370821,0.113306,0.288416,367,331,36,11,0,0:
0000
0000
0000
0000
,
0000
0000
0000
0000
,
0000
0000
1000
0001
,
0100
0010
0100
0001
,
1000
0000
0001
0000
2001
0000
3001
0010
,
0001
0100
1100
0000
1100
0000
0001
0010
,
0001
0100
0101
0000
0110
0000
0100
0010
,
0101
0000
1001
0000
0001
0000
1000
0100
,
0020
0000
0032
0000
1003
0000
0100
1000
,
0100
0000
1000
0100
1000
0000
0100
0000
1000
0000
0000
0000
0001
0000
0010
0000
,
0100
1000
0100
0010
0011
0000
0100
0010
,
0100
0000
0010
0100
0010
0000
0100
0000
0010
0000
0000
0000
0100
0000
0001
0000
,
0100
0010
0100
0010
0110
0000
1000
0000
,
0100
0000
0010
0000
0001
0000
0010
0000
0100
0010
0000
0010
0100
0000
1000
0000
,
0010
0001
0010
0100
0001
0100
0010
0000
,
0011
0000
0000
0000
1000
0000
0100
0000
0010
0001
0000
0001
1000
0000
1000
0001
,
0100
0101
0011
0011
0011
0000
1000
0100
,
0010
0000
0000
0010
0100
0000
0010
0000
0100
1000
0000
0100
1000
0000
0100
0000
,
0001
0100
0010
0001
0100
0000
0010
0100
,
0010
0000
0000
0100
0010
0000
0000
0000
0100
0010
0000
0100
0010
0000
1000
0001
,
1000
1001
1001
0101
0011
0000
0001
1000
,
0100
0000
1000
0000
0100
0000
1000
0000
0001
0100
0000
0001
0100
0000
0010
0100
,
0001
0011
0011
0110
0210
0000
0301
1000
,
0001
0000
0000
0000
1001
0000
1000
0000
0100
1000
0000
0100
1000
0000
0001
0100
,
0001
1100
1100
1001
1001
0000
0010
0100
,
0010
0000
0000
0100
0010
0000
0100
0000
0010
0100
0000
0100
0010
0000
0100
0000
,
0010
0100
0001
1000
2000
0000
3001
0010
,
0001
0000
0000
0010
0001
0000
0010
0000
0001
0010
0000
0010
0001
0000
0010
0000
,
0010
0001
0001
1000
2000
0000
3100
1000
,
0100
0000
0000
1000
0100
0000
1000
0000
0100
1000
0000
1000
0100
0000
1000
0000
,
0100
0010
0001
1000
0002
0000
1003
0100
,
0010
0000
0000
0001
0010
0000
0001
0000
0010
0100
0000
0100
1000
0000
0100
0000
,
0010
0000
0001
0000
1000
0010
0100
0010
0100
0000
0001
0000
0100
0000
0020
0000
,
0100
0100
0130
0001
1000
0100
1000
0100
,
0010
0001
0010
0001
1000
0100
1000
0000
0200
0000
0000
0000
0310
0000
0001
0000
,
1000
0000
0001
0000
1000
0000
0001
0000
1000
0001
0000
0100
0001
0000
0001
0000
,
0010
0001
1000
0100
1000
0001
0010
0000
0002
0000
0000
0000
1003
0000
0100
0000
,
0010
0000
0001
0100
0001
0000
0010
0000
0100
1000
0000
0100
0010
0000
0001
0000
,
0100
0010
0100
0010
1000
0001
1000
0000
0002
0000
0000
0000
1003
0000
0010
0000
,
0100
0000
0001
0000
0010
0000
0100
0000
0010
0001
0000
1000
0100
0000
0010
0000
,
0100
0010
0001
0010
0001
0000
0010
0000
0011
0000
0000
0000
0001
0000
1000
0000
,
0010
0000
0100
0000
0001
0000
0010
0100
0010
0000
0001
0010
0001
0000
1000
0000
,
1100
1100
1010
0000
1100
0000
1000
0100
,
1000
0000
0010
0000
0100
0000
0010
0100
0010
0000
1000
0100
1000
0000
0001
0000
,
0110
0110
0101
0000
0110
0000
0000
0000
;
