#TITLE:Nicchoku toban nattanara;
#SUBTITLE:;
#ARTIST:Retro Honpo;
#TITLETRANSLIT:;
#SUBTITLETRANSLIT:;
#ARTISTTRANSLIT:;
#GENRE:;
#CREDIT:from pop n music 11 cs;
#BANNER:;
#BACKGROUND:;
#LYRICSPATH:;
#CDTITLE:;
#MUSIC:Retro Honpo - Nicchoku touban nattanara_.ogg;
#OFFSET:-0.051000;
#SAMPLESTART:5.938000;
#SAMPLELENGTH:12.000000;
#SELECTABLE:YES;
#BPMS:0.000000=164.000000
,8.000000=162.371994
,30.000000=159.901001
,32.000000=162.059998
;
#STOPS:
;
#BGCHANGES:;
#KEYSOUNDS:;
#ATTACKS:;

//---------------dance-single - ----------------
#NOTES:
     dance-single:
     :
     Beginner:
     1:
     0.097444,0.132262,0.033273,0.000000,0.000000,41.000000,39.000000,2.000000,0.000000,0.000000,0.000000,0.097444,0.132262,0.033273,0.000000,0.000000,41.000000,39.000000,2.000000,0.000000,0.000000,0.000000:
0000
0000
0000
0000
,
0000
0000
0000
0000
,
0100
0000
0000
0000
,
0100
0000
0000
0000
,
0100
0000
0000
0000
,
0001
0000
0000
0000
,
1000
0000
0000
0000
,
0001
0000
0000
0000
,
1000
0000
0000
0000
,
0001
0000
0000
0000
,
1000
0000
0000
0000
,
0001
0000
0000
0000
,
0100
0000
0000
0000
,
0010
0000
0000
0000
,
0100
0000
0000
0000
,
0001
0000
0000
0000
,
1000
0000
0000
0000
,
0001
0000
0000
0000
,
1000
0000
0000
0000
,
0100
0000
0000
0000
,
0100
0000
0000
0000
,
1000
0000
0000
0000
,
0001
0000
0000
0000
,
1000
0000
0000
0000
,
1001
0000
0000
0000
,
0001
0000
0000
0000
,
1000
0000
0000
0000
,
1000
0000
0000
0000
,
1001
0000
0000
0000
,
0001
0000
0000
0000
,
1000
0000
0000
0000
,
0100
0000
0000
0000
,
0100
0000
0000
0000
,
0010
0000
0000
0000
,
0001
0000
0000
0000
,
1000
0000
0000
0000
,
0001
0000
0000
0000
,
1000
0000
0000
0000
,
0100
0000
0000
0000
,
0100
0000
0000
0100
;

//---------------dance-single - ----------------
#NOTES:
     dance-single:
     :
     Easy:
     3:
     0.254304,0.264524,0.083184,0.000000,0.000000,107.000000,102.000000,5.000000,0.000000,0.000000,0.000000,0.254304,0.264524,0.083184,0.000000,0.000000,107.000000,102.000000,5.000000,0.000000,0.000000,0.000000:
0000
0000
0000
0000
,
0000
0000
0000
0000
,
0100
0100
0100
0000
,
0100
0000
0000
0000
,
0100
0100
0100
0000
,
0001
0000
0001
0000
,
1000
1000
1000
0000
,
0001
0000
0001
0000
,
1000
0100
0010
0000
,
0001
0010
0100
0000
,
1000
0100
0010
0000
,
0001
0010
0100
0000
,
1000
0100
0010
0000
,
0001
0100
0001
0000
,
1000
0100
0010
0000
,
0001
0010
0100
0000
,
1100
0000
0100
0010
,
0001
0000
1000
0000
,
1000
0100
1000
0000
,
0100
0010
0100
0000
,
1000
0100
0010
0000
,
0100
0001
0100
0000
,
0001
0000
1000
0000
,
0001
0001
1000
1000
,
1000
0000
0100
0000
,
0001
0000
0010
0000
,
1000
0000
0100
0000
,
1000
0100
1000
0000
,
0001
0100
0001
0000
,
0100
0010
0100
0000
,
1000
0000
0001
0000
,
1000
0001
1000
0001
,
0100
0000
0010
0000
,
0100
0010
0100
0000
,
1001
0000
0001
0000
,
1001
0000
1000
0000
,
0001
0010
0001
0000
,
1000
0100
1000
0000
,
1100
0000
0100
0000
,
1100
0000
0100
0100
;

//---------------dance-single - ----------------
#NOTES:
     dance-single:
     :
     Medium:
     7:
     0.382645,0.495982,0.249551,0.149730,0.000000,161.000000,146.000000,15.000000,9.000000,0.000000,0.000000,0.382645,0.495982,0.249551,0.149730,0.000000,161.000000,146.000000,15.000000,9.000000,0.000000,0.000000:
0000
0000
0000
0000
,
0000
0000
0000
0000
,
0100
0100
0100
0001
,
0100
0100
0100
0001
,
0110
0100
0110
1000
,
1001
0100
1001
0010
,
1000
1000
0100
0010
,
0001
0001
1001
0000
,
1000
0100
0010
0100
,
0010
0000
0010
0001
0100
0000
0000
0000
,
0001
0000
0100
0000
0010
0000
1000
0100
,
0010
0000
0010
0100
1000
0000
0000
0000
,
0001
0000
0100
0000
0010
0000
1000
0100
,
0010
0001
0100
0000
,
1001
0000
0100
0000
0001
0010
0001
0000
,
0001
0011
0110
1100
,
1001
1000
0100
0010
,
0001
0000
1000
0001
1000
0000
0100
0000
,
1000
0100
1000
0000
0001
0000
0100
0000
,
0010
0000
0100
0001
0010
0000
0001
0000
,
2000
3200
0320
0032
,
0103
0001
0101
0000
,
0001
0000
0010
0001
0010
0000
0001
0000
,
1000
1100
0000
1000
,
1200
0300
0100
0000
,
0010
0000
0000
0001
0020
0000
0030
0000
,
2000
3000
0100
0000
,
0001
0100
0010
0000
,
0200
0300
0101
0000
,
0001
0000
0000
1000
0100
0000
0000
0000
,
1000
1000
0001
0001
,
0100
0010
1000
0001
,
0110
0100
0100
0000
,
0010
0010
0010
1000
,
1000
0100
0010
0001
,
1000
0100
0010
0001
,
0010
0100
0010
0100
,
0010
0001
1000
0001
,
1000
0100
0010
0001
,
2000
0000
3100
0100
0100
0000
0100
0000
;

//---------------dance-single - ----------------
#NOTES:
     dance-single:
     :
     Hard:
     13:
     0.674976,0.761702,0.316098,0.099820,0.183004,284.000000,265.000000,19.000000,6.000000,0.000000,0.000000,0.674976,0.761702,0.316098,0.099820,0.183004,284.000000,265.000000,19.000000,6.000000,0.000000,0.000000:
// measure 0
0000
0000
0000
0000
,  // measure 1
0000
0000
0000
0000
,  // measure 2
0100
0000
0010
0100
0010
0000
0100
0000
0010
0100
0010
0000
1000
0000
0100
0010
,  // measure 3
0100
0000
0010
0001
0010
0000
0001
0000
0100
0010
0100
0000
0001
0000
0010
0000
,  // measure 4
0110
1000
0100
0010
1001
1000
0001
0100
,  // measure 5
1010
1000
0100
1000
1100
0100
0010
0001
,  // measure 6
1000
0000
0001
0100
0001
0000
0100
0000
0001
0100
0001
0000
0010
0000
0001
0100
,  // measure 7
0001
0000
0000
1000
0010
0000
0000
0000
1001
0000
0000
0000
0000
0000
0000
0000
,  // measure 8
1000
0000
0100
0010
0001
0000
0100
0000
,  // measure 9
0010
0000
0010
0100
0001
0000
0000
0000
,  // measure 10
0001
0000
0100
0001
0010
0000
0100
1000
,  // measure 11
0010
0100
0010
0000
1001
0000
0000
0000
,  // measure 12
0001
0100
0001
0000
0010
0100
1000
0000
,  // measure 13
0010
0100
0001
0000
0100
0000
0000
0000
,  // measure 14
1000
0100
1000
0100
1000
0001
0010
0001
,  // measure 15
0010
0001
0100
0010
0110
0000
1100
0000
,  // measure 16
1001
0000
1000
0100
1000
0000
0010
0100
,  // measure 17
0001
0000
1000
0001
1000
0100
1000
0100
,  // measure 18
0010
0100
1000
0000
0001
0100
0001
0000
,  // measure 19
0010
0001
0100
0001
0010
0000
0001
0000
,  // measure 20
1000
1000
1000
1000
0100
0100
0100
0100
,  // measure 21
0010
0010
0001
0001
0001
0000
1000
0000
,  // measure 22
0001
0010
0010
0001
0010
0010
0100
1000
,  // measure 23
0010
0001
0100
0000
0110
0000
1001
0000
,  // measure 24
2000
0000
3001
0000
0100
0000
0010
0100
,  // measure 25
0010
0100
0000
0010
0200
0000
0300
0000
,  // measure 26
0022
0000
0033
0010
0001
0010
0100
1000
,  // measure 27
1100
1100
0000
0100
0010
0000
0100
0010
,  // measure 28
0200
0000
0300
0010
0101
0000
0001
0010
,  // measure 29
0001
1000
0000
1000
0200
0000
0300
0100
,  // measure 30
1000
0000
0001
0100
0001
0000
1000
0000
0001
0010
0001
0000
1000
0000
0001
0000
,  // measure 31
0100
0010
0100
0010
0100
0010
0000
0100
,  // measure 32
0110
0010
0110
0100
0001
0001
1000
1000
,  // measure 33
1010
0100
0010
0100
0101
0001
1000
0010
,  // measure 34
1000
0000
0100
1000
0100
0000
1000
0000
0100
1000
0100
0000
0010
0000
0100
1000
,  // measure 35
0100
0000
1000
0100
1000
0000
0001
0000
0100
0001
0100
0000
0001
0000
0100
0010
,  // measure 36
0100
0010
0100
0001
0010
1000
0100
0000
,  // measure 37
1000
0001
0100
0000
1000
0100
0010
0100
,  // measure 38
1000
0000
1000
0100
1000
0000
0010
0000
0100
0001
0100
0000
0001
0000
0010
0001
,  // measure 39
0010
0000
0000
0001
0100
0000
0010
0000
0100
0000
0000
0000
0100
0010
0000
0000
;
