#TITLE:New Days;
#SUBTITLE:;
#ARTIST:ko-saku;
#TITLETRANSLIT:;
#SUBTITLETRANSLIT:;
#ARTISTTRANSLIT:;
#GENRE:;
#CREDIT:from pop n music 12;
#BANNER:ko-saku - New Days.png;
#BACKGROUND:;
#LYRICSPATH:;
#CDTITLE:;
#MUSIC:ko-saku - New Days.mp3;
#OFFSET:-0.094000;
#SAMPLESTART:56.240002;
#SAMPLELENGTH:12.000000;
#SELECTABLE:YES;
#BPMS:0.000000=128.000000
;
#STOPS:
;
#BGCHANGES:;
#KEYSOUNDS:;
#ATTACKS:;

//---------------dance-single - ----------------
#NOTES:
     dance-single:
     :
     Beginner:
     1:
     0.067406,0.100146,0.028888,0.038518,0.000000,49.000000,46.000000,3.000000,4.000000,0.000000,0.000000,0.067406,0.100146,0.028888,0.038518,0.000000,49.000000,46.000000,3.000000,4.000000,0.000000,0.000000:
0000
0000
0000
0000
,
0000
0000
0000
0000
,
0000
0000
0000
0000
,
0000
0000
0000
0000
,
1000
0000
0000
0000
,
0001
0000
0000
0000
,
1000
0000
0000
0000
,
0001
0000
0000
0000
,
0100
0000
0000
0000
,
0001
0000
0000
0000
,
0100
0000
0000
0000
,
0001
0000
0000
0000
,
1000
0000
0000
0000
,
0010
0000
0000
0000
,
1000
0000
0000
0000
,
0010
0000
0000
0000
,
1000
0000
0000
0000
,
0100
0000
0000
0000
,
0010
0000
0000
0000
,
0000
0000
0000
0000
,
0110
0000
0000
0000
,
0001
0000
0000
0000
,
1000
0000
0000
0000
,
0001
0000
0000
0000
,
1000
0000
0000
0000
,
0000
0000
0000
0000
,
1001
0000
0000
0000
,
1000
0000
0000
0000
,
0001
0000
0000
0000
,
0001
0000
0000
0000
,
2000
0000
3000
0000
,
0002
0000
0003
0000
,
1000
0000
0000
0000
,
0001
0000
0000
0000
,
2000
0000
3000
0000
,
0001
0000
0000
0000
,
0001
0000
0000
0000
,
0001
0000
0000
0000
,
2000
0000
3000
0000
,
0000
0000
0000
0000
,
1000
0000
0000
0000
,
0010
0000
0000
0000
,
1000
0000
0000
0000
,
0001
0000
0000
0000
,
1001
0000
0000
0000
,
1000
0000
0000
0000
,
0001
0000
0000
0000
,
0001
0000
0000
0000
,
1000
0000
0000
0000
,
1000
0000
0000
0000
,
0001
0000
0000
0000
,
0001
0000
0000
0000
,
0100
0000
0000
0000
;

//---------------dance-single - ----------------
#NOTES:
     dance-single:
     :
     Easy:
     4:
     0.177457,0.231829,0.048147,0.125183,0.000000,129.000000,124.000000,5.000000,13.000000,0.000000,0.000000,0.177457,0.231829,0.048147,0.125183,0.000000,129.000000,124.000000,5.000000,13.000000,0.000000,0.000000:
0000
0000
0000
0000
,
0000
0000
0000
0000
,
0010
0100
0001
1000
,
0010
0010
0100
0010
,
1000
0000
1000
0100
,
0010
0000
0001
0000
,
1001
0000
1000
0100
,
1000
0000
0001
0100
,
0010
0000
1000
0100
,
0010
0000
0001
0000
,
0100
0010
0200
0000
,
0301
0000
1000
0000
,
1001
0000
0010
0100
,
0010
0000
0100
0010
,
0100
0000
0001
0000
,
1000
0100
0010
0000
,
0001
0000
1000
0000
,
0001
1000
0001
0000
,
1000
0001
2000
0000
,
3001
0000
0010
0000
,
0110
0000
2000
0000
,
3100
0000
0100
0000
,
1000
0000
0002
0000
,
0103
0000
0001
1000
,
1001
0000
0001
0000
,
0100
0000
0010
0000
,
1000
0100
0010
0000
,
0100
0000
0100
0010
,
0001
0000
0001
0000
,
1000
0000
0000
0000
,
2000
0000
3000
0001
,
0002
0000
0003
0000
,
0001
1000
0001
1000
,
0002
0000
1003
0000
,
0100
0010
0001
0000
,
0001
0010
0100
0000
,
0010
0000
0001
0100
,
0010
0000
0100
0000
,
0002
0000
0103
0000
,
0200
0000
0301
0000
,
0001
0010
0001
0100
,
0002
0000
1003
0000
,
1000
0000
0001
0000
,
0001
0000
1000
0000
,
2001
0000
0000
0000
,
3001
0000
0001
0001
,
0001
0000
1000
0000
,
0001
0000
0100
0000
,
1000
0000
0100
0000
,
0002
0000
0003
0000
,
1000
0100
0010
0000
,
0001
0000
0100
0000
0001
0000
0000
0200
,
0000
0000
0000
0000
,
0000
0000
0300
0000
;

//---------------dance-single - ----------------
#NOTES:
     dance-single:
     :
     Medium:
     6:
     0.305391,0.331735,0.154071,0.125183,0.000000,222.000000,206.000000,16.000000,13.000000,0.000000,0.000000,0.305391,0.331735,0.154071,0.125183,0.000000,222.000000,206.000000,16.000000,13.000000,0.000000,0.000000:
0000
0000
0000
0000
,
0000
0000
0000
0000
,
0100
0000
0001
0000
1000
0010
1000
0000
,
0001
0100
0001
0000
0100
0000
0001
0000
,
1001
0100
1001
1000
,
0100
0000
0010
0000
0001
0000
1000
0001
,
1000
0001
0001
0010
,
0100
0000
1000
0000
0001
0000
1000
0001
,
1000
0100
0010
0001
,
0100
0000
0010
0000
0100
0010
0100
0000
,
0100
0010
0200
0302
,
2003
3100
0010
0001
,
1001
1000
1001
0001
,
0010
0000
0100
0000
1000
0000
0001
0100
,
0001
1000
0100
0010
,
0001
0010
0100
1000
,
1000
0000
0000
0000
0001
0000
0100
0001
,
0100
0000
0001
0000
0100
0000
0010
0100
,
0010
0000
1000
0000
0100
0010
0100
0000
,
0110
0000
0001
0000
,
0101
0010
1000
0100
,
0010
0001
0100
0010
,
1000
0100
0010
0001
,
0001
1000
1000
0010
,
1000
0100
1000
0000
0001
0000
0100
0000
,
0001
0010
0001
0000
1000
0000
0001
0000
,
1001
0100
0010
0100
,
0002
0003
1000
0010
,
0200
0000
0301
0000
,
0000
1000
0001
1000
,
0002
0000
0013
0001
,
2000
0000
3100
0010
,
0011
0001
0101
0011
,
0001
1000
0001
1000
,
1001
0100
0010
0000
,
0100
0100
0001
0000
,
0001
0000
1000
0000
0001
0000
1000
0001
,
1000
0000
0001
0000
0110
0000
1000
0001
,
2000
0000
0010
0000
3010
0000
0100
0001
,
0100
0001
0001
0000
,
1001
1000
0101
0001
,
0010
0000
0001
0000
1000
0000
0100
1000
,
0100
0010
0001
0000
,
0002
0000
0000
0203
0000
0000
0302
0000
,
0203
0000
0000
0001
,
0301
0000
1000
0100
1000
0000
0001
0100
,
0001
0000
0101
0000
0010
0100
0010
0000
,
1000
0000
0010
0000
0100
0001
0100
0000
,
0010
1000
0100
1000
,
1001
0100
0100
1000
,
0001
0000
0100
0000
0001
0100
0001
0000
,
0100
0000
0001
0000
0010
0100
0010
0200
,
0000
0000
0000
0000
,
0300
0000
0000
0000
;

//---------------dance-single - ----------------
#NOTES:
     dance-single:
     :
     Hard:
     10:
     0.386554,0.437900,0.163701,0.250366,0.110739,281.000000,264.000000,17.000000,26.000000,0.000000,0.000000,0.386554,0.437900,0.163701,0.250366,0.110739,281.000000,264.000000,17.000000,26.000000,0.000000,0.000000:
// measure 0
0000
0000
0000
0000
,  // measure 1
0000
0000
0000
0000
,  // measure 2
0100
0000
0000
0000
0001
0000
0000
1000
0001
0000
0000
0000
1000
0000
0100
0000
,  // measure 3
0001
0100
0010
0002
0003
0100
0001
0010
,  // measure 4
1001
0000
0000
0000
0100
0000
0000
0100
1000
0000
0100
0000
1000
0000
0100
0000
,  // measure 5
0010
0000
0001
1000
0000
0001
1000
0001
,  // measure 6
1001
0000
0000
0000
1000
0000
0000
0100
0010
0000
0001
0000
0100
0000
0001
0000
,  // measure 7
0020
0000
0130
1000
0000
0002
0000
2003
,  // measure 8
0000
3000
0001
0000
0010
0001
0010
0002
,  // measure 9
0000
0013
0000
0000
0100
1000
0100
1000
,  // measure 10
0010
0000
0000
0100
0000
0000
0002
0000
0000
0000
0003
0000
1000
0000
0000
0000
,  // measure 11
0100
0010
0100
0010
0000
0001
0001
0001
,  // measure 12
0001
0000
0000
0000
1000
0000
0000
1000
0001
0000
0100
0000
0001
0000
0010
0000
,  // measure 13
0001
0000
0100
0010
0000
0001
0010
0100
,  // measure 14
0001
0000
0000
0000
1000
0000
0000
0001
1000
0000
0100
0000
0010
0000
0100
0000
,  // measure 15
0020
0000
0130
0010
0000
0200
0000
0302
,  // measure 16
0000
0003
0100
0000
1000
0001
1000
0001
,  // measure 17
0000
0001
0000
0000
1000
0100
0010
0100
,  // measure 18
0010
0000
0000
0001
0000
0000
1000
0000
0000
0000
0000
0000
0100
0000
0000
0000
,  // measure 19
0010
0001
0010
0100
0000
0100
0010
0000
,  // measure 20
0101
0000
0010
0200
0000
0300
0010
0100
,  // measure 21
0010
1000
0001
2000
0000
0000
3001
0100
,  // measure 22
0001
0000
0100
0020
0000
0030
1000
0000
,  // measure 23
1001
0000
0000
0001
0000
0000
2000
0000
0000
0000
0000
0000
3010
0000
0000
0000
,  // measure 24
0110
0100
0010
0100
0000
0001
0100
0002
,  // measure 25
0000
1003
1000
0100
,  // measure 26
0020
0000
0030
0001
0000
0010
0000
0100
,  // measure 27
0000
0000
0000
0000
1000
0000
0001
0000
0100
0000
0000
0001
0000
0000
1000
0000
,  // measure 28
0020
0000
0000
0000
0000
0000
0000
0000
0130
0000
0000
0000
0010
0100
0010
0000
,  // measure 29
0000
0000
1000
0000
0001
0000
1000
0100
,  // measure 30
2100
0000
0000
0000
3000
0010
0000
0010
,  // measure 31
2000
0000
0000
0100
0000
0000
0100
0000
3000
0000
0100
0000
0010
0000
0000
0000
,  // measure 32
0011
1001
0101
0110
,  // measure 33
0001
1000
1001
0101
,  // measure 34
2000
0000
3100
1000
0000
0010
0100
0000
,  // measure 35
0010
0000
0100
0001
0000
0100
0001
0100
,  // measure 36
0001
0000
0000
1000
0010
0000
0000
1000
0100
0000
0010
0000
0001
0000
1000
0000
,  // measure 37
0000
0000
0000
0000
0001
0000
0000
0010
0100
0000
0000
0000
1000
0000
0001
0000
,  // measure 38
2001
0000
0001
0000
3000
0001
0000
0000
,  // measure 39
0100
0000
0000
0010
0000
0000
0100
0000
0000
0000
0001
0000
0000
0000
0000
0000
,  // measure 40
1001
0000
1100
0000
0100
0010
0001
0000
,  // measure 41
0100
0010
0100
0000
0010
0000
0100
0000
,  // measure 42
0100
0000
0010
0200
0000
0300
0001
0000
,  // measure 43
0200
0000
0000
0302
0000
0000
0103
0000
,  // measure 44
0202
0000
0003
0000
,  // measure 45
0301
0000
0000
0000
1000
0000
0100
1000
0100
0000
0000
1000
0000
0000
0100
0000
,  // measure 46
0010
0000
0000
0000
0001
0000
0010
0100
0010
0000
0000
0000
0001
0000
0000
0000
,  // measure 47
1000
0000
0100
0000
0010
0000
0001
0010
0001
0000
0000
0000
0100
0000
0010
0000
,  // measure 48
0110
0000
0000
0000
0001
0000
0100
0000
0010
0000
0000
0000
1000
0000
0010
0100
,  // measure 49
0010
0000
0000
0000
0100
0000
0100
0000
0000
0100
0000
0000
0001
0000
0010
0000
,  // measure 50
0001
0000
0000
0000
0100
0000
0001
0010
0001
0000
0000
0000
0001
0000
0010
0000
,  // measure 51
0100
0000
0000
0000
1000
0000
0100
0000
0010
0000
0000
0000
0001
0100
0002
0000
,  // measure 52
0000
0000
0000
0000
,  // measure 53
0000
0000
0003
0000
;
