#VERSION:0.83;
#TITLE:Negaigoto;
#SUBTITLE:;
#ARTIST:Yoshihiko Koezuka;
#TITLETRANSLIT:;
#SUBTITLETRANSLIT:;
#ARTISTTRANSLIT:;
#GENRE:;
#ORIGIN:;
#CREDIT:;
#BANNER:Yoshihiko Koezuka - Negaigoto.png;
#BACKGROUND:;
#PREVIEWVID:;
#JACKET:;
#CDIMAGE:;
#DISCIMAGE:;
#LYRICSPATH:;
#CDTITLE:;
#MUSIC:Yoshihiko Koezuka - Negaigoto.ogg;
#OFFSET:-0.393000;
#SAMPLESTART:1.035000;
#SAMPLELENGTH:16.000000;
#SELECTABLE:YES;
#BPMS:0.000=138.000;
#STOPS:;
#DELAYS:;
#WARPS:;
#TIMESIGNATURES:0.000=4=4;
#TICKCOUNTS:0.000=4;
#COMBOS:0.000=1;
#SPEEDS:0.000=1.000=0.000=0;
#SCROLLS:0.000=1.000;
#FAKES:;
#LABELS:0.000=Song Start;
#BGCHANGES:;
#KEYSOUNDS:;
#ATTACKS:
;

//---------------dance-single - ----------------
#NOTEDATA:;
#CHARTNAME:;
#STEPSTYPE:dance-single;
#DESCRIPTION:;
#CHARTSTYLE:;
#DIFFICULTY:Beginner;
#METER:1;
#RADARVALUES:0.068291,0.108645,0.000000,0.034766,0.000000,55.000000,55.000000,0.000000,4.000000,0.000000,0.000000,0.000000,0.000000,0.000000,0.068291,0.108645,0.000000,0.034766,0.000000,55.000000,55.000000,0.000000,4.000000,0.000000,0.000000,0.000000,0.000000,0.000000;
#CREDIT:;
#NOTES:
0000
0000
0000
0000
,
1000
0000
0000
0000
,
0001
0000
0000
0000
,
1000
0000
0000
0000
,
0000
0000
0000
0000
,
0010
0000
0000
0000
,
1000
0000
0000
0000
,
0001
0000
0000
0000
,
1000
0000
0000
0000
,
0010
0000
0000
0000
,
0100
0000
0000
0000
,
0010
0000
0000
0000
,
0100
0000
0000
0000
,
0001
0000
0000
0000
,
1000
0000
1000
0000
,
1000
0000
0000
0000
,
0001
0000
0000
0000
,
0001
0000
0000
0000
,
1000
0000
0000
0000
,
0010
0000
0000
0000
,
0010
0000
0000
0000
,
0010
0000
0000
0000
,
0100
0000
0000
0000
,
0100
0000
0000
0000
,
0010
0000
0000
0000
,
1000
0000
0000
0000
,
0001
0000
0000
0000
,
1000
0000
1000
0000
,
1000
0000
0000
0000
,
0001
0000
0000
0000
,
1000
0000
0000
0000
,
2000
0000
3000
0000
,
0002
0000
0003
0000
,
0000
0000
0000
0000
,
2000
0000
3000
0000
,
0000
0000
0000
0000
,
0002
0000
0003
0000
,
0000
0000
0000
0000
,
0100
0000
0000
0000
,
0100
0000
0000
0000
,
0010
0000
0000
0000
,
0000
0000
0000
0000
,
0010
0000
0000
0000
,
0010
0000
0000
0000
,
0100
0000
0000
0000
,
0000
0000
0000
0000
,
0000
0000
0100
0000
,
0000
0000
0000
0000
,
0000
0000
0010
0000
,
0000
0000
0000
0000
,
0000
0000
1000
0000
,
0000
0000
0001
0000
,
0000
0000
0001
0000
,
0000
0000
1000
0000
,
0000
0000
0001
0000
,
0000
0000
0001
0000
,
0000
0000
1000
0000
,
0000
0000
1000
0000
,
0000
0000
0010
0000
,
0000
0000
0010
0000
,
0000
0000
0100
0000
,
0000
0000
0000
0000
,
0000
0000
0100
0000
;

//---------------dance-single - ----------------
#NOTEDATA:;
#CHARTNAME:;
#STEPSTYPE:dance-single;
#DESCRIPTION:;
#CHARTSTYLE:;
#DIFFICULTY:Easy;
#METER:5;
#RADARVALUES:0.208598,0.298773,0.139065,0.034766,0.000000,168.000000,152.000000,16.000000,4.000000,0.000000,0.000000,0.000000,0.000000,0.000000,0.208598,0.298773,0.139065,0.034766,0.000000,168.000000,152.000000,16.000000,4.000000,0.000000,0.000000,0.000000,0.000000,0.000000;
#CREDIT:;
#NOTES:
// measure 0
0000
0000
0000
0000
,  // measure 1
0000
0000
0000
0000
,  // measure 2
0000
0000
0000
0000
,  // measure 3
0000
0000
0000
0000
,  // measure 4
0000
0000
0000
0000
,  // measure 5
1000
0001
1000
0000
,  // measure 6
0100
0010
0100
0000
,  // measure 7
0001
0000
1000
0000
,  // measure 8
0001
0000
0000
0000
,  // measure 9
1000
0010
0100
0000
,  // measure 10
0001
0010
0100
0000
,  // measure 11
1000
0000
0001
0000
,  // measure 12
1000
0000
1001
0000
,  // measure 13
1100
0000
0100
0100
,  // measure 14
0100
0100
0100
0000
,  // measure 15
0011
0000
0000
0010
,  // measure 16
0010
0000
0000
0010
,  // measure 17
0010
0000
0001
1000
,  // measure 18
0100
0000
0100
1000
,  // measure 19
0001
0000
0100
0000
,  // measure 20
0010
0000
0110
0000
,  // measure 21
0010
1000
0100
0000
,  // measure 22
0001
0000
1000
0000
,  // measure 23
0001
0100
0010
0000
,  // measure 24
0100
0000
0100
0000
,  // measure 25
0110
0000
1000
0000
,  // measure 26
0001
0001
1000
1000
,  // measure 27
1001
0000
0100
0000
,  // measure 28
0100
0010
0100
0020
,  // measure 29
1030
0000
0000
0000
,  // measure 30
0001
1000
0010
1000
,  // measure 31
0100
0000
0100
1000
,  // measure 32
0001
0010
0001
1000
,  // measure 33
0001
0000
2000
3000
,  // measure 34
0001
0100
0010
0100
,  // measure 35
0001
0000
1000
0000
,  // measure 36
0110
0000
0100
0000
,  // measure 37
0100
0100
0001
0001
,  // measure 38
1001
1000
0100
0010
,  // measure 39
0100
1000
0001
0000
,  // measure 40
0001
0100
0010
0100
,  // measure 41
0001
0000
1000
0000
,  // measure 42
0010
0000
0100
0000
,  // measure 43
0110
0000
0100
0000
,  // measure 44
0110
0000
0010
0000
,  // measure 45
1000
0001
0100
0010
,  // measure 46
0000
0000
1000
0000
,  // measure 47
0000
0000
0002
0000
,  // measure 48
1003
0000
0020
0000
,  // measure 49
0130
0000
0000
0000
,  // measure 50
0000
0000
0100
0001
,  // measure 51
1000
0001
1001
1000
,  // measure 52
0010
0100
0101
0000
,  // measure 53
1000
0000
1001
0000
,  // measure 54
0010
0100
0010
0000
,  // measure 55
0010
1000
0010
0000
,  // measure 56
0100
0001
0100
0000
,  // measure 57
0010
0000
0000
0000
,  // measure 58
0110
0000
1001
0100
,  // measure 59
0001
1000
1001
0010
,  // measure 60
1000
0001
1000
1000
,  // measure 61
0001
0001
0000
0000
,  // measure 62
1000
1000
0010
0000
;

//---------------dance-single - ----------------
#NOTEDATA:;
#CHARTNAME:;
#STEPSTYPE:dance-single;
#DESCRIPTION:;
#CHARTSTYLE:;
#DIFFICULTY:Medium;
#METER:8;
#RADARVALUES:0.347663,0.407417,0.121682,0.052149,0.000000,280.000000,266.000000,14.000000,6.000000,0.000000,0.000000,0.000000,0.000000,0.000000,0.347663,0.407417,0.121682,0.052149,0.000000,280.000000,266.000000,14.000000,6.000000,0.000000,0.000000,0.000000,0.000000,0.000000;
#CREDIT:;
#NOTES:
0000
0000
0000
0000
,
0100
0000
0000
0000
0100
0001
0100
0001
,
0200
0000
0300
0000
0010
1000
0010
1000
,
0020
0000
0030
0000
0000
0100
0000
0100
,
0000
0020
0000
0130
,
0001
1000
0001
0000
1000
0000
0100
0000
,
0010
0001
0010
0000
0001
0000
0010
0000
,
0100
1000
0100
0000
0000
0100
0100
0100
,
0000
1000
1000
1000
0000
0000
0000
0000
,
0001
0000
0100
0000
0000
0000
0010
0100
,
0010
0100
0010
0000
0000
0000
0010
0000
,
1000
0000
0100
0000
0000
0010
0001
0020
,
0000
0000
0000
0031
0000
0000
1000
0000
,
0010
0000
0100
0010
0100
0000
0001
0100
,
0001
1000
0001
0000
1000
0010
1000
0010
,
1000
0000
0000
0001
0000
0000
0000
1000
,
0000
0000
0000
0001
0000
0000
0100
0000
,
0010
0100
0010
0000
0000
0000
0100
0010
,
0100
0001
0010
0100
0010
0000
0001
0000
,
0100
0000
0010
0000
1000
0000
0100
1000
,
0100
0000
1000
0000
,
0001
0000
1000
0000
0001
1000
0001
0000
,
1000
0010
0100
0000
0010
0010
1000
0100
,
1000
0000
0001
0100
0001
0000
1000
0010
,
0100
0001
0100
0001
0010
0000
0001
0000
,
0100
0000
0010
0100
0010
0000
0000
0000
,
0110
0000
0100
0010
0100
0000
0000
0000
,
1001
0000
1000
0001
1000
0000
0001
0000
,
1001
0101
0101
0020
,
0000
0000
0030
0000
,
0110
1000
0001
1000
,
0010
0100
0010
0100
0001
0000
0001
0000
,
1000
0100
1000
0000
0001
0000
0010
0100
,
0010
0100
1000
0100
,
1001
0000
0001
0000
1001
0000
1000
0100
,
1000
1000
0001
0001
,
1001
1001
1000
1000
,
0010
0010
0100
0100
,
0110
0010
1000
0100
,
0010
0100
1000
0001
,
0001
0010
0001
0000
0001
0100
0001
0000
,
0100
1000
0100
0010
,
1001
0000
0000
0000
0010
0100
0010
0000
,
0110
0000
0100
0000
,
0010
0000
0000
0000
0100
0010
0100
0001
,
0010
0000
0000
0000
0001
1000
0001
1000
,
0000
0000
0100
0010
,
0010
0000
0000
0000
1000
0000
0001
1000
,
0001
0000
0000
0000
0100
0000
0100
0010
,
0100
0000
0000
0000
0001
0000
0001
1000
,
0001
0000
1000
1010
,
0010
0100
0010
0000
0100
0000
0001
0000
,
1000
0100
0010
0000
0001
0000
0001
0000
,
0010
0001
1000
0001
1000
0000
0000
0000
,
0001
0000
0010
0001
0010
0000
0000
0000
,
0100
0000
1000
0100
1000
0000
0000
0000
,
0010
0000
0100
0001
0100
0000
0000
0000
,
0010
0100
0000
0010
0000
0000
0000
0000
,
0100
0000
0001
0010
0100
0000
1000
0000
,
1000
0000
0001
0100
0010
0000
0010
0000
,
0100
0000
0010
0100
0001
0000
0000
0000
,
1000
0001
0000
2000
0000
3000
0000
0000
,
0001
1000
0001
1000
0001
0000
0000
0000
;

//---------------dance-single - pop n music 15 ADVENTURE----------------
#NOTEDATA:;
#CHARTNAME:;
#STEPSTYPE:dance-single;
#DESCRIPTION:pop n music 15 ADVENTURE;
#CHARTSTYLE:;
#DIFFICULTY:Hard;
#METER:11;
#RADARVALUES:0.480520,0.516062,0.130374,0.034766,0.065187,387.000000,372.000000,15.000000,4.000000,0.000000,0.000000,0.000000,0.000000,0.000000,0.480520,0.516062,0.130374,0.034766,0.065187,387.000000,372.000000,15.000000,4.000000,0.000000,0.000000,0.000000,0.000000,0.000000;
#CREDIT:;
#NOTES:
0000
0000
0000
0000
,
0110
0000
1000
0010
0100
0001
1000
0010
,
0100
0000
0010
0000
1000
0001
0001
0010
,
0100
0000
0010
0001
0000
1001
0000
1100
,
0000
0000
0000
0000
0100
0000
0000
1000
0100
0000
0010
0000
0001
0000
0001
0000
,
1000
0100
0001
1000
0010
0001
1000
0010
,
0000
0010
0100
0002
0000
1003
1000
0001
,
0010
1000
0001
0100
0010
0001
1000
0001
,
0000
0000
1000
0000
0001
0000
2000
0000
0000
0000
3000
0001
1000
0000
0001
0000
,
0100
0000
0010
0000
0100
0010
0010
0100
,
0100
0001
0001
1000
0000
0000
0001
1000
,
0000
0001
0000
0000
0000
1000
0001
1000
,
0000
0001
1000
0001
0000
0100
0001
0010
,
0100
0010
0001
0100
0010
0000
0100
0001
,
0000
0001
0010
0000
0001
0010
1000
0001
,
0100
0010
0001
0200
0000
0310
0010
0010
,
0000
0100
0000
0010
0000
0100
0100
0100
,
0100
0001
1000
0000
0001
1000
0010
0100
,
0010
0010
0010
0010
0000
0100
0001
0100
,
0000
0000
0010
0100
0010
1000
0010
0001
,
1000
0000
0100
0000
0001
0000
0000
0000
0001
0000
0000
1000
0001
0000
0000
0000
,
1000
0000
0010
0100
0001
0010
0100
1000
,
0010
0100
0000
0100
0000
0010
1000
0010
,
0001
0010
1000
0100
0001
0100
0010
1000
,
0010
1000
0000
0001
0000
0100
0010
0100
,
0000
1000
0001
1000
0010
0100
0001
1000
,
0000
0000
0001
0000
0000
0000
0100
0000
0010
0000
0000
0100
0000
0000
0010
0000
,
0000
0100
0001
0000
0001
0000
1000
0001
,
1000
0000
0000
0000
0001
0000
1000
0000
0001
0000
0000
0000
0100
0000
0000
0010
,
0100
0000
0010
0000
,
0100
0010
1000
0100
0010
0001
0000
0001
,
0100
0010
1000
0100
0000
1000
0000
0100
,
0000
0000
0001
0000
0100
0000
0000
0010
0100
0000
0000
0000
1000
0000
0100
0000
,
0010
0000
0010
0000
0000
0000
0100
0000
0000
0000
0000
0010
0100
0000
0000
0000
,
1001
0000
1000
0000
0001
0000
1000
0010
,
0110
0000
0000
0001
0000
0100
0001
0100
,
0001
0000
1000
1000
1000
0001
0001
0001
,
0000
0000
0000
0000
0100
0000
0000
0010
0100
0000
0000
0001
1000
0000
0000
0000
,
1000
0001
1000
0100
1000
0010
0000
0100
,
0001
0010
1000
0010
0001
0100
0000
0010
,
0001
0100
0001
0010
0000
0000
0100
0100
,
0000
0010
0000
0100
0010
0100
0010
0100
,
0000
0110
0000
0010
0100
0010
0100
0010
,
0000
1001
0000
0000
1000
0001
0010
0001
,
0010
0000
0000
0001
1000
0100
1000
0100
,
0000
1000
0100
0010
0000
0100
0010
0001
,
0000
0000
0000
0000
0200
0000
0000
0010
,
0310
0000
0000
0010
0010
0000
0100
0100
,
0000
0010
0000
0001
1000
0100
0000
0000
,
0001
0000
0001
1000
0000
0100
0000
0010
,
0000
0001
1000
0010
1000
0000
1001
0100
,
0010
0000
0010
0100
1000
0000
0001
0100
,
0000
0001
0100
0001
0000
0100
0000
0100
,
0010
0000
0100
0000
0010
0000
0010
0000
0000
0000
0000
0100
0010
0000
0100
0000
,
0010
1000
0001
1000
0001
0000
1000
0001
,
0011
0100
1000
0001
0110
0000
0010
0100
,
0001
1000
0001
0100
0110
0000
0010
0000
,
1000
0000
0001
0000
0000
0000
0100
0000
0000
0000
0000
0010
0100
0000
0010
0000
,
0100
0001
1000
0010
1001
0000
0001
1000
,
0110
0010
0100
0001
1001
0000
1000
0100
,
0010
0100
1000
0001
0101
0000
0010
0000
,
0100
0000
0010
0000
0000
0000
0100
0000
0000
0000
0000
0010
0100
0000
0001
1000
,
0001
0000
1000
0001
1000
0000
0001
0100
0001
0000
0000
0000
0000
0000
0000
0000
;
