#VERSION:0.83;
#TITLE:Namidaame Monogatari;
#SUBTITLE:;
#ARTIST:Tatsuya Furukawa and Hideo Suwa;
#TITLETRANSLIT:;
#SUBTITLETRANSLIT:;
#ARTISTTRANSLIT:;
#GENRE:;
#ORIGIN:;
#CREDIT:;
#BANNER:12_BIWA-GATARI.png;
#BACKGROUND:;
#PREVIEWVID:;
#JACKET:;
#CDIMAGE:;
#DISCIMAGE:;
#LYRICSPATH:;
#CDTITLE:;
#MUSIC:Tatsuya Furukawa and Hideo Suwa - Namidaame Monogatari.ogg;
#OFFSET:-0.473000;
#SAMPLESTART:62.201000;
#SAMPLELENGTH:20.000000;
#SELECTABLE:YES;
#BPMS:0.000=156.000;
#STOPS:;
#DELAYS:;
#WARPS:;
#TIMESIGNATURES:0.000=4=4;
#TICKCOUNTS:0.000=4;
#COMBOS:0.000=1;
#SPEEDS:0.000=1.000=0.000=0;
#SCROLLS:0.000=1.000;
#FAKES:;
#LABELS:0.000=Song Start;
#BGCHANGES:;
#KEYSOUNDS:;
#ATTACKS:
;

//---------------dance-single - ----------------
#NOTEDATA:;
#CHARTNAME:;
#STEPSTYPE:dance-single;
#DESCRIPTION:;
#CHARTSTYLE:;
#DIFFICULTY:Beginner;
#METER:4;
#RADARVALUES:0.151925,0.214094,0.047976,0.047976,0.000000,133.000000,127.000000,6.000000,6.000000,0.000000,0.000000,0.000000,0.000000,0.000000,0.151925,0.214094,0.047976,0.047976,0.000000,133.000000,127.000000,6.000000,6.000000,0.000000,0.000000,0.000000,0.000000,0.000000;
#CREDIT:;
#NOTES:
0000
0000
0000
0000
,
0000
0000
0000
0000
,
0000
0000
0000
0000
,
0000
0000
0000
0000
,
0000
0000
0200
0000
,
0300
0000
0020
0000
,
0030
0000
0100
0100
,
0100
0000
0001
0001
,
0001
0000
1000
0000
,
0001
0000
0010
0000
,
0001
0000
1000
1000
,
1000
0000
0001
0001
,
0001
0000
0100
0000
,
0010
0000
0100
0000
,
0010
0000
0100
0000
,
0001
0000
0100
0000
,
0010
0000
0000
0000
,
0100
0000
0000
0000
,
0010
0000
0000
0000
,
0100
0000
0000
0000
,
0001
0000
1000
0000
,
0001
0000
0000
0000
,
1000
0000
0001
0000
,
0100
0000
0100
0000
,
0100
0100
0100
0000
,
0010
0000
1000
0000
,
0001
0000
0100
0000
,
0010
0000
0010
0000
,
0100
0000
0000
0000
,
0110
0000
0000
0000
,
1001
0000
0001
0000
,
0000
0000
1000
0001
,
1000
0000
1001
0000
,
0010
0000
0000
0000
,
0100
0000
0010
0000
,
1000
0000
0000
0000
,
0001
0000
1000
0000
,
0000
0000
0001
0000
,
0000
0000
0100
0000
,
0100
0000
0000
0000
,
0000
0010
0010
0000
,
0100
0001
0100
0000
,
0001
0000
1000
0000
,
0010
0000
1000
0100
,
1000
0000
0001
0000
,
0000
0000
0001
0000
,
0000
0000
1000
0000
,
0010
0000
0100
0000
,
0000
0000
0001
0000
,
0000
0000
1000
0000
,
0000
0000
0001
0000
,
0000
0000
0100
0000
,
0000
0000
0010
0010
,
0010
0000
0200
0000
,
0300
0000
0100
0000
,
0010
0000
1001
0000
,
0000
0000
1001
0000
,
0010
0000
0100
0000
,
0000
0000
0001
1000
,
0001
0000
1000
0000
,
0001
0000
2000
0000
,
3000
0000
0001
0000
,
0000
0000
0110
0000
,
0000
0000
0100
0000
,
0001
0000
0200
0000
,
0300
0000
0001
0000
,
1000
0000
0010
0000
,
0010
0010
0010
0000
,
0100
0100
0100
0000
,
0001
0000
0000
1000
,
0000
0000
0000
0001
,
0000
0001
0000
1000
,
0000
1000
0000
0001
,
0000
0100
0000
0100
,
0000
0001
1000
0000
,
0001
0000
0001
0000
,
1000
2000
3000
0000
;

//---------------dance-single - ----------------
#NOTEDATA:;
#CHARTNAME:;
#STEPSTYPE:dance-single;
#DESCRIPTION:;
#CHARTSTYLE:;
#DIFFICULTY:Easy;
#METER:7;
#RADARVALUES:0.318699,0.366418,0.167917,0.063968,0.000000,279.000000,258.000000,21.000000,8.000000,0.000000,0.000000,0.000000,0.000000,0.000000,0.318699,0.366418,0.167917,0.063968,0.000000,279.000000,258.000000,21.000000,8.000000,0.000000,0.000000,0.000000,0.000000,0.000000;
#CREDIT:;
#NOTES:
0000
0000
0000
0000
,
0000
0000
0000
0000
,
0000
0000
0000
0000
,
0000
0000
0000
0000
,
0000
0000
0200
0000
,
0000
0000
0301
0000
,
0000
0000
0000
0100
0000
0000
0010
0000
,
0100
0000
0010
0100
0000
0000
0010
0000
,
0100
0000
0001
0100
0000
0000
0001
0000
,
1000
0001
0100
0110
,
0101
0000
0000
0001
0000
0000
1000
0000
,
0010
0000
1000
0010
0000
0000
0100
0000
,
0001
0000
0100
0001
0000
0000
0100
0000
,
0101
0100
0110
0000
,
0010
0010
0010
0110
,
0100
1010
0100
0000
,
0001
0000
0001
1000
0000
0000
0001
0000
,
0010
0100
1000
0100
,
0010
0000
0001
1000
0000
0000
0001
0000
,
1000
0010
0100
0000
,
0010
0000
0000
0110
0000
0000
0100
0010
,
0100
0000
0000
0010
0000
0000
0100
0010
,
0100
0000
0000
0110
0000
0000
0000
0000
,
0010
0000
0000
0100
0000
0010
0000
0200
,
0000
0000
0300
0001
0000
1000
0001
0000
,
1000
0001
0000
0100
0000
0010
0000
0000
,
0100
0000
0000
0010
0000
0100
0001
0000
,
0001
1000
0000
0010
0000
0100
0000
0000
,
0001
0000
0000
0011
0000
0000
0001
0010
,
0001
0000
0000
1100
0000
0000
0100
1000
,
0100
0000
0000
0001
0000
0000
0000
0000
,
1000
0000
0000
0010
0000
0010
0000
0010
,
0000
0000
0000
0000
0100
0010
0100
0000
,
0010
0000
0100
0010
0000
0010
0100
0000
,
0000
0010
0100
0010
0000
0100
0100
0000
,
0001
0001
0000
1000
0000
1000
0001
0000
,
0000
0000
0000
0100
0000
0010
0100
0000
,
0110
0000
0000
0010
0000
0100
0010
0000
,
0110
0000
0000
1001
0000
1000
0001
0000
,
1000
0001
0000
1000
0000
0001
0000
1000
,
0000
0001
0000
0100
0000
0001
0001
0000
,
1000
0000
0001
0100
0000
0001
0000
0000
,
0001
0000
0000
0100
0000
0100
0001
0000
,
0100
0000
0001
0100
0000
0001
0000
0000
,
0100
0000
0000
0101
0000
0000
0001
0100
,
0001
0000
0000
1000
0000
0010
0000
1000
,
0000
0100
0000
0010
0000
0001
0001
0000
,
0000
0000
1000
0001
0000
0100
0010
0100
,
0000
0010
0100
0010
0000
0100
0010
0000
,
0100
0000
0100
0100
0000
0010
0000
0000
,
1000
0000
0000
0001
0000
1000
0001
0000
,
0100
0000
0100
0001
0000
0100
0000
0000
,
0010
0000
0000
0100
0000
0010
0100
0000
,
0110
0000
0000
0110
0000
1001
0000
0110
,
0000
0000
0000
0100
0000
0000
0000
0000
,
0010
0100
0010
0000
,
0100
0001
0100
0000
,
0001
1000
1001
0000
,
0001
0000
0110
0010
,
0010
0000
0100
0100
,
0100
0000
0000
0000
0001
0001
0000
0001
,
0000
0001
0000
0002
0000
0000
0003
0000
,
0000
0000
0000
1000
0000
0001
0100
0000
,
0001
0000
0100
0000
0001
0000
0100
0001
,
0100
0000
0000
0101
0000
0000
0001
0000
,
0001
1000
1000
0100
,
0100
0000
1000
0100
0000
0000
0010
0001
,
0000
0000
1000
0100
0000
0000
0010
0001
,
0000
0000
1000
0001
0000
0000
1000
0001
,
0000
0000
0100
0010
0000
0010
0010
0000
,
0000
0000
0000
0200
0000
0000
0000
0000
,
0300
0000
0000
0020
0000
0000
0000
0000
,
0030
0000
0000
0200
0000
0000
0000
0000
,
0300
0000
0002
0003
,
2000
3000
0001
1000
,
0001
0100
0001
0000
1000
0100
1000
0000
,
0001
0100
0001
0100
0000
0000
0000
0000
;

//---------------dance-single - ----------------
#NOTEDATA:;
#CHARTNAME:;
#STEPSTYPE:dance-single;
#DESCRIPTION:;
#CHARTSTYLE:;
#DIFFICULTY:Medium;
#METER:10;
#RADARVALUES:0.452347,0.488558,0.079960,0.055972,0.000000,396.000000,386.000000,10.000000,7.000000,0.000000,0.000000,0.000000,0.000000,0.000000,0.452347,0.488558,0.079960,0.055972,0.000000,396.000000,386.000000,10.000000,7.000000,0.000000,0.000000,0.000000,0.000000,0.000000;
#CREDIT:;
#NOTES:
0000
0000
0000
0000
,
0000
0000
0000
0000
,
0000
0000
0000
0000
0001
0000
0000
1000
,
0000
0000
0001
0000
0000
1000
0000
0000
,
0010
0100
0010
0000
,
0000
0000
0000
0000
0200
0000
0001
0300
,
0001
0000
0001
2000
0000
3000
0001
0100
,
0001
0100
0001
0200
0000
0000
0010
0300
,
0010
0000
0100
0010
0000
0000
1000
0100
,
1000
0000
0001
0010
0001
0000
0100
0010
,
0010
0000
0100
0200
0000
0301
1000
0000
,
0001
1000
0001
2000
0000
3001
0100
0001
,
0100
0000
0010
0100
0000
0000
0001
0000
,
1000
0000
0010
0100
0010
0000
0100
0000
,
0001
0001
0100
0001
0100
0000
0010
0000
,
0100
0000
0010
0100
0001
0000
1000
0000
,
0001
0001
0001
0001
0000
1000
0010
0000
,
0100
0010
0000
0010
0000
0100
0000
0000
,
0001
0000
0000
1000
0000
0001
0100
0000
,
0010
0010
0000
1000
0000
0001
0000
0000
,
0100
0000
0000
0110
0000
0000
0010
0100
,
0010
0000
0000
0100
0000
0010
0100
0010
,
0100
0000
0010
0010
0010
0000
0000
0010
,
0100
0001
0000
0001
0000
1000
0001
0100
,
0000
0010
0010
0010
0000
1000
0001
0000
,
1000
0010
0000
0100
0000
0010
0000
0100
,
0001
0100
0001
0100
0000
0001
0100
0000
,
1000
0100
0000
0001
0000
0100
0000
0010
,
0100
1000
0100
0010
0000
0100
0010
0100
,
0001
0000
0000
0100
0000
0001
0010
0001
,
1000
0000
0001
0000
0200
0000
0000
0310
,
0010
0010
0000
0100
0100
0100
0000
0000
,
1000
0001
1000
0001
1000
0100
1000
0000
,
0001
0100
0000
0100
0000
0001
0100
0000
,
0000
0010
1000
0100
0000
0100
1000
0000
,
0010
0010
0000
0100
0000
0100
0100
0000
,
0000
0001
1000
0002
0000
1003
1000
0000
,
0001
0000
0000
0100
0000
0010
0100
0000
,
0010
0100
0010
0100
0000
0001
0010
0000
,
0001
1000
0000
0110
0000
0011
0000
1100
,
0000
0000
0000
0001
0000
1000
0001
1000
,
0001
0000
0100
0010
0000
0100
0010
0000
,
1000
0000
0001
0100
0000
0001
0010
0001
,
0010
0000
0001
1000
0000
0001
0000
0000
,
0100
0000
0000
0101
0000
0100
0001
0100
,
0001
0000
0000
0100
0000
0010
0000
0100
,
0000
0010
0000
0110
0000
0100
0001
0000
,
0000
0000
0001
1000
0000
0001
0100
0001
,
0100
0001
0000
0001
0000
0001
1000
0001
,
1000
0000
0001
0100
0000
0010
0000
0000
,
0100
0000
0000
0110
0000
0010
0100
0010
,
0100
0000
0001
0010
0000
0110
0000
0000
,
1000
0000
0000
0110
0000
0001
0010
0100
,
1000
0000
0000
0001
1000
0001
0000
1000
,
0100
1000
0000
0000
0001
0100
0001
0100
,
0001
0100
0010
0100
0010
1000
0100
1000
,
0100
0000
0000
0000
0001
0010
0001
0010
,
0001
0100
0010
0100
0010
0100
0001
0010
,
0001
0000
0000
0000
0001
1000
0001
1000
,
0000
0001
1000
0001
1000
0000
0000
0001
,
0100
0001
0000
0000
1000
0001
0000
1001
,
0000
0100
0010
0001
0000
0100
0010
0100
,
0000
0000
0010
0010
0000
0000
0100
0010
,
0100
0000
0010
1000
0100
0010
0001
0100
,
0010
0000
0100
0001
0000
0000
0100
0010
,
0100
0001
0100
0010
0100
0001
0010
0001
,
1000
0000
1000
0001
0000
0001
1000
0001
,
0000
1000
0010
1000
0000
0001
0010
0001
,
0010
0001
0010
0001
0000
0010
0001
0010
,
0001
0100
0001
0100
0000
0000
0001
0000
,
0000
0100
0100
0100
0000
0000
0001
0000
,
0001
0000
1000
0100
1000
0000
0001
0010
,
0010
0000
0001
0001
0001
0000
1000
0100
,
1000
0100
1000
0100
0010
0000
0010
0000
,
0010
0001
0010
0000
0001
0010
0001
0010
,
0001
0010
0100
0010
0100
0010
0100
1000
,
0100
0000
0100
0100
0000
0000
0000
0000
;

//---------------dance-single - ----------------
#NOTEDATA:;
#CHARTNAME:;
#STEPSTYPE:dance-single;
#DESCRIPTION:;
#CHARTSTYLE:;
#DIFFICULTY:Hard;
#METER:13;
#RADARVALUES:0.584853,0.644380,0.215893,0.175913,0.163919,512.000000,485.000000,27.000000,22.000000,0.000000,0.000000,0.000000,0.000000,0.000000,0.584853,0.644380,0.215893,0.175913,0.163919,512.000000,485.000000,27.000000,22.000000,0.000000,0.000000,0.000000,0.000000,0.000000;
#CREDIT:;
#NOTES:
// measure 0
0000
0000
0000
0000
,  // measure 1
0000
0000
0000
0000
,  // measure 2
0000
0000
0000
0000
0100
0000
0010
0100
,  // measure 3
0010
0000
0100
0010
0000
0010
0100
0000
,  // measure 4
0001
0000
1000
0001
0100
0000
0001
0000
2001
0000
0000
0000
0000
0000
0000
0000
,  // measure 5
0000
0000
0000
0000
3001
0000
0000
0000
0010
0001
0010
0001
0010
0000
0000
0000
,  // measure 6
0001
0000
1000
0100
0010
0000
0002
0000
0000
0000
0103
0000
0100
0000
0010
0000
,  // measure 7
0100
0010
0100
0002
0000
1000
1000
1003
,  // measure 8
0100
0010
0001
0101
0000
0001
1000
1001
,  // measure 9
0110
0000
0110
1001
0000
1000
0100
0010
,  // measure 10
0100
1000
1001
1002
0000
0100
0100
0103
,  // measure 11
0010
0010
0100
0002
0000
1003
0100
0110
,  // measure 12
1001
0000
0010
0110
0100
0000
0100
0001
,  // measure 13
0100
0000
0010
0000
0100
0000
0100
0010
1000
0000
0001
0000
1000
0000
0001
0000
,  // measure 14
1000
0000
1100
0000
0000
0000
0011
0000
0001
0000
0100
0000
0010
0000
1000
0100
,  // measure 15
0010
0000
0100
0000
0000
0000
1000
0001
1000
0000
0001
0000
0000
0000
0100
0010
,  // measure 16
0100
0010
0010
0110
0000
0010
0100
0000
,  // measure 17
0010
0010
0000
1000
0000
0001
0000
1000
,  // measure 18
0100
1000
0000
0001
0000
0010
0001
0000
,  // measure 19
0100
0010
0000
0001
0000
0010
0000
0100
,  // measure 20
0010
0100
0001
0200
0300
0000
0010
0010
,  // measure 21
0100
0000
0100
0020
0030
0100
0001
0010
,  // measure 22
1000
0010
0000
1000
0000
1001
0000
0001
,  // measure 23
1000
0001
0000
0100
0010
0001
0010
0100
,  // measure 24
0000
0010
0010
0010
0000
0100
0001
0000
,  // measure 25
0100
0010
0000
0100
0000
0002
0000
1003
,  // measure 26
0001
1000
0010
1000
0000
0100
1000
0000
,  // measure 27
0001
1000
0000
0001
0000
0020
0000
0130
,  // measure 28
1000
0100
1000
0001
0000
0001
0001
1000
,  // measure 29
1000
0000
0000
0110
0000
0010
0100
0010
,  // measure 30
1000
0001
0000
0001
0000
1000
0000
0001
,  // measure 31
1000
0001
0000
1000
0000
1100
0000
0010
,  // measure 32
0001
0010
0001
0000
0010
0100
1000
0010
,  // measure 33
0100
1000
0000
1000
0000
0100
0010
0000
,  // measure 34
1000
0001
0100
0100
0000
0010
0010
0000
,  // measure 35
1000
0001
0000
0100
0001
0100
0001
0000
,  // measure 36
0000
1000
0010
1010
0000
0100
0001
0000
,  // measure 37
0001
0000
0100
0010
0000
0010
0100
0000
,  // measure 38
0010
0100
0010
0100
0010
0000
0100
0000
0000
0000
0001
0000
0001
0000
0000
0000
,  // measure 39
1000
1000
0000
0020
0030
0200
0300
0002
,  // measure 40
0003
1000
1000
1001
0000
0010
0100
0001
,  // measure 41
1000
0000
0001
0100
0000
0100
0001
0000
,  // measure 42
0001
0100
0001
0000
0100
0000
0001
0000
0000
0000
0001
0000
1000
0000
0100
0000
,  // measure 43
0010
0000
0010
0100
0000
0001
0000
0100
,  // measure 44
1000
0100
0010
0001
0000
0001
1000
0001
,  // measure 45
0100
0000
0000
0010
0000
0100
0010
0100
,  // measure 46
0000
0010
0100
0010
0000
0100
0100
0000
,  // measure 47
0001
0000
0000
0000
1000
0000
0010
0000
0000
0000
0010
0000
0100
0000
0010
0100
,  // measure 48
0010
0000
0100
0000
0100
0000
0001
0000
0000
0100
0001
0000
0100
0000
0001
0000
,  // measure 49
0010
0010
0100
0100
0000
1000
0000
0001
,  // measure 50
0100
0001
0000
0101
0000
0010
0100
0010
,  // measure 51
1000
0000
0001
0100
0000
0100
0001
0000
,  // measure 52
0100
0010
0100
0000
0010
0000
0100
0000
0000
0000
0100
0000
0010
0000
0100
0000
,  // measure 53
0001
1000
0001
1001
0000
1100
0100
0010
,  // measure 54
0001
2000
3000
0001
0100
0001
0010
0100
,  // measure 55
0000
1000
0001
0000
0100
0000
0010
0100
0010
0000
0100
0000
0000
0000
0001
0100
,  // measure 56
0001
0000
0000
0000
0001
0100
0001
0000
0100
0000
0100
0000
0001
0000
1000
0000
,  // measure 57
0100
0000
0010
0000
0100
0000
1000
0100
1000
0000
0000
0000
0001
0000
0100
0010
,  // measure 58
0100
0000
0000
0000
0010
0100
0010
0100
0010
0000
0000
0000
0100
0000
0100
0000
,  // measure 59
0001
0000
0001
0000
1000
0000
0001
0100
0001
0000
0000
0000
1000
0000
0100
0010
,  // measure 60
0100
0000
0010
0000
0011
0011
0000
0001
,  // measure 61
0000
0000
0001
0000
0000
0000
1000
0000
0000
0000
0100
1000
0100
1000
0100
0000
,  // measure 62
0000
0000
1000
0100
0010
0000
0002
0000
0000
0000
0103
0000
0010
0000
0100
0000
,  // measure 63
0001
0000
1000
0100
0010
0000
0001
0000
0200
0000
0000
0000
0310
0000
0010
0000
,  // measure 64
0100
0000
0001
0000
0100
0000
0002
0000
0000
0000
0103
0010
0100
0000
0010
0000
,  // measure 65
0100
0000
0001
0000
0010
0000
0100
0000
1000
0000
0001
0000
0100
0000
0001
0100
,  // measure 66
0001
0100
0010
0110
0000
0100
0010
0200
,  // measure 67
0300
0000
0001
0010
0001
0010
0001
0000
0000
0000
1000
0000
0100
0000
0020
0000
,  // measure 68
0030
0000
0001
0100
0001
0100
0001
0000
0000
0000
0100
0000
0001
0000
0100
0001
,  // measure 69
0100
0001
0001
2000
3000
0001
0002
0003
,  // measure 70
0000
0100
0001
0102
0000
0000
0100
0003
,  // measure 71
0010
1000
0010
0001
,  // measure 72
1000
0000
0000
0000
0001
1000
0001
0000
0100
0000
0000
0000
0010
0000
0100
0001
,  // measure 73
0010
0000
0100
0000
0000
0000
1000
0001
0100
0000
0001
0000
1000
0000
0001
0100
,  // measure 74
0001
0000
0100
0000
0001
0000
0100
0000
0101
0000
0001
0000
1000
0000
0001
0100
,  // measure 75
0001
0000
0100
0000
0000
0000
0010
1000
0010
0000
0100
0000
0000
0000
0001
0000
,  // measure 76
0100
0100
0100
0020
0000
0000
0030
0000
;
