#VERSION:0.83;
#TITLE:NIGHT FEVER;
#SUBTITLE:;
#ARTIST:Reiji Sakurai;
#TITLETRANSLIT:;
#SUBTITLETRANSLIT:;
#ARTISTTRANSLIT:;
#GENRE:;
#ORIGIN:;
#CREDIT:from pop n music 14 FEVER;
#BANNER:Reiji Sakurai - NIGHT FEVER.png;
#BACKGROUND:;
#PREVIEWVID:;
#JACKET:;
#CDIMAGE:;
#DISCIMAGE:;
#LYRICSPATH:;
#CDTITLE:;
#MUSIC:Reiji Sakurai - NIGHT FEVER.mp3;
#OFFSET:-0.562000;
#SAMPLESTART:36.831001;
#SAMPLELENGTH:15.700000;
#SELECTABLE:YES;
#BPMS:0.000=145.000;
#STOPS:;
#DELAYS:;
#WARPS:;
#TIMESIGNATURES:0.000=4=4;
#TICKCOUNTS:0.000=4;
#COMBOS:0.000=1;
#SPEEDS:0.000=1.000=0.000=0;
#SCROLLS:0.000=1.000;
#FAKES:;
#LABELS:0.000=Song Start;
#BGCHANGES:;
#KEYSOUNDS:;
#ATTACKS:
;

//---------------dance-single - ----------------
#NOTEDATA:;
#CHARTNAME:;
#STEPSTYPE:dance-single;
#DESCRIPTION:;
#CHARTSTYLE:;
#DIFFICULTY:Beginner;
#METER:1;
#RADARVALUES:0.077215,0.115307,0.024022,0.024022,0.000000,45.000000,43.000000,2.000000,2.000000,0.000000,0.000000,0.000000,0.000000,0.000000,0.077215,0.115307,0.024022,0.024022,0.000000,45.000000,43.000000,2.000000,2.000000,0.000000,0.000000,0.000000,0.000000,0.000000;
#CREDIT:;
#NOTES:
0000
0000
0000
0000
,
0000
0000
0000
0000
,
1000
0000
0000
0000
,
0001
0000
0000
0000
,
0010
0000
0000
0000
,
0100
0000
0000
0000
,
0010
0000
0000
0000
,
0001
0000
0000
0000
,
1000
0000
0000
0000
,
0001
0000
0000
0000
,
1000
0000
0000
0000
,
0010
0000
0000
0000
,
1000
0000
0000
0000
0000
0000
0000
0100
,
0000
0000
0000
0000
,
0100
0000
0000
0000
,
0001
0000
0000
0000
,
1001
0000
0000
0000
,
1000
0000
0000
0000
,
0001
0000
0000
0000
,
1000
0000
0000
0000
,
0001
0000
0000
0000
,
0000
0000
0000
0000
,
1001
0000
0000
0000
,
1000
0000
0000
0000
,
0002
0000
0000
0003
,
1000
0000
0000
0000
,
0001
0000
0000
0000
,
1000
0000
0000
0000
,
2000
0000
0000
3000
,
0001
0000
0000
0000
,
0100
0000
0000
0000
,
0000
0000
0000
0000
,
0010
0000
0000
0000
,
1000
0000
0000
0000
,
0010
0000
0000
0000
,
0000
0000
0000
0000
,
0100
0000
0000
0000
,
0001
0000
0000
0000
,
1000
0000
0000
0000
,
1000
0000
0000
0000
,
0100
0000
0000
0000
,
0100
0000
0000
0000
,
1000
0000
0000
0000
,
1000
0000
0000
0000
,
0001
0000
0000
0000
,
1000
0000
0000
0000
,
0010
0000
0000
0000
,
0000
0000
0000
0000
,
0010
0000
0000
0000
;

//---------------dance-single - ----------------
#NOTEDATA:;
#CHARTNAME:;
#STEPSTYPE:dance-single;
#DESCRIPTION:;
#CHARTSTYLE:;
#DIFFICULTY:Easy;
#METER:5;
#RADARVALUES:0.171588,0.201787,0.024022,0.084078,0.000000,100.000000,98.000000,2.000000,7.000000,0.000000,0.000000,0.000000,0.000000,0.000000,0.171588,0.201787,0.024022,0.084078,0.000000,100.000000,98.000000,2.000000,7.000000,0.000000,0.000000,0.000000,0.000000,0.000000;
#CREDIT:;
#NOTES:
// measure 0
0000
0000
0000
0000
,  // measure 1
0001
0000
0100
0000
,  // measure 2
1000
0000
0100
0000
,  // measure 3
0001
0000
0010
0000
,  // measure 4
1000
0000
0010
0000
,  // measure 5
0001
0000
1000
0000
,  // measure 6
0010
0000
0001
0000
,  // measure 7
1000
0000
0100
0000
,  // measure 8
0001
0000
1000
0000
,  // measure 9
0100
0000
0001
0000
,  // measure 10
1000
0000
0010
0000
,  // measure 11
0001
0000
0100
0000
,  // measure 12
0100
0000
0000
0100
0000
0000
0000
0100
,  // measure 13
0000
0000
0000
0100
0000
0000
0000
0000
,  // measure 14
0010
0000
0000
0010
0000
0000
0000
0000
,  // measure 15
0010
0000
0000
0010
0000
0000
0000
0000
,  // measure 16
1001
0000
0000
1000
,  // measure 17
1000
0000
0000
0001
,  // measure 18
0001
0000
0100
0000
,  // measure 19
1000
0000
0010
0000
,  // measure 20
0100
0000
0001
0000
,  // measure 21
2000
3000
0001
0000
,  // measure 22
1001
0000
0000
0000
0000
0001
0000
0000
,  // measure 23
1000
0000
0000
0001
0000
0000
0000
0000
,  // measure 24
1000
0000
0100
1000
,  // measure 25
0100
0000
0010
0000
,  // measure 26
0001
0000
0000
0010
0000
0000
0000
0000
,  // measure 27
0001
0000
0000
0100
0000
0000
0000
0000
,  // measure 28
0002
0000
0003
0000
,  // measure 29
2000
0000
3000
0000
,  // measure 30
0002
0000
0000
0000
0003
0000
0000
0100
,  // measure 31
0000
0000
0000
0020
0000
0000
0000
0000
,  // measure 32
1030
0000
0001
0000
,  // measure 33
1000
0000
0010
0000
,  // measure 34
0200
0000
0000
0000
0300
0000
0000
0010
,  // measure 35
0000
0000
0000
0200
0000
0000
0000
0000
,  // measure 36
0310
0000
0100
0000
,  // measure 37
0001
0000
1000
0001
,  // measure 38
1000
0000
0001
0000
,  // measure 39
1000
0000
0100
0010
,  // measure 40
0100
0000
0010
0000
,  // measure 41
0001
0000
0010
0100
,  // measure 42
1000
0000
0100
1000
,  // measure 43
1000
0000
0001
0010
,  // measure 44
0001
0000
0010
0000
,  // measure 45
0100
0100
0100
0000
,  // measure 46
0010
0000
1000
0000
,  // measure 47
0001
0000
0100
0000
,  // measure 48
0010
0000
0000
0000
;

//---------------dance-single - ----------------
#NOTEDATA:;
#CHARTNAME:;
#STEPSTYPE:dance-single;
#DESCRIPTION:;
#CHARTSTYLE:;
#DIFFICULTY:Medium;
#METER:11;
#RADARVALUES:0.459855,0.461228,0.312290,0.324301,0.246229,268.000000,242.000000,26.000000,27.000000,0.000000,0.000000,0.000000,0.000000,0.000000,0.459855,0.461228,0.312290,0.324301,0.246229,268.000000,242.000000,26.000000,27.000000,0.000000,0.000000,0.000000,0.000000,0.000000;
#CREDIT:;
#NOTES:
0000
0000
0000
0000
,
0001
0000
0000
0100
0000
0000
0000
0000
0100
0000
0000
0001
0000
0000
0000
0000
,
1000
0000
0000
0100
0000
0000
0000
0000
1000
0000
0000
0010
0000
0000
0000
0000
,
0100
0000
0000
0001
0000
0000
0000
0000
0000
0000
0100
0000
0000
0010
0000
0000
,
2020
0000
0000
0000
3030
0000
0000
0000
0000
0000
0100
0000
0000
0001
0000
0000
,
0101
0000
0000
0010
0000
0000
1000
0000
1010
0000
0000
0100
0000
0000
0010
0000
,
0200
0000
0000
0000
0000
0000
0302
0000
0003
0000
0000
1000
0000
0000
0010
0000
,
1000
0000
0000
0100
0000
0000
1000
0000
0100
0000
0010
0000
0000
0001
0000
0000
,
0010
0000
0000
0100
0000
0000
0000
0000
1000
0000
0000
0001
0000
0000
0010
0000
,
0100
0000
0000
0100
0000
0000
0001
0000
0101
0000
0000
0010
0000
0000
1000
0000
,
0020
0000
0000
0000
0030
0000
0000
0000
0100
0000
0000
0010
0000
0000
0100
0000
,
0001
0000
0000
1000
0000
0000
0010
0000
0100
0000
0001
0000
1000
0000
0001
0000
,
0200
0000
0301
0200
0000
0300
0010
2000
,
0000
3000
1000
0002
0000
0003
0100
0100
,
0020
0000
0030
2000
0000
3000
0001
0000
,
0220
0000
0330
2200
0000
3300
0001
0100
,
0001
0000
0100
0110
0000
0010
0000
1001
,
0000
0100
0010
0200
0300
0001
0000
1000
,
0001
0000
0100
0000
0000
0010
0000
0000
0100
0000
0000
0100
0000
0000
0001
0000
,
1000
0000
0000
0001
0000
0000
0020
0000
0000
0000
0000
0000
0000
0000
0030
0000
,
0000
0000
0100
0000
0000
0000
0000
0000
1000
0000
0000
0010
0000
0000
1000
0000
,
0200
0000
0000
0000
1300
0000
0100
0010
,
1001
0000
0000
1000
0000
0000
0001
0000
0000
0000
0001
0000
0000
0000
0010
0000
,
1000
0000
0010
0001
0000
0010
0000
0000
,
1000
0000
0000
0110
0000
0000
0201
0000
0000
0000
0310
0000
1000
0000
0010
0000
,
0200
0000
0000
0301
0000
0000
0010
0000
0001
0000
0020
0000
0000
0000
0030
0000
,
0001
0000
0000
0100
0000
0000
0010
0000
0000
0000
1000
0000
1001
0000
0000
0000
,
0001
0000
0000
1000
0000
0000
0010
0000
0000
0000
0100
0000
0110
0000
0000
0000
,
0100
0000
0000
0001
0000
0000
1000
0000
0000
0000
0001
0000
0010
0000
0100
0000
,
0010
0001
0010
0100
0000
0022
0000
0033
,
0001
0000
0100
0010
0000
0110
0000
0101
,
0000
1000
0010
1000
0100
1000
0010
0000
,
2000
0000
3001
0001
0010
0100
0000
1000
,
0010
0100
0001
0001
0010
0100
0010
0001
,
0200
0000
0300
0011
0000
0110
0000
1000
,
0010
0100
0000
0001
0010
0100
0010
0001
,
0020
0000
0031
0100
0000
0100
0001
0000
,
0101
0000
0000
1010
0000
0000
0101
0000
0000
0000
2000
0000
0000
0000
3000
0000
,
1001
0000
0010
0000
0100
0010
0100
0010
,
0000
0000
0110
0000
0000
0010
0000
0000
0010
0100
0000
0010
0100
0000
0001
0000
,
0100
0000
0000
0000
0001
0000
0010
0000
0001
0000
0000
1000
0000
0000
1000
0000
,
0000
1000
0000
0100
0000
1000
0000
0000
0010
0000
0100
0000
0010
0000
0100
0000
,
0110
0001
0000
0100
0010
0000
1010
1000
,
0000
0000
0001
0000
0010
0000
0000
0000
0001
0000
0000
0010
0000
0000
0100
0000
,
1000
0010
0100
0001
0010
0000
0001
0000
,
0101
0000
0000
0010
0000
0010
0100
0000
0000
0000
0010
0000
0000
0000
0000
0000
,
0010
0000
0000
1000
0000
0000
0010
0000
0000
0000
1000
0000
0000
0000
0010
0000
,
0010
0000
0000
0100
0000
0000
0001
0000
0000
0000
0001
0000
0010
0000
0100
0000
,
0010
0000
0000
0000
;

//---------------dance-single - ----------------
#NOTEDATA:;
#CHARTNAME:;
#STEPSTYPE:dance-single;
#DESCRIPTION:;
#CHARTSTYLE:;
#DIFFICULTY:Hard;
#METER:14;
#RADARVALUES:0.667477,0.749496,0.168156,0.276256,0.678630,389.000000,375.000000,14.000000,23.000000,0.000000,0.000000,0.000000,0.000000,0.000000,0.667477,0.749496,0.168156,0.276256,0.678630,389.000000,375.000000,14.000000,23.000000,0.000000,0.000000,0.000000,0.000000,0.000000;
#CREDIT:;
#NOTES:
0000
0000
0000
0000
,
0001
0000
0000
0100
0000
0001
0100
0000
0001
0000
0000
0001
0000
1000
0100
0000
,
1000
0000
0000
0110
0000
0000
0010
0000
1000
0000
0000
0010
0000
0100
0010
0100
,
0010
0000
0000
1000
0000
0001
1000
0001
1000
0000
0100
0010
0000
0010
0100
0000
,
0220
0000
0000
0000
0330
0000
0000
0000
0001
0000
0100
0000
0000
0001
0000
0010
,
0100
0000
0000
1000
0000
0010
1000
0010
1000
0000
0000
0100
0000
0000
0010
0000
,
0002
0000
0000
0000
0103
0000
0001
0000
0100
0000
0010
1000
0000
0000
0010
0000
,
0100
0000
0010
0100
0000
0010
0100
0010
0100
0000
0010
0000
0000
0100
0000
0000
,
0010
0000
0000
0100
0000
0001
1000
0001
1000
0000
0000
0001
0000
0000
1000
0000
,
0100
0000
0010
0001
0000
0001
0010
0000
0001
0000
0100
0010
0000
0010
1000
0000
,
0020
0000
0000
0000
0030
0000
0000
0000
0100
0000
0000
0010
0000
0000
1000
0100
,
1000
0000
0000
0001
0000
0010
0001
0010
0001
0000
1000
0000
0001
0000
0100
0000
,
0020
0000
0000
0130
0001
0000
0202
0000
0000
0000
0303
0000
0001
0000
2000
0000
,
0000
0000
3000
0000
0100
0000
0020
0000
0000
0000
0030
0000
0100
1000
0100
0000
,
1000
0100
0100
2000
0000
3001
0010
0100
,
2000
0001
3001
0200
0000
0301
0001
0100
,
0001
0000
0100
0010
0100
0000
0010
0000
0000
0000
0100
0000
0010
0000
2000
0000
,
0000
3100
0010
0002
0003
0100
0000
0010
,
0001
0000
0100
0000
0000
0010
0000
0000
0010
0000
0000
0100
0000
0010
0100
0000
,
0001
0000
1000
0001
0000
1000
0020
0000
0000
0000
0000
0000
0000
0000
0130
0000
,
0000
0000
0001
0000
0000
0000
0010
0000
0001
0000
0000
0010
0000
0000
0100
0000
,
0200
0000
0000
0000
0310
0000
0000
0000
0001
0010
0001
0010
0100
0010
0100
0000
,
1000
0000
0000
0001
0000
0000
0001
0000
1000
0000
0001
0000
0010
0000
0100
0000
,
1000
0100
0010
0001
0000
0010
0000
0001
,
0100
0000
0000
0100
0000
0000
0220
0000
0030
0000
0310
0000
1000
0000
0010
0000
,
0100
0000
0001
0100
0000
0001
0100
0000
0001
0000
0010
0000
0100
0000
0010
0000
,
0001
0000
0000
0100
0000
0000
0010
0000
1000
0000
0001
1000
0001
0000
0100
0000
,
0101
0000
0000
1010
0000
0000
0010
0000
0100
0000
0010
0000
0100
0000
0001
0000
,
0100
0000
0000
0001
0000
0000
2000
0000
3000
0000
0001
0000
1000
0000
0001
0000
,
1100
0000
0000
0011
0000
0000
0110
0000
0000
0000
0011
0000
0000
0000
0001
0100
,
0001
0000
0100
0001
0100
0000
0010
0000
0100
0000
0110
0000
0000
0000
1000
0000
,
0001
0000
1000
0000
0010
0000
0100
0000
0100
0000
0010
0000
0010
0100
0000
0100
,
0010
0000
1000
0000
0001
0000
0200
0000
0300
0000
0020
0000
0030
0000
1000
0001
,
1000
0000
0100
0000
0001
0000
0100
0010
0100
0000
0010
0000
0001
0000
0000
0000
,
0100
0000
0001
0010
0100
0000
0010
0000
0100
0000
1000
0000
0000
0000
1010
0000
,
0010
0000
0100
0000
0001
0000
0011
0000
0000
0000
0001
0000
0010
0001
0000
0010
,
0001
0000
0010
0000
0001
0000
0200
0000
0300
0000
0002
0000
0103
0001
0100
0000
,
0001
0000
0000
1000
0010
0000
0100
0000
0010
0100
0010
0100
0010
0000
0000
0000
,
1000
0000
0100
0000
0010
0001
0000
0001
0100
0000
0100
0010
0000
0100
0001
0010
,
0000
0000
0010
0000
0001
0100
0010
0000
0100
0010
0000
1000
0100
0010
0100
0000
,
0010
0100
0010
0001
0010
0000
0001
0000
0001
0000
1000
0100
0000
0000
0010
0000
,
0000
0100
0000
0010
0000
0001
0000
0010
0100
0000
0010
0001
0010
0001
0010
0100
,
1000
0001
0010
0000
0000
0000
0010
0100
0010
0100
0000
0000
1000
0100
1000
0100
,
0000
0000
0010
0001
0010
0001
1000
0001
1000
0001
1000
0001
0000
1000
0000
0001
,
0010
0000
0100
0000
1000
0000
0010
0000
0100
0000
0001
0000
1000
0001
1000
0000
,
0100
0000
0001
0100
0000
1000
0100
0000
0000
0000
0010
0000
0011
0000
0000
0000
,
1000
0001
1000
0001
0000
1000
0010
0000
0100
0000
0001
0100
0000
0100
0001
0000
,
1000
0100
1000
0010
0000
1000
0001
0000
1000
0000
0001
0000
1000
0000
0100
0000
,
0010
0000
0000
0000
;
