#VERSION:0.83;
#TITLE:My Own Swan;
#SUBTITLE:;
#ARTIST:Redshift;
#TITLETRANSLIT:;
#SUBTITLETRANSLIT:;
#ARTISTTRANSLIT:;
#GENRE:;
#ORIGIN:;
#CREDIT:from pop n music 15 ADVENTURE;
#BANNER:15_Nu-SOUL.png;
#BACKGROUND:;
#PREVIEWVID:;
#JACKET:;
#CDIMAGE:;
#DISCIMAGE:;
#LYRICSPATH:;
#CDTITLE:;
#MUSIC:Redshift-My-Own-Swan.ogg;
#OFFSET:-0.028000;
#SAMPLESTART:14.802000;
#SAMPLELENGTH:17.000000;
#SELECTABLE:YES;
#BPMS:0.000=134.000;
#STOPS:;
#DELAYS:;
#WARPS:;
#TIMESIGNATURES:0.000=4=4;
#TICKCOUNTS:0.000=4;
#COMBOS:0.000=1;
#SPEEDS:0.000=1.000=0.000=0;
#SCROLLS:0.000=1.000;
#FAKES:;
#LABELS:0.000=Song Start;
#BGCHANGES:;
#KEYSOUNDS:;
#ATTACKS:
;

//---------------dance-single - ----------------
#NOTEDATA:;
#CHARTNAME:;
#STEPSTYPE:dance-single;
#DESCRIPTION:;
#CHARTSTYLE:;
#DIFFICULTY:Beginner;
#METER:2;
#RADARVALUES:0.111107,0.158830,0.028111,0.056223,0.000000,83.000000,80.000000,3.000000,6.000000,0.000000,0.000000,0.000000,0.000000,0.000000,0.111107,0.158830,0.028111,0.056223,0.000000,83.000000,80.000000,3.000000,6.000000,0.000000,0.000000,0.000000,0.000000,0.000000;
#CREDIT:;
#NOTES:
0000
0000
0000
0000
,
0000
0000
0000
0000
,
0000
0000
0001
0000
,
0000
0000
0001
0000
,
0000
0000
1000
0000
,
0000
0000
1000
0000
,
0000
0000
0100
0000
,
0010
0000
0001
0000
,
1000
0000
0001
0000
,
1000
0000
0001
0000
,
0100
0000
0001
0000
,
1000
0000
0001
0000
,
0000
0000
0001
0000
,
0100
0000
0001
0000
,
1000
0000
0002
0000
,
1003
0000
2000
0000
,
3001
0000
1001
0000
,
0000
0000
0001
0000
,
1000
0000
0001
0000
,
0000
0000
1000
0000
,
0010
0000
1000
0000
,
0000
0000
0001
0000
,
0100
0000
0001
0000
,
0100
0000
0020
0000
,
0030
0000
0100
0000
,
0000
0000
0100
0000
,
0000
0000
0110
0000
,
0000
0000
0100
0000
,
0000
0000
0110
0000
,
0000
0000
0001
0000
,
0000
0000
0010
0000
,
0000
0000
0001
0000
,
1000
0000
0001
0000
,
0000
0000
1000
0000
,
0001
0000
0100
0000
,
0000
0000
0001
0000
,
1000
0000
0100
0000
,
0000
0000
1000
0000
,
0001
0000
0100
0000
,
0000
0000
0002
0003
,
1000
0000
1000
0000
,
1000
0000
1000
0000
,
0000
0000
0001
0000
,
0001
0000
1000
0000
,
0001
0000
0001
0000
,
0000
0000
0100
0000
,
0001
0000
0001
0000
,
0001
0000
0100
0000
,
0000
0000
0200
0000
,
0300
0000
0001
0000
,
0000
0000
1000
0000
,
0000
0000
0002
0000
,
0003
0000
1000
0000
,
0000
0000
0001
0000
,
1000
0000
0001
0000
,
0000
0000
1000
0000
,
1000
0000
1000
0000
;

//---------------dance-single - ----------------
#NOTEDATA:;
#CHARTNAME:;
#STEPSTYPE:dance-single;
#DESCRIPTION:;
#CHARTSTYLE:;
#DIFFICULTY:Easy;
#METER:3;
#RADARVALUES:0.180717,0.212710,0.093705,0.131187,0.000000,135.000000,125.000000,10.000000,14.000000,0.000000,0.000000,0.000000,0.000000,0.000000,0.180717,0.212710,0.093705,0.131187,0.000000,135.000000,125.000000,10.000000,14.000000,0.000000,0.000000,0.000000,0.000000,0.000000;
#CREDIT:;
#NOTES:
0000
0000
0000
0000
,
0000
0000
0000
0000
,
0000
0000
0001
0000
,
0100
0000
0001
1000
,
0001
0000
1000
0000
,
0001
0000
0100
0010
,
0100
0000
2000
0000
,
3000
0000
0001
0000
,
1000
0000
0001
0000
,
1000
0100
0010
0000
,
0100
0000
0101
0000
,
1000
0100
0010
0000
,
0100
0000
0011
0000
,
0100
0010
0001
0000
,
1000
0000
2002
0000
,
3003
0000
2000
0000
,
3002
0000
1003
0000
,
0001
0000
0100
0000
,
0010
0010
0100
0000
,
0001
0000
1000
0000
,
0010
0010
1000
0000
,
0001
0000
1000
0000
,
0010
0100
0010
0000
,
0100
0000
0100
0000
,
0010
0000
1001
0000
,
0000
0000
1100
0000
,
0000
0000
0022
0033
,
0000
0000
0001
0010
,
0100
0000
0100
0000
,
0100
0000
1001
0000
,
1000
0001
1000
0000
,
0001
0000
0200
0000
,
0000
0300
0002
0003
,
1000
0000
0002
0003
,
0100
0000
0010
0000
,
1000
0100
0010
0000
,
1000
0000
1000
0100
,
0010
0000
1000
0000
,
0100
0010
0001
0000
,
1000
0000
0001
0000
,
2000
3000
0001
0100
,
0001
0000
1000
0000
,
0110
0000
0001
1000
,
0100
0000
0001
0000
,
1100
0000
1000
0100
,
0010
0000
0100
0000
,
0100
0010
0001
0000
,
0100
0000
0002
0000
,
2003
0000
3001
0000
,
0001
1000
0001
0000
,
1000
0000
1001
0000
,
0001
0100
0001
0100
,
0001
0000
1000
0000
,
0001
0000
1000
0100
,
1000
0100
1000
0000
,
0000
0000
0001
0010
,
0010
0000
0002
0003
;

//---------------dance-single - ----------------
#NOTEDATA:;
#CHARTNAME:;
#STEPSTYPE:dance-single;
#DESCRIPTION:;
#CHARTSTYLE:;
#DIFFICULTY:Medium;
#METER:8;
#RADARVALUES:0.327967,0.345273,0.131187,0.168669,0.187410,245.000000,231.000000,14.000000,18.000000,0.000000,0.000000,0.000000,0.000000,0.000000,0.327967,0.345273,0.131187,0.168669,0.187410,245.000000,231.000000,14.000000,18.000000,0.000000,0.000000,0.000000,0.000000,0.000000;
#CREDIT:;
#NOTES:
0000
0000
0000
0000
,
0000
0000
0000
0000
,
0000
0000
0001
0100
,
0100
0000
0000
0000
0001
0000
0000
1000
0000
0000
0000
0000
1000
0000
0000
0001
,
0000
0001
1000
0100
,
0010
0000
0000
0000
0001
0000
0000
0001
0000
0000
0000
0000
0010
0000
0000
0010
,
0000
0000
1000
0000
0002
0000
0000
0103
,
0000
0000
0101
0000
0000
0000
0000
0001
0000
0000
0000
1000
0000
0000
0002
0000
,
0003
0000
0200
0000
0300
0000
0000
0000
0110
0000
0000
0010
0000
0000
0000
0000
,
1000
0000
0000
0100
0000
0000
0000
0000
0010
0000
0000
0001
0000
0000
0000
0000
,
1000
0000
0001
0000
0100
0000
0000
0000
0001
0000
0000
0100
0000
0000
0000
0000
,
1000
0000
0001
0000
0000
0000
0001
0000
1000
0000
0000
0000
0001
0000
0000
0100
,
0000
0000
0000
0000
0001
0000
0100
0000
0001
0000
0000
1000
0000
0000
0000
0000
,
0001
0000
0000
0100
0000
0000
0000
0000
0001
0000
0000
1000
0000
0000
0000
0000
,
0001
1000
0010
0000
2000
0000
0002
0000
,
3003
0000
0001
1000
0010
0000
0100
0001
,
0020
0000
0000
0000
0031
0000
0000
0000
1001
0000
0000
0001
0000
0000
0000
0000
,
0001
1000
0000
0001
0100
0000
0000
0001
,
0010
0000
0001
0000
0010
0000
0000
0000
0001
0000
0000
1000
0000
0000
0000
0000
,
0001
0000
0000
0100
0000
0000
0000
0000
0001
0000
0100
0000
0010
0000
0000
0000
,
1000
0000
0000
0010
0000
0000
0000
0000
1000
0000
0000
0010
0000
0000
0000
0000
,
0200
0302
2003
3001
,
0100
0000
0010
0000
0100
0000
0000
0000
0100
0000
0000
0100
0000
0000
0100
0000
,
0000
0100
0001
1000
,
0010
0110
0110
0000
,
0000
0010
1010
0000
,
1000
0000
0000
0000
0000
0000
0000
0000
0002
0000
0000
0013
0000
0000
0000
0000
,
0000
0000
0000
0000
1000
0000
0000
0002
0000
0000
0000
0000
0000
0003
0000
0200
,
0000
0000
0000
0000
0000
0300
0000
0000
0010
0000
0000
0010
0000
0000
0000
0000
,
0100
0100
1001
0001
,
0010
0100
2000
3000
,
0001
0000
0000
0000
0100
0000
0000
0002
0000
0000
0000
0000
0003
0000
0000
0200
,
0000
0000
0301
1000
0010
0000
1000
0000
,
1000
0100
0010
0000
0001
0000
0001
0000
,
0010
0100
1000
0000
0010
0000
0010
0000
,
0100
0010
0001
0000
0010
0000
0100
0000
,
0001
0010
0100
0000
1000
0000
0110
0000
,
0011
0000
1000
1001
,
0010
0000
0100
0000
0002
0000
0003
1000
,
0000
0001
0000
0100
0000
0000
0001
0000
,
1000
0000
0010
0000
0100
0000
0000
0000
0001
0000
0000
0100
0000
0000
0000
0000
,
0001
0000
0000
0100
0000
0000
0000
0100
0000
0000
0000
0000
0000
0000
0010
0000
,
0100
0000
0010
0000
0100
0000
0000
0000
0001
0000
0000
1000
0000
0000
0000
0000
,
0100
0010
0100
0000
0010
0000
0001
1000
,
0001
0000
0000
0000
1000
0000
0000
0000
1000
0000
0000
0100
0000
0000
0000
0000
,
1000
0000
0000
0100
0000
0000
0100
0000
0000
0000
0000
0000
1000
0000
0001
0000
,
0100
0000
0100
0001
0100
0000
0010
0000
,
1000
1100
0010
0011
,
2000
0000
0000
0000
0001
0000
0000
0000
3001
0000
0000
0001
0000
0000
0000
0000
,
1000
0000
0100
0010
0001
0000
0000
0001
,
1000
0000
0001
0000
1000
0000
0000
0000
0001
0000
0000
1000
0000
0000
0000
0000
,
0001
0000
0000
0100
0000
0000
0000
0000
0001
0000
0000
0000
0101
0000
0000
0000
,
0010
0000
0000
0000
1010
0000
0000
0000
1000
0000
0000
0001
0000
0000
0000
0000
,
1000
0000
0000
0001
0000
0000
0000
0000
1000
0000
0001
0000
1000
0000
0000
0000
,
0001
0000
0000
0000
0100
0000
0001
0000
1000
0000
0000
0001
0000
0000
2000
0000
,
0000
0000
0000
0000
3000
0000
0000
0001
0000
0000
0000
0000
0100
0000
0001
0000
,
0010
0000
0000
0000
0001
0000
1000
0000
0001
0000
0000
1000
0000
0000
0000
0000
;

//---------------dance-single - ----------------
#NOTEDATA:;
#CHARTNAME:;
#STEPSTYPE:dance-single;
#DESCRIPTION:;
#CHARTSTYLE:;
#DIFFICULTY:Hard;
#METER:11;
#RADARVALUES:0.483250,0.478071,0.206151,0.206151,0.393561,361.000000,339.000000,22.000000,22.000000,0.000000,0.000000,0.000000,0.000000,0.000000,0.483250,0.478071,0.206151,0.206151,0.393561,361.000000,339.000000,22.000000,22.000000,0.000000,0.000000,0.000000,0.000000,0.000000;
#CREDIT:;
#NOTES:
// measure 0
0000
0000
0000
0000
,  // measure 1
0000
0000
0000
0000
,  // measure 2
0000
0000
0000
0000
0000
0000
0000
0000
0001
0000
0000
0000
0100
0000
0001
0100
,  // measure 3
0000
0000
0001
0000
1000
0000
0010
1000
0000
0000
0010
0000
1000
0000
0000
0100
,  // measure 4
0000
0000
0010
0000
0001
0000
1000
0000
1001
0000
0000
0000
0001
0000
1000
0010
,  // measure 5
0000
0000
0010
0000
1000
0000
0001
1000
0000
0000
0000
0000
0010
0000
0100
0000
,  // measure 6
0001
0000
1000
0000
0001
0000
1000
0000
0001
0100
0001
0100
0000
0000
0001
0000
,  // measure 7
0000
0000
0100
0000
0001
0100
0000
0001
0000
0000
0000
1000
0000
0000
0010
0000
,  // measure 8
1000
0000
0100
0000
0010
0000
0001
0000
0011
0000
0000
0011
0000
0000
0000
0000
,  // measure 9
1000
0000
0010
0000
0100
0010
0000
0100
0000
0000
0000
0001
0000
0000
1000
0000
,  // measure 10
1000
0000
0100
0000
0010
0000
0001
0000
0001
0000
0000
0100
0000
0000
0010
0000
,  // measure 11
1000
0000
0001
0000
1000
0001
0000
1000
0000
0000
0000
0001
0000
0000
0100
0000
,  // measure 12
0000
0000
0010
0000
0100
0000
0001
0000
0101
0000
0000
0110
0000
0000
0000
0000
,  // measure 13
1000
0000
0100
0000
0010
0100
0000
0001
0000
0000
0000
1000
0000
0000
0001
0000
,  // measure 14
0001
1000
0100
0010
0002
0000
2003
0000
,  // measure 15
3000
0000
0001
0000
0000
1000
0000
0010
0000
0000
0000
0100
0001
0000
0100
0000
,  // measure 16
0002
0000
0000
0000
1003
0000
0100
0000
0110
0000
0000
1001
0000
0000
0000
0000
,  // measure 17
0001
0000
1000
0000
0001
0100
0000
0001
0000
0000
0000
1000
0000
0000
0001
0000
,  // measure 18
0010
0000
0100
0000
0010
0000
0001
0000
0010
0000
0000
0100
0000
0000
0000
0000
,  // measure 19
1000
0000
0100
0000
1000
0100
0000
0010
0000
0000
0000
0001
0000
0000
1000
0000
,  // measure 20
0100
0000
0010
0000
0100
0000
0000
0000
1010
0000
0000
0011
0000
0000
0000
0000
,  // measure 21
0200
0000
0000
0000
0302
0000
0000
0200
0003
0000
0000
0300
0001
0000
1000
0000
,  // measure 22
0110
0000
0010
0000
0100
0000
0010
0000
0110
0000
0000
0010
0000
0000
0220
0000
,  // measure 23
0000
0000
0330
0000
0001
0000
0000
0100
0000
0000
0001
0000
1000
0000
0010
0000
,  // measure 24
1000
0000
0001
0000
0100
0000
0010
0000
0020
0000
0000
0100
0030
0000
0000
0000
,  // measure 25
0000
0000
0010
0000
0100
0000
0001
0000
1000
0000
0000
0001
1000
0000
0000
0000
,  // measure 26
0001
0000
1000
0000
0010
0000
0000
0000
0210
0000
0000
0010
0300
0000
0000
0000
,  // measure 27
0000
0000
0001
0000
1000
0000
0000
2002
0000
0000
0000
0000
3003
0000
0000
0200
,  // measure 28
0000
0000
0010
0000
0310
0000
0000
0000
0002
0000
0000
0100
0003
0000
0000
0000
,  // measure 29
0000
0000
0100
0000
0100
0000
0001
0000
1000
0000
0000
0001
1000
0000
0000
0000
,  // measure 30
0010
0000
0100
0000
0010
0000
0000
0000
2001
0000
0000
0001
3000
0000
0000
0000
,  // measure 31
0000
0000
0001
0000
0100
0001
0000
0200
0000
0000
0000
0000
0300
0000
0000
0012
,  // measure 32
0000
0000
0013
0100
0010
0000
0001
0000
,  // measure 33
1000
0100
0010
0000
0011
0000
0001
1000
,  // measure 34
0010
0000
0000
0100
0000
0000
0001
0000
0100
0000
0000
0000
0010
0000
0000
0000
,  // measure 35
0100
0000
0010
0000
1000
0000
0010
0000
0010
0000
0000
0000
0100
0000
0000
0100
,  // measure 36
0001
0000
0010
0000
0001
0000
1000
0000
0001
0000
0000
0000
0100
0000
0000
0100
,  // measure 37
0010
0000
0100
0000
0000
0010
0100
0000
0010
2000
0000
0000
3001
0000
1000
0000
,  // measure 38
0010
0100
0001
1000
0002
0000
2003
0000
,  // measure 39
3000
0000
0001
0000
0000
0100
0000
0001
0000
0000
0000
0010
0000
0000
0100
0000
,  // measure 40
1000
0000
0010
0100
0010
0000
0100
0000
0001
0000
0000
0100
0000
0000
0001
0000
,  // measure 41
1000
0001
0000
0100
0000
0100
0000
0100
0000
0000
0001
0000
0000
0000
1000
0000
,  // measure 42
0100
0000
0010
0000
0100
0000
0010
0000
0001
0000
0000
1000
0000
0000
0001
0000
,  // measure 43
0100
0000
0010
0000
0100
0010
0000
0010
0000
0000
1000
0001
1000
0000
0001
1000
,  // measure 44
0001
0000
0000
0000
1000
0000
1000
0000
0100
0000
0000
0100
0000
0000
0010
0000
,  // measure 45
0010
0000
0000
0001
0000
0000
0010
0000
0100
0000
0000
1000
0000
0000
0001
0000
,  // measure 46
0100
0000
0001
0000
1000
0000
0010
0000
0100
0000
0000
0000
0110
0000
0000
0100
,  // measure 47
1000
0000
0000
0000
1100
0000
0000
0100
0010
0000
0000
0010
0001
0000
0000
0000
,  // measure 48
2000
0000
0000
0000
3001
0000
0100
0000
0001
0000
0000
0100
0000
0000
0010
0000
,  // measure 49
1000
0000
0000
0000
0100
0000
0010
0000
0100
0000
0000
0001
0000
0000
1000
0000
,  // measure 50
0001
0000
0100
0000
0010
0000
0000
0000
0100
0000
0000
0100
0000
0000
0000
0000
,  // measure 51
0001
1000
0001
0100
0001
0010
1000
0010
,  // measure 52
0001
0000
0000
0000
1000
0000
0100
0000
0001
0000
0000
0100
0000
0000
0000
0000
,  // measure 53
1000
0000
0001
1000
0000
0000
0001
0000
1000
0000
0001
0100
0000
0000
0100
0000
,  // measure 54
0001
0000
1000
0000
0100
0000
0010
0000
0011
0000
0000
0110
0000
0000
2000
0000
,  // measure 55
0000
0000
0001
0000
3000
0001
0000
1000
0000
0000
0000
0100
0000
0000
0010
0000
,  // measure 56
0100
0000
0010
0000
0001
0000
1000
0000
0100
0000
0000
1100
0000
0000
0000
0000
;
