#TITLE:Music For Love;
#SUBTITLE:;
#ARTIST:Mario;
#TITLETRANSLIT:;
#SUBTITLETRANSLIT:;
#ARTISTTRANSLIT:;
#GENRE:R&B;
#CREDIT:;
#BANNER:;
#BACKGROUND:;
#LYRICSPATH:;
#CDTITLE:;
#MUSIC:Mario - Music For Love.mp3;
#OFFSET:-0.065000;
#SAMPLESTART:62.334000;
#SAMPLELENGTH:18.000000;
#SELECTABLE:YES;
#BPMS:0.000000=123.298004
;
#STOPS:
;
#BGCHANGES:;
#KEYSOUNDS:;
#ATTACKS:;

//---------------dance-single - ----------------
#NOTES:
     dance-single:
     :
     Beginner:
     2:
     0.105930,0.121892,0.020315,0.010158,0.000000,73.000000,71.000000,2.000000,1.000000,0.000000,0.000000,0.105930,0.121892,0.020315,0.010158,0.000000,73.000000,71.000000,2.000000,1.000000,0.000000,0.000000:
0000
0000
0000
0000
,
0000
0000
0001
0000
,
1000
0000
0001
0000
,
0100
0000
0001
0000
,
1000
0000
0010
0000
,
0010
0000
0000
0000
,
1000
0000
0100
0000
,
0100
0000
0000
0000
,
1000
0000
0010
0000
,
0010
0000
0000
0000
,
1000
0000
0001
0000
,
0001
0000
0000
0000
,
1000
0000
0001
0000
,
1000
0000
0010
0000
,
1000
0000
0000
0000
,
1001
0000
0000
0000
,
0001
0000
1000
0000
,
0001
0000
0000
0000
,
0001
0000
0100
0000
,
0001
0000
0100
0000
,
0002
0000
0003
0000
,
0100
0000
0010
0000
,
0100
0000
0000
0000
,
0010
0000
0000
0000
,
0100
0000
0001
0000
,
0100
0000
0000
0000
,
1000
0000
0001
0000
,
1000
0000
0000
0000
,
0100
0000
0001
0000
,
0100
0000
0000
0000
,
0001
0000
0000
0000
,
1000
0000
0000
0000
,
0001
0000
0100
0000
,
0001
0000
0000
0000
,
1000
0000
0001
0000
,
0001
0000
0000
0000
,
1000
0000
0010
0000
,
0010
0000
0000
0000
,
0110
0000
0000
0000
,
0100
0000
0001
0000
,
0100
0000
0000
0000
,
1000
0000
0001
0000
,
0100
0000
0000
0000
,
1000
0000
0001
0000
,
0001
0000
0000
0000
,
1000
0000
0100
0000
,
0100
0000
0000
0000
,
1000
0000
0010
0000
,
0010
0000
0000
0000
;

//---------------dance-single - ----------------
#NOTES:
     dance-single:
     :
     Easy:
     4:
     0.197349,0.219405,0.111734,0.060946,0.000000,136.000000,125.000000,11.000000,6.000000,0.000000,0.000000,0.197349,0.219405,0.111734,0.060946,0.000000,136.000000,125.000000,11.000000,6.000000,0.000000,0.000000:
0000
0000
0001
0000
,
0000
0000
0001
0000
,
0000
0000
0001
0000
,
0100
0010
0100
0010
,
1000
0000
0010
0100
,
0010
0000
0100
0001
,
0100
0000
0100
0010
,
0200
0300
0002
0003
,
1000
0000
0110
0000
,
0010
0000
0001
0000
,
0110
0000
1000
0010
,
1000
0000
0001
0100
,
0010
0000
0101
0000
,
0100
0010
0100
0010
,
1000
0000
1001
0000
,
0001
0000
0010
0001
,
0020
0030
0001
0001
,
0001
0000
1000
0000
,
0010
0000
0100
0010
,
0200
0300
0001
0000
,
0002
0000
1003
1000
,
1000
0000
0010
0100
,
0100
0000
0010
0010
,
0100
0000
0000
0000
,
0100
0001
0001
0000
,
1000
0010
0100
0000
,
1000
0001
0010
0000
,
1000
0100
0010
0000
,
0001
0000
0101
0000
,
0100
0000
0110
0000
,
1000
0001
1000
0000
,
0100
0001
0100
0000
,
2000
0000
3001
0001
,
0001
0000
0100
0010
,
1000
0000
1001
0000
,
0001
0000
0100
0000
,
0110
0000
0010
1000
,
0001
0000
1000
0001
,
0100
0000
0010
0100
,
0010
0000
0110
0000
,
0100
0000
0101
0000
,
1000
0100
1000
0100
,
1000
0000
0001
0000
,
0100
0001
0100
0001
,
0100
0000
0010
0000
,
1000
0100
1000
0000
,
0100
0000
0110
0000
,
1000
0010
0100
0000
,
0010
0000
0000
0000
;

//---------------dance-single - ----------------
#NOTES:
     dance-single:
     :
     Medium:
     8:
     0.403404,0.365675,0.243784,0.132049,0.000000,278.000000,254.000000,24.000000,13.000000,0.000000,0.000000,0.403404,0.365675,0.243784,0.132049,0.000000,278.000000,254.000000,24.000000,13.000000,0.000000,0.000000:
0000
0000
0000
0000
0001
0000
1000
0100
,
0010
0000
0001
0010
0100
0000
1000
0000
,
0002
0003
1000
0100
1000
0000
0001
0010
,
0000
0001
0010
0001
0010
0001
1000
0001
,
0001
0000
0100
0001
0100
0000
0010
1000
,
0010
0000
0010
1000
0100
0000
0001
0000
,
1001
0000
0001
0100
0001
0000
1000
0010
,
1000
1000
1001
0110
,
0200
0000
0301
0000
0001
0010
0100
0010
,
0001
0000
1000
0100
1000
0000
1000
0010
,
1000
0000
1000
0100
1000
0000
0001
0000
,
0011
0000
0001
0000
0100
0010
0100
0010
,
0100
0000
0110
0000
1001
0000
0001
0010
,
0001
0010
0001
0000
1000
0000
0001
0100
,
0010
0000
1000
0001
0100
0000
1000
0001
,
0100
0010
0110
1001
,
0002
1003
1001
0001
,
0011
0000
1000
0001
0100
0010
0100
0000
,
0110
0000
0010
1000
0010
0100
0001
0000
,
2000
0000
3000
0000
0001
0000
0001
1000
,
0002
0003
1000
0110
,
0001
0000
1000
0001
0001
0000
1000
0100
,
0010
0000
0010
0001
0001
0000
1000
0000
,
1001
0000
0000
0000
2002
3003
0000
0000
,
0001
0100
0001
0000
1000
0100
1000
0000
,
0001
0100
0001
0000
1000
0100
1000
0000
,
0001
1000
0001
0000
1000
0001
1000
0000
,
0001
0011
1001
1000
,
0100
0000
0010
0000
0011
0000
0001
1000
,
0001
0000
1000
0100
0010
0000
0100
0000
,
2000
0000
3001
0000
0100
0010
0100
0001
,
0100
0010
1001
2000
,
3001
0000
0100
0010
0100
0001
0100
0000
,
0002
2003
3000
0001
,
1001
0000
1000
0001
0010
0000
1000
0001
,
0010
0000
0001
1000
0001
0100
0001
0000
,
1001
0000
1000
0010
0100
0000
1000
0010
,
0100
0000
0001
0001
0001
0000
1000
1000
,
1000
0001
0100
0110
,
1001
0000
0001
0100
0001
0100
0010
1000
,
0010
0000
0100
0000
0001
1000
0001
0000
,
1000
0100
1000
0100
0100
0000
0001
0000
,
0001
0010
0001
0010
0010
0000
1000
0001
,
0100
0000
0020
0030
0100
0010
0100
0000
,
0110
0000
0001
1000
0001
0100
0001
0000
,
1000
0100
1000
0100
0100
0000
0001
0000
,
0001
0010
0001
0010
0010
0000
0100
0000
,
1000
0000
0001
0100
0002
0000
0000
0003
,
0101
0000
0000
0000
;

//---------------dance-single - ----------------
#NOTES:
     dance-single:
     :
     Hard:
     12:
     0.523844,0.490106,0.192995,0.213311,0.096498,361.000000,342.000000,19.000000,21.000000,0.000000,0.000000,0.523844,0.490106,0.192995,0.213311,0.096498,361.000000,342.000000,19.000000,21.000000,0.000000,0.000000:
// measure 0
0000
0000
0001
1000
,  // measure 1
0001
0100
0001
0100
0010
1000
0100
0001
,  // measure 2
0100
1000
0001
0100
0000
0001
0100
0001
,  // measure 3
0100
0010
1000
0100
0010
0001
0001
1000
,  // measure 4
0010
0100
0001
1000
0010
0001
0010
1000
,  // measure 5
0001
0100
0001
0100
0010
1000
0001
1000
,  // measure 6
0001
0010
0001
1000
0001
0100
0100
0110
,  // measure 7
0000
0010
0100
0010
0110
0000
0100
0001
,  // measure 8
0100
0001
1000
0001
0110
0000
0010
1000
,  // measure 9
0010
0100
0001
0100
0020
1000
1030
1000
,  // measure 10
0010
0100
0100
0001
2000
0001
3001
1000
,  // measure 11
0001
0100
0010
0000
0110
0100
0010
0200
,  // measure 12
0300
0000
0010
0100
0010
0000
1000
0000
0001
0000
1000
0000
0001
0000
0100
0001
,  // measure 13
0100
0000
0001
0000
1000
0000
0001
0000
0000
0000
0100
0000
0010
0100
0010
0000
,  // measure 14
0100
0001
1000
0001
1000
0010
0100
0010
,  // measure 15
0100
0001
1000
0001
0010
1000
0001
0100
,  // measure 16
0020
0000
0030
0100
0010
0000
0011
0000
,  // measure 17
1001
0000
1000
0001
0100
0010
0010
0100
,  // measure 18
0200
0000
0000
0310
0100
0000
0001
0000
0100
0000
0010
0000
1000
0000
0001
0000
,  // measure 19
0200
0000
0300
0010
0110
0000
1000
0010
,  // measure 20
0202
0000
0303
0001
0100
0000
0001
0000
,  // measure 21
1001
0000
1000
0001
0010
0100
0010
0001
,  // measure 22
0000
1000
0001
0010
1000
0010
0001
0100
,  // measure 23
0101
0000
0000
0100
0000
0000
0100
0000
0200
0000
0000
0000
0300
0000
0000
0000
,  // measure 24
0011
0000
0000
0000
0001
1000
0001
1000
0001
0000
0000
0000
1000
0000
0100
0000
,  // measure 25
0000
0100
0010
0000
0001
1000
0001
1000
0001
0000
0000
0000
0100
0000
0010
0000
,  // measure 26
0000
0000
0100
0010
0100
0000
0010
0000
1000
0000
0001
0000
1000
0000
0100
0000
,  // measure 27
0110
0001
0010
0100
1100
0000
0001
0010
,  // measure 28
0110
0100
0010
0001
1000
0010
0002
0003
,  // measure 29
0000
0000
1000
0000
0100
0010
0100
0010
0100
0000
0000
0000
0001
0000
0000
0000
,  // measure 30
2000
3001
0100
0000
0100
0010
0100
0001
,  // measure 31
0000
0001
0010
0100
1000
0001
2000
3000
,  // measure 32
1001
0001
0100
0010
0100
1000
0001
0010
,  // measure 33
1000
0100
0001
0100
1000
0000
1001
0001
,  // measure 34
0100
0010
0000
0010
0100
0001
1000
0100
,  // measure 35
0010
0001
0001
1000
0010
0100
0001
2000
,  // measure 36
3000
0000
0001
0100
0001
0000
0100
0000
0001
0000
1000
0000
0010
0000
0001
0000
,  // measure 37
0010
1000
0000
0001
0100
0001
0001
0001
,  // measure 38
0000
1000
0010
0001
0001
0010
1000
0100
,  // measure 39
0000
0100
0010
0001
1000
0001
1000
2002
,  // measure 40
3003
0001
0100
0010
0110
0000
0010
0100
,  // measure 41
0010
0010
0100
1001
0000
0001
0100
0010
,  // measure 42
0200
0000
0301
0000
0001
0000
0000
0000
1000
0100
1000
0000
0100
1000
0100
0000
,  // measure 43
0000
1000
0001
0100
0001
0010
0001
2000
,  // measure 44
3000
0000
0001
0100
0010
0000
0100
0000
0010
0000
0100
0000
0001
0000
1000
0100
,  // measure 45
1000
0000
0100
0000
1000
0000
0100
0000
0000
0000
0010
0000
0001
0010
0002
0000
,  // measure 46
0003
0020
0130
2000
3000
0001
0100
0001
,  // measure 47
0000
1000
0010
0010
1000
0100
0010
0001
,  // measure 48
2000
3000
0000
0000
;
