#VERSION:0.83;
#TITLE:Momoiro jigen bakudan;
#SUBTITLE:;
#ARTIST:Haya-P & Maru;
#TITLETRANSLIT:;
#SUBTITLETRANSLIT:;
#ARTISTTRANSLIT:;
#GENRE:SWISH;
#ORIGIN:;
#CREDIT:from pop n music 10 AC / 8 CS;
#BANNER:Haya-P & Maru - Momoiro jigen bakudan.png;
#BACKGROUND:;
#PREVIEWVID:;
#JACKET:;
#CDIMAGE:;
#DISCIMAGE:;
#LYRICSPATH:;
#CDTITLE:Popn_music_10_logo_small.png;
#MUSIC:Haya-P & Maru - Momoiro jigen bakudan.ogg;
#OFFSET:-0.429000;
#SAMPLESTART:69.828003;
#SAMPLELENGTH:16.000000;
#SELECTABLE:YES;
#BPMS:0.000=140.000;
#STOPS:;
#DELAYS:;
#WARPS:;
#TIMESIGNATURES:0.000=4=4;
#TICKCOUNTS:0.000=4;
#COMBOS:0.000=1;
#SPEEDS:0.000=1.000=0.000=0;
#SCROLLS:0.000=1.000;
#FAKES:;
#LABELS:0.000=Song Start;
#BGCHANGES:;
#KEYSOUNDS:;
#ATTACKS:
;

//---------------dance-single - ----------------
#NOTEDATA:;
#CHARTNAME:;
#STEPSTYPE:dance-single;
#DESCRIPTION:;
#CHARTSTYLE:;
#DIFFICULTY:Beginner;
#METER:1;
#RADARVALUES:0.075391,0.107147,0.015992,0.071964,0.000000,66.000000,64.000000,2.000000,9.000000,0.000000,0.000000,0.000000,0.000000,0.000000,0.075391,0.107147,0.015992,0.071964,0.000000,66.000000,64.000000,2.000000,9.000000,0.000000,0.000000,0.000000,0.000000,0.000000;
#CREDIT:;
#NOTES:
0000
0000
0000
0000
,
0000
0000
0000
0000
,
0000
0000
1000
0000
,
0000
0000
0001
0000
,
0000
0000
2000
3000
,
0000
0000
0002
0003
,
0000
0000
0100
0000
,
0000
0000
0010
0000
,
0000
0000
2000
3000
,
0000
0000
0002
0003
,
0000
0000
0100
0000
,
0000
0000
0100
0000
,
0000
0000
0001
0000
,
0000
0000
1000
0000
,
0000
0000
0001
0000
,
0000
0000
0100
0000
,
0000
0000
0001
0000
,
0000
0000
1000
0000
,
0000
0000
0001
0000
,
0000
0000
1000
0000
,
0000
0000
0001
0000
,
0000
0000
0010
0000
,
0000
0000
0001
0000
,
0000
0000
0100
0000
,
0000
0000
0001
0000
,
0000
0000
0100
0000
,
0000
0000
0001
0000
,
0000
0000
0000
0000
,
0000
0000
1001
0000
,
0000
0000
0001
0000
,
0000
0000
1000
0000
,
0000
0000
0001
0000
,
0000
0000
1000
0000
,
0000
0000
0001
0000
,
0000
0000
0001
0000
,
0000
0000
1000
0000
,
0000
0000
0010
0000
,
0000
0000
0100
0000
,
0000
0000
0010
0000
,
0000
0000
0010
0000
,
0000
0000
0100
0000
,
0000
0000
0110
0000
,
0000
0000
0100
0000
,
0000
0000
0010
0000
,
0000
0000
1000
0000
,
0000
0000
0001
0000
,
0000
0000
1000
0000
,
0000
0000
0001
0000
,
0000
0000
1000
0000
,
0000
0000
1000
0000
,
0000
0000
0001
0000
,
0000
0000
0100
0000
,
0000
0000
0001
0000
,
0000
0000
1000
0000
,
0000
0000
1000
0000
,
0000
0000
0001
0000
,
0000
0000
0001
0000
,
0000
0000
1000
0000
,
0000
0000
2000
3000
,
0000
0000
0002
0003
,
0000
0000
0100
0000
,
0000
0000
0010
0000
,
0000
0000
2000
3000
,
0000
0000
0002
0003
,
0000
0000
1000
0000
,
0000
0000
0001
0000
,
0000
0000
2000
0000
,
3000
0000
0000
0000
;

//---------------dance-single - ----------------
#NOTEDATA:;
#CHARTNAME:;
#STEPSTYPE:dance-single;
#DESCRIPTION:;
#CHARTSTYLE:;
#DIFFICULTY:Easy;
#METER:5;
#RADARVALUES:0.215893,0.242880,0.079960,0.103948,0.000000,189.000000,179.000000,10.000000,13.000000,0.000000,0.000000,0.000000,0.000000,0.000000,0.215893,0.242880,0.079960,0.103948,0.000000,189.000000,179.000000,10.000000,13.000000,0.000000,0.000000,0.000000,0.000000,0.000000;
#CREDIT:;
#NOTES:
0000
0000
0000
0000
,
0000
0000
0000
0000
,
0000
0000
1000
0010
,
0100
0001
1001
0000
,
1100
0000
2000
0100
,
0010
3001
0002
0010
,
0100
1003
0002
0003
,
0100
0010
0020
0000
,
1030
0000
2002
3003
,
0000
0100
0001
0100
,
0010
1000
0100
0100
,
0100
0010
0100
0100
,
0010
0001
1000
0000
,
0010
0100
1000
0000
,
0001
0010
0100
0000
,
0010
0100
0010
0000
,
1000
0001
1000
0000
,
1000
1000
1000
0000
,
0001
0001
1000
0000
,
0110
0000
1001
0000
,
0001
0000
1000
0010
,
0100
0000
0010
1000
,
0100
0000
0001
0010
,
0001
0000
0100
0000
,
0101
0000
0100
0000
,
0001
0000
1000
0000
,
0010
0100
0001
0000
,
0100
0000
0010
0100
,
0001
0000
1001
0000
,
1000
1000
1000
1000
,
1000
0000
1001
0000
,
0001
0001
0001
0000
,
0001
1000
0001
0000
,
0001
0001
0001
0001
,
0001
0000
1000
0000
,
0100
0000
1000
0000
,
0100
0000
0011
0000
,
0001
0000
0100
0010
,
0100
0000
0010
0000
,
1000
0000
0001
0000
,
0000
0000
0100
0000
,
0000
0100
0100
0000
,
0000
0100
0100
0000
,
0000
0001
0001
0000
,
1000
1000
1000
0000
,
0001
0000
0001
1000
,
0001
0000
1000
0010
,
1000
0000
1000
0100
,
1000
0000
0100
0000
,
1000
0000
0001
0000
,
0010
0000
0001
0100
,
0001
0000
0100
0010
,
0100
0000
1000
0000
,
0001
0000
1000
0000
,
0001
0000
1000
0100
,
0010
0000
0001
0010
,
0001
0000
1000
0010
,
0100
0000
1000
0100
,
0010
0000
0002
0010
,
0100
1003
2000
0100
,
0010
3001
2000
3000
,
0010
0100
0200
0000
,
0301
0000
2002
3003
,
0000
0100
0010
0100
,
0010
0000
1000
0001
,
0001
0001
1000
0100
,
0010
0001
0002
0000
,
0000
0000
0003
0000
;

//---------------dance-single - ----------------
#NOTEDATA:;
#CHARTNAME:;
#STEPSTYPE:dance-single;
#DESCRIPTION:;
#CHARTSTYLE:;
#DIFFICULTY:Medium;
#METER:11;
#RADARVALUES:0.456916,0.458772,0.263869,0.207897,0.000000,400.000000,367.000000,33.000000,26.000000,0.000000,0.000000,0.000000,0.000000,0.000000,0.456916,0.458772,0.263869,0.207897,0.000000,400.000000,367.000000,33.000000,26.000000,0.000000,0.000000,0.000000,0.000000,0.000000;
#CREDIT:;
#NOTES:
0000
0000
0000
0000
,
0000
0000
0000
0000
,
0000
0000
0000
0000
1000
0000
0010
1000
,
0100
0000
0010
0001
1001
0000
1100
0000
,
1000
0100
0010
0000
0002
0000
0103
0010
,
0000
0010
0100
0000
0012
0000
1000
0000
,
0100
0000
0013
0001
2000
0000
3001
0100
,
0000
0100
0001
0000
0020
0000
0001
0000
,
0130
1000
0100
0000
2000
0000
3001
0100
,
0000
0100
0001
0000
2000
0000
3100
0010
,
0000
0010
1000
0000
0010
0001
0100
0010
,
0110
0000
1000
0010
0110
0000
0100
0000
,
0110
0000
0001
0010
1000
0000
0001
0100
,
0010
0001
0100
0010
0100
0000
0001
1000
,
0001
0100
0010
0000
0110
0000
0100
0010
,
0000
0100
0010
1000
0000
0000
0001
0000
,
1000
0001
1000
1000
1001
0000
0100
0001
,
0000
0100
1000
0001
0000
1000
0001
0000
,
0001
0010
0100
1000
0001
0000
0001
0001
,
0000
1000
1000
0002
0003
0000
0200
0000
,
0301
0000
1000
0010
1000
0000
0010
0100
,
0010
0100
0001
1000
0010
0000
1000
0001
,
0100
0000
0010
0010
0100
0000
0100
0001
,
0000
1000
1000
0002
0003
0000
0101
0000
,
0110
0000
1000
0100
0100
0000
0010
0100
,
0000
0010
0100
0001
1000
0010
0001
1000
,
0000
1000
0100
0001
0010
0100
1000
0010
,
0001
1000
0010
0010
0020
0000
0230
0000
,
0301
0001
1001
1000
1000
0000
0001
0020
,
0000
0130
1000
0002
0000
0003
1000
1000
,
1000
0001
1000
0001
1001
0000
0100
0001
,
0000
0001
1001
1000
0001
0010
0001
1000
,
0000
1000
0110
0001
1000
0000
0100
0010
,
0001
0010
0001
0010
0200
0300
1000
0000
,
0100
0001
0100
1000
0001
1000
0001
0100
,
0000
0110
0110
0000
2000
3000
0002
0003
,
0100
0010
0110
0001
0011
0000
0001
1000
,
0000
1000
0002
0000
0103
0010
0100
0000
,
0010
0100
0010
0000
2000
0000
3000
0000
,
1000
0001
0001
0010
,
0001
0000
0100
0000
0101
0000
0010
1000
,
0000
1000
0100
0000
0100
0010
0100
0010
,
0000
0001
0100
0000
0001
0000
0100
1000
,
0000
0001
0010
1000
0100
0001
1000
0010
,
0001
0011
1000
0001
,
1000
0100
0001
0010
0100
1000
0010
0001
,
0000
0100
0010
0100
0110
0000
0010
1001
,
0000
1000
1001
0000
1000
0001
0200
0000
,
1300
0100
0010
0000
0101
0000
0001
1000
,
0000
1000
0001
0100
0001
0000
1000
1010
,
0000
1000
0100
0010
0001
0000
0100
0010
,
0001
1000
0100
0001
1000
0100
0001
1000
,
0010
0001
0100
0010
0001
0010
0100
0001
,
0000
1000
0001
1000
1100
0000
0001
0010
,
0001
0000
0000
0001
2000
3000
0100
0010
,
0000
0001
0010
0001
0010
0000
0100
0010
,
0000
0100
1000
0000
1001
0000
0010
0100
,
0000
0010
0100
0001
1001
1001
0000
0000
,
0000
0010
0001
0010
0020
0000
0000
0100
,
0030
0000
1000
0010
2000
0000
0010
0010
,
0000
0000
3001
0010
0100
0010
0001
1000
,
0000
0010
0100
0001
0200
0000
0001
0001
,
0300
0000
0001
1000
2200
0000
3300
0010
,
0000
0001
0100
0000
0010
0000
0100
0001
,
0000
0001
1000
0000
1000
0000
0101
0000
,
0001
0000
1001
0001
0100
0000
0110
0000
,
0010
1000
0001
1000
0002
0000
0000
0000
,
0000
0000
0003
0000
;

//---------------dance-single - ----------------
#NOTEDATA:;
#CHARTNAME:;
#STEPSTYPE:dance-single;
#DESCRIPTION:;
#CHARTSTYLE:;
#DIFFICULTY:Hard;
#METER:14;
#RADARVALUES:0.647679,0.674665,0.327837,0.183909,0.351826,567.000000,526.000000,41.000000,23.000000,0.000000,0.000000,0.000000,0.000000,0.000000,0.647679,0.674665,0.327837,0.183909,0.351826,567.000000,526.000000,41.000000,23.000000,0.000000,0.000000,0.000000,0.000000,0.000000;
#CREDIT:;
#NOTES:
// measure 0
0000
0000
0000
0000
,  // measure 1
0000
0000
0000
0000
,  // measure 2
0000
0000
0000
0000
1000
0000
0010
0100
,  // measure 3
0000
0000
0010
0000
0100
0000
0000
0000
1000
0001
1000
0000
0100
0010
0100
0000
,  // measure 4
1000
0001
1000
0001
0010
0000
0110
0000
0102
0000
0000
0000
0103
0000
0010
0000
,  // measure 5
0000
0010
0100
0000
0012
0000
1003
0001
,  // measure 6
0100
0001
1000
0000
2000
0000
3001
0100
,  // measure 7
0000
0001
0100
0010
2000
0000
3001
0010
,  // measure 8
0100
1000
0110
0001
2001
0000
3001
0010
,  // measure 9
0000
0100
0001
0000
2000
0000
3100
0001
,  // measure 10
0000
0000
0010
0000
0001
0010
0001
0000
0010
0000
0001
0000
0101
0000
1000
0000
,  // measure 11
0110
0010
1000
0010
0200
0000
0001
0000
,  // measure 12
0310
0100
0000
0010
0100
0000
0010
0000
1010
0000
0000
0000
0001
0000
0010
0000
,  // measure 13
0100
1000
0100
0010
0100
0000
1000
0100
,  // measure 14
0010
0001
0010
0100
0010
0000
0001
0010
,  // measure 15
0000
0100
0001
1000
0100
0000
0001
0001
,  // measure 16
1000
0001
1000
0001
1000
0000
0001
0100
,  // measure 17
0000
0000
0100
0000
0001
0000
1000
0000
0010
0000
1000
0000
0001
0000
0010
0001
,  // measure 18
0000
0001
0010
0000
0100
0000
1000
0001
1000
0000
0000
0000
0001
0000
0100
0001
,  // measure 19
0000
0001
1000
0000
0010
0100
0001
0000
0100
0000
0010
0000
0200
0000
0001
0000
,  // measure 20
0301
0000
1000
0001
1000
0000
0010
0000
1001
0000
1000
0000
0100
0000
0010
0000
,  // measure 21
0001
0100
0001
1000
1010
0001
0100
0010
,  // measure 22
1000
0000
0100
0010
0100
0000
0010
0000
0001
0000
1000
0000
0100
0000
0102
0000
,  // measure 23
0003
0000
1000
0000
0001
0000
0001
0000
1000
0000
0000
0000
0101
0000
0010
0100
,  // measure 24
0000
0100
0010
0000
1000
0000
0100
0000
0110
0000
0000
0000
0010
0000
0001
0100
,  // measure 25
0000
0001
0100
0000
0001
0000
0010
0000
0100
0000
0010
0000
0001
0000
1000
0000
,  // measure 26
0000
0000
1000
0000
0100
0000
1000
0000
0010
0100
0010
0000
1000
0000
0010
0100
,  // measure 27
0000
0001
1000
0000
0010
0100
0010
0000
0001
0000
0010
0000
0100
0010
0000
0100
,  // measure 28
0010
0100
0010
0000
1000
0000
0100
0000
1100
0000
0000
0000
0010
0000
0001
0000
,  // measure 29
1000
0100
1000
0001
0100
0010
1001
0001
,  // measure 30
1001
0000
0010
1000
0010
0000
0100
0000
1001
0000
0000
0000
0100
0000
0001
0000
,  // measure 31
0000
1001
1001
0010
0100
0010
0100
0020
,  // measure 32
0030
1100
1100
0001
0010
0100
1000
0010
,  // measure 33
0100
0001
1000
0010
0110
0010
1001
1000
,  // measure 34
1100
0001
0011
1000
0001
0100
0001
0010
,  // measure 35
0000
0000
0010
0000
0100
0000
0000
0000
1000
0100
1000
0100
1000
0100
0010
0100
,  // measure 36
0010
0100
0010
0001
0010
0000
0001
0000
0020
0000
0030
0000
0001
0000
2000
0000
,  // measure 37
3000
0000
1000
0000
0002
0000
0003
0000
0001
0010
0001
0010
0001
0010
0100
0010
,  // measure 38
0100
0010
0100
1000
0100
0000
0000
0000
2000
0000
0000
0000
3001
0000
0010
0000
,  // measure 39
1000
0000
0000
0000
1000
0000
0010
0000
0002
0000
0003
0000
0010
0001
0010
0000
,  // measure 40
0001
1000
0001
0000
0100
0000
0100
0000
0101
0000
0000
0000
0010
1000
0010
0000
,  // measure 41
1000
0100
1000
0100
1000
0000
0001
0000
0100
0000
0010
0100
0010
0100
0010
0000
,  // measure 42
1000
0001
0100
0000
0001
1000
0100
0000
1000
0000
0100
0000
0100
0000
1000
0100
,  // measure 43
1000
0000
0001
0010
0001
0010
0001
0000
0100
0000
0001
0010
0100
0000
0010
0001
,  // measure 44
0100
0000
0001
0010
0100
0000
0010
0001
1000
0000
0001
0000
0010
0100
1000
0000
,  // measure 45
1000
0100
1000
0100
0010
0000
0001
0000
0100
0000
0010
0100
0010
0100
0001
0000
,  // measure 46
0000
0000
1000
0010
0100
0010
0100
0000
0010
0000
1000
0000
1000
0100
1000
0100
,  // measure 47
0010
0000
0001
0000
0100
0001
0010
0000
0001
0010
0100
1000
0001
0000
0001
0000
,  // measure 48
1000
0100
1000
0000
0010
0100
0010
0000
0101
0000
0000
0000
0001
1000
0001
0000
,  // measure 49
0100
0010
1000
0000
0001
0100
0001
0100
0001
0000
0000
0000
1000
0100
0010
0000
,  // measure 50
0100
0010
0001
0000
0100
0001
0010
0001
0200
0000
0300
0000
0100
0000
0101
0000
,  // measure 51
0000
0000
1000
0000
0001
0010
0001
0000
1000
0000
0100
0000
0010
0000
1000
0000
,  // measure 52
0010
0001
1000
0100
0010
0000
0010
0001
,  // measure 53
0000
0000
1000
0000
0001
0000
1000
0010
1000
0000
0001
0010
0001
0000
0010
0000
,  // measure 54
0001
0011
0011
0000
1001
0000
0100
0010
,  // measure 55
0100
0001
0100
0000
0010
0100
0010
0000
0100
0000
0000
0000
0001
0000
0011
0000
,  // measure 56
0000
0010
0100
0000
1000
0000
0100
1000
0100
0000
0010
0000
0011
0000
0001
0000
,  // measure 57
0001
0010
0100
1000
1001
1001
1001
0000
,  // measure 58
0000
0010
0100
0010
0020
0000
0130
0100
,  // measure 59
0000
0010
1000
0010
2010
0000
3010
0010
,  // measure 60
0000
0100
0001
0010
0002
0000
1003
1000
,  // measure 61
0000
0010
0100
0001
0201
0000
0301
0001
,  // measure 62
1000
0000
1000
0000
0001
0010
0001
0000
0020
0000
0000
0000
0031
0000
0010
0000
,  // measure 63
0000
0001
0100
0010
0200
0000
0301
0001
,  // measure 64
0000
0000
1000
0000
0001
1000
0010
0000
1000
0000
0100
0000
0110
0000
0010
0000
,  // measure 65
0001
1000
1001
1000
0100
0010
0011
0001
,  // measure 66
0010
0100
0010
0100
0010
0000
0001
0000
0200
0000
0000
0000
0000
0000
0000
0000
,  // measure 67
0000
0000
0300
0000
;
