#VERSION:0.83;
#TITLE:Minty;
#SUBTITLE:;
#ARTIST:Manami Fujino;
#TITLETRANSLIT:;
#SUBTITLETRANSLIT:;
#ARTISTTRANSLIT:;
#GENRE:;
#ORIGIN:;
#CREDIT:from pop n music 20;
#BANNER:20140805023651!20_SENTIMENTAL.png;
#BACKGROUND:;
#PREVIEWVID:;
#JACKET:;
#CDIMAGE:;
#DISCIMAGE:;
#LYRICSPATH:;
#CDTITLE:;
#MUSIC:Minty.ogg;
#OFFSET:-0.405000;
#SAMPLESTART:46.504002;
#SAMPLELENGTH:21.900000;
#SELECTABLE:YES;
#DISPLAYBPM:127.000000:129.000000;
#BPMS:0.000=127.524,
134.000=129.023,
204.000=127.514,
204.250=127.524;
#STOPS:;
#DELAYS:;
#WARPS:;
#TIMESIGNATURES:0.000=4=4;
#TICKCOUNTS:0.000=4;
#COMBOS:0.000=1;
#SPEEDS:0.000=1.000=0.000=0;
#SCROLLS:0.000=1.000;
#FAKES:;
#LABELS:0.000=Song Start;
#BGCHANGES:;
#KEYSOUNDS:;
#ATTACKS:
;

//---------------dance-single - ----------------
#NOTEDATA:;
#CHARTNAME:;
#STEPSTYPE:dance-single;
#DESCRIPTION:;
#CHARTSTYLE:;
#DIFFICULTY:Beginner;
#METER:2;
#RADARVALUES:0.093539,0.103743,0.008504,0.042518,0.000000,77.000000,76.000000,1.000000,5.000000,0.000000,0.000000,0.000000,0.000000,0.000000,0.093539,0.103743,0.008504,0.042518,0.000000,77.000000,76.000000,1.000000,5.000000,0.000000,0.000000,0.000000,0.000000,0.000000;
#CREDIT:;
#DISPLAYBPM:127.000000:129.000000;
#NOTES:
0000
0000
0000
0000
,
0000
0000
0000
0000
,
0000
0000
0000
0000
,
0000
0000
0000
0000
,
0000
0000
0001
0000
,
0000
1000
0000
0000
,
0001
0000
0100
0000
,
0010
0000
2000
0000
,
3000
0000
0001
0000
,
0001
0000
1000
0000
,
0000
0000
1000
0000
,
1000
0000
0001
0000
,
0000
0000
0001
0000
,
0010
0000
0010
0000
,
0000
0000
1000
0000
,
0100
0000
0100
0000
,
0000
0000
0001
0000
,
0100
0000
0100
0000
,
0000
0000
1000
0000
,
0010
0000
0010
0000
,
0000
0000
0001
0000
,
1000
0000
1000
0000
,
0000
0000
0010
0000
,
0100
0000
0100
0000
,
0000
0000
0001
0000
,
0000
0000
1000
0000
,
0000
0000
0001
0000
,
0010
0000
0010
0000
,
0000
0000
1000
0000
,
0100
0000
0100
0000
,
0000
0000
0010
0000
,
0010
0000
0001
0000
,
0000
0000
0010
0000
,
1000
0000
1000
0000
,
0000
0000
0100
0000
,
0001
0000
0001
0000
,
0000
0000
1000
0000
,
0000
0000
0001
0000
,
0000
0000
2000
0000
,
3000
0000
0002
0000
,
0003
0000
0100
0000
,
0000
0000
0010
0000
,
0000
0000
0100
0000
,
0000
0000
0010
0000
,
0000
0000
1000
0000
,
0000
0000
0001
0000
,
0000
0000
1001
0000
,
0000
0000
1000
0000
,
0000
0000
0100
0000
,
0000
0000
0010
0000
,
0000
0000
0001
0000
,
0000
0000
1000
0000
,
0010
0000
0010
0000
,
0000
0000
0001
0000
,
0100
0000
0100
0000
,
0000
0000
0010
0000
,
0100
0000
0100
0000
,
0000
0000
1000
0000
,
0001
0000
0001
0000
,
0000
0000
2000
0000
,
3000
0000
0020
0000
,
0030
0000
0000
0000
;

//---------------dance-single - ----------------
#NOTEDATA:;
#CHARTNAME:;
#STEPSTYPE:dance-single;
#DESCRIPTION:;
#CHARTSTYLE:;
#DIFFICULTY:Easy;
#METER:6;
#RADARVALUES:0.249032,0.312505,0.280617,0.212589,0.000000,205.000000,172.000000,33.000000,25.000000,0.000000,0.000000,0.000000,0.000000,0.000000,0.249032,0.312505,0.280617,0.212589,0.000000,205.000000,172.000000,33.000000,25.000000,0.000000,0.000000,0.000000,0.000000,0.000000;
#CREDIT:;
#DISPLAYBPM:127.000000:129.000000;
#NOTES:
0000
0000
0000
0000
,
0000
0000
0000
0000
,
0000
0000
0000
0000
,
0000
0000
0000
0000
,
0000
0000
1001
0110
,
0000
0110
0000
1001
0000
0000
0000
0000
,
0001
0000
0100
0000
0101
0000
0000
0120
,
0000
0000
0000
2030
0000
0000
0000
3000
,
0001
0000
0001
0100
,
0010
0000
1000
0100
1000
0000
0000
0000
,
0001
0000
1000
0001
,
0100
0000
0010
1000
0010
0000
0000
0000
,
0100
0000
0010
1000
,
0100
0000
0010
0001
0010
0000
0000
0000
,
0001
0000
1000
0100
,
0100
0010
0010
0001
,
0000
0000
1001
1000
,
0100
0000
0010
0001
1000
0000
0000
0000
,
0001
0000
1000
0010
,
0100
0000
0001
0010
0001
0000
0000
0000
,
1001
0000
0101
0001
,
0010
0000
0100
1000
0100
0000
0000
0000
,
1000
0000
0010
0100
,
0100
0010
0010
0200
,
0000
0000
0300
0000
0101
0000
0000
0110
,
0000
0000
1000
0001
,
0100
0001
0100
0000
0001
0000
0011
0000
,
0100
1100
0010
0001
,
0100
0000
0000
0000
0011
0000
0000
0101
,
0000
0000
0001
1000
,
0110
0001
1100
0010
,
0100
0001
2010
0000
,
3002
0000
0000
0003
0201
0000
0000
0000
,
0320
0000
0000
0030
1001
0000
0000
0000
,
1000
0000
0010
0100
0020
0000
0030
0000
,
0100
0001
0100
0000
0001
0000
0000
0000
,
1000
0010
1000
0100
,
0101
1000
0101
0000
,
0020
0000
2030
0000
,
3020
0000
0032
0000
,
0023
0000
0230
0000
,
0300
0000
0010
0100
,
0001
0000
1000
0100
1000
0000
0001
0000
,
0100
0010
0100
0000
0001
0000
0000
0000
,
1000
0010
1000
0001
,
1010
0100
1010
0000
,
0002
0000
2003
0000
,
3200
0000
2300
0000
,
3002
0000
0103
0000
,
0110
0000
0010
0010
,
0100
0001
0100
0000
,
0010
0000
1000
1001
,
0000
0001
0000
1001
0000
0000
0000
0000
,
0100
0000
0010
0000
0110
0000
0000
0012
,
0000
0003
0200
0000
,
0000
0000
0000
0300
0010
0000
0110
0000
,
0000
1000
0000
1010
0000
0000
0000
0000
,
0010
0000
0100
0000
1010
0000
0000
0201
,
0000
0000
0000
0302
0000
0000
0000
0003
,
0010
0000
2000
0100
,
0100
3020
0100
0130
,
0001
0001
0000
0000
;

//---------------dance-single - ----------------
#NOTEDATA:;
#CHARTNAME:;
#STEPSTYPE:dance-single;
#DESCRIPTION:;
#CHARTSTYLE:;
#DIFFICULTY:Medium;
#METER:9;
#RADARVALUES:0.368082,0.390632,0.178574,0.297624,0.072280,303.000000,282.000000,21.000000,35.000000,0.000000,0.000000,0.000000,0.000000,0.000000,0.368082,0.390632,0.178574,0.297624,0.072280,303.000000,282.000000,21.000000,35.000000,0.000000,0.000000,0.000000,0.000000,0.000000;
#CREDIT:;
#DISPLAYBPM:127.000000:129.000000;
#NOTES:
0000
0000
0000
0000
,
0000
0000
0000
0000
,
0000
0000
0000
0000
,
0000
0000
0000
0000
,
0000
0000
1001
0110
,
0000
0110
0000
2002
0000
0000
3003
0000
,
0001
0100
0010
1000
0020
0000
0030
0200
,
0000
0300
0001
1000
0002
0000
1003
0000
,
0001
0000
0101
0000
0001
1000
0100
0010
,
0001
0000
1000
0100
1000
0000
0001
0020
,
0000
0030
0001
0000
1000
0100
0001
0100
,
1000
0100
0010
0001
0001
0000
1000
0020
,
0000
0030
1000
0000
0010
0100
0001
0100
,
0001
0010
0100
1000
0100
0000
0010
0002
,
0000
0003
0010
0200
0300
0000
0100
2000
,
3000
0001
0010
0001
0000
0000
1000
0020
,
0000
0030
0000
0000
1001
0001
0100
0001
,
0010
0001
1000
0100
1000
0000
0001
0200
,
0000
0300
0001
0000
1000
0010
0100
0001
,
1000
0100
0010
0001
1000
0000
0001
2000
,
0000
3000
0001
0000
0100
0010
0100
0001
,
0010
0010
0100
1000
0001
0000
0100
0020
,
0000
0030
0000
0100
0000
0010
0100
0010
,
0000
1000
0100
2000
0000
3000
0001
0020
,
0000
0000
0030
0000
0000
0000
0000
0000
0011
0000
0000
0000
0001
0000
0000
1000
,
0000
0000
0000
0000
1100
0000
0000
0000
1010
0000
0000
0000
0100
0000
0000
0010
,
0000
0100
0001
0001
0100
0000
0001
0000
,
1000
0100
0010
0100
0000
0010
0001
0020
,
0000
0000
0030
0000
0000
0000
0000
0000
1100
0000
0000
0000
1000
0000
0000
0001
,
0000
0000
0100
0010
0200
0300
0020
0030
,
1000
0001
1000
0001
0100
0000
0010
0100
,
0000
0000
0001
0010
1000
0000
0010
0000
,
0001
0010
0100
0000
1000
0010
0100
0000
,
0002
0000
1003
0010
,
1000
0000
0010
0100
0000
0100
0001
1000
,
0010
0100
0001
0000
0101
0000
0010
0100
,
1000
0000
0000
0100
0000
0000
0010
0000
0001
0000
0000
0100
0000
0000
0010
0000
,
1000
0000
0000
0000
0010
0000
0000
0000
0110
0000
0000
1000
0000
0000
0001
0000
,
0010
0000
0000
0001
0000
0000
1000
0000
0200
0000
0000
0000
0300
0000
0000
0000
,
0010
0000
0000
0000
0001
0000
0010
0000
0100
0000
0000
1000
0000
0000
0010
0000
,
0100
0000
0000
0010
0000
0000
0100
0000
0002
0000
0000
0000
0000
0000
0000
0000
,
2003
0000
3010
0100
,
0001
0000
1000
0100
0000
0100
1000
0010
,
0100
0010
0100
0000
0001
0000
1000
0010
,
1000
0000
0000
0001
0000
0000
0100
0000
0010
0000
0000
0100
0000
0000
0001
0000
,
1000
0000
0000
0000
0010
0000
0000
0000
0110
0000
0000
0010
0000
0000
0100
0000
,
0001
0000
0000
1000
0000
0000
0010
0000
2000
0000
0000
0000
3001
0000
0000
0000
,
0100
0000
0010
0000
0100
0000
0000
0000
0001
0000
0000
0100
0000
0000
0001
0000
,
1000
0000
0000
0001
0000
0000
0100
0000
0000
0000
0000
0000
0000
0000
0000
0000
,
0100
0010
0000
0010
1000
0000
0001
0100
,
0001
0000
0000
0000
1000
0000
0010
0000
1000
0000
0000
0010
0000
0000
0100
0000
,
0020
0030
1000
1100
,
0000
0010
0000
0022
0000
0000
0033
0000
,
0100
0010
0100
0001
2000
0000
3000
0020
,
0000
0130
0010
0000
0200
0000
0010
0000
,
0310
0101
0010
1010
,
0000
1000
0000
0202
0000
0000
0303
0000
,
0010
1000
0010
0001
0020
0000
0030
2000
,
0000
0000
3001
1000
0020
0000
0130
0000
,
0010
0000
0110
0000
1000
0100
0010
0001
,
0100
0000
0000
0000
0010
0000
0000
0000
0110
0000
0000
0100
0000
0000
0010
0000
,
0010
1010
0000
0000
;

//---------------dance-single - ----------------
#NOTEDATA:;
#CHARTNAME:;
#STEPSTYPE:dance-single;
#DESCRIPTION:;
#CHARTSTYLE:;
#DIFFICULTY:Hard;
#METER:13;
#RADARVALUES:0.570952,0.546884,0.136057,0.212589,0.365652,470.000000,454.000000,16.000000,25.000000,0.000000,0.000000,0.000000,0.000000,0.000000,0.570952,0.546884,0.136057,0.212589,0.365652,470.000000,454.000000,16.000000,25.000000,0.000000,0.000000,0.000000,0.000000,0.000000;
#CREDIT:;
#DISPLAYBPM:127.000000:129.000000;
#NOTES:
// measure 0
0000
0000
0000
0000
,  // measure 1
0000
0000
0000
0000
,  // measure 2
0000
0000
0000
0000
,  // measure 3
0000
0000
0000
0000
,  // measure 4
0000
0000
1001
0110
,  // measure 5
0000
0000
0110
0000
0000
0000
2002
0000
0000
0000
0000
0000
3003
0000
0001
0100
,  // measure 6
0001
0000
0100
0000
0010
0000
1000
0100
0020
0000
0000
0000
0031
0000
0010
0100
,  // measure 7
2000
0000
0000
0000
3010
0000
1000
0100
0020
0000
0000
0001
0030
0000
0001
0000
,  // measure 8
1000
0000
0000
0000
0110
0000
0100
0010
0100
0000
0001
0000
0010
0000
0100
0000
,  // measure 9
1000
0000
0010
0000
1000
0000
0100
0000
0010
0000
0001
0000
1000
0000
0010
0100
,  // measure 10
0001
0000
1000
0000
0100
0000
0010
0000
0011
0000
0100
0000
0010
0100
0010
0000
,  // measure 11
1000
0000
0100
0000
0010
0000
0001
0000
0100
0000
0010
0000
1000
0000
0001
1000
,  // measure 12
0001
1000
0100
0000
0011
0001
0100
1000
,  // measure 13
0100
0000
0001
0000
0010
0000
0100
0000
1000
0000
0000
0000
0001
0000
0100
0010
,  // measure 14
1000
0000
0010
0000
0100
0000
0001
0000
1000
0000
0000
0000
0100
0000
1000
0100
,  // measure 15
1000
0000
0001
0000
0010
0000
0001
0000
0010
0000
0000
0000
0010
0000
0100
0010
,  // measure 16
0100
0000
1000
0001
1001
1000
0010
0100
,  // measure 17
0010
0000
0001
0000
0010
0000
0100
0000
0002
0000
0003
0000
1000
0000
0010
0100
,  // measure 18
0010
0100
0001
1000
1100
0010
0001
1000
,  // measure 19
0100
0000
0010
0000
0001
0000
1000
0000
0002
0000
0003
0000
1000
0000
0010
0100
,  // measure 20
0001
1000
0100
0010
0100
0010
0001
1000
,  // measure 21
0010
0000
0100
0000
0001
0000
1000
0000
0002
0000
0003
0000
0100
0000
0001
0100
,  // measure 22
0001
0000
0000
0000
1000
0000
0010
0000
0100
0000
0010
0000
0100
0000
0010
0100
,  // measure 23
0010
0000
1000
0000
0001
1000
0001
0000
0100
0000
0010
0000
0100
0010
0100
0000
,  // measure 24
0001
0000
0010
0000
0001
0100
0001
0000
0010
0000
0001
0000
0100
0000
0010
1000
,  // measure 25
0000
0010
0100
0000
0010
0000
0100
0000
0110
0000
0000
0000
0010
0000
1000
0001
,  // measure 26
0000
0000
0100
0000
0010
0000
1000
0000
0001
0000
0010
0000
0001
0000
1000
0100
,  // measure 27
1000
0100
0001
0200
0000
0310
0001
0020
,  // measure 28
0031
0000
1000
0000
0100
1000
0010
0000
1010
0000
0100
0000
0010
0000
0100
0010
,  // measure 29
0000
1000
0010
0000
0100
0000
0010
0100
0002
0000
0003
0000
2000
0000
3010
0000
,  // measure 30
1000
0100
1000
0000
0001
0000
0010
0000
0001
0100
0000
0010
1000
0000
0100
0010
,  // measure 31
0100
0010
0100
0000
0010
0000
0001
0100
0020
0000
0030
0200
0000
0300
0001
0000
,  // measure 32
1000
0000
0010
0000
0100
0000
0010
1000
0010
0000
0100
0000
0001
0000
0100
0001
,  // measure 33
0100
0010
0010
0010
1000
0100
1000
0000
,  // measure 34
0001
0100
0000
0100
0001
0000
0200
0000
0000
0000
0310
0000
1000
0000
0001
0000
,  // measure 35
0010
0100
0010
0001
1000
0000
0010
0100
,  // measure 36
0010
0000
0000
0100
0000
0000
0010
0000
1000
0000
0100
0000
0000
0000
0010
0000
,  // measure 37
0001
0000
0000
0000
0000
0000
0000
0000
0100
0000
0000
0000
0000
0000
0000
0000
0010
0000
0000
0000
0000
0000
0000
0000
0110
0000
0000
0000
0000
0000
0000
0000
0000
1000
0000
0000
0000
0000
0000
0000
0000
0000
0001
0000
0000
0000
0000
0000
,  // measure 38
0010
0000
0001
1000
0000
0001
1000
0000
0200
0000
0000
0010
0300
0000
0001
0000
,  // measure 39
0010
0001
0010
0000
0001
0000
1000
0100
1000
0000
0010
1000
0000
0000
0010
0000
,  // measure 40
0100
0000
0010
0100
0000
0010
0100
0000
0002
0000
0000
0000
1000
0000
0000
0000
,  // measure 41
1003
0100
1000
0100
0010
0000
0001
0000
,  // measure 42
0100
0001
0000
0001
0010
0000
0100
0000
0000
0000
0100
0000
1000
0000
0010
0000
,  // measure 43
0100
0010
0100
0000
0001
0000
0000
0000
1000
0000
1000
0000
0001
0000
0010
0001
,  // measure 44
0100
0000
0000
0001
0000
0000
0100
0000
0010
0000
0100
0000
0000
0000
0010
0100
,  // measure 45
0010
0000
0000
0000
0000
0000
0000
0000
1000
0000
0000
0000
0000
0000
0000
0000
0010
0000
0000
0000
0000
0000
0000
0000
0110
0000
0000
0000
0000
0000
0000
0000
0000
0010
0000
0000
0000
0000
0000
0000
0000
0000
0100
0000
0000
0000
0000
0000
,  // measure 46
0001
1000
0000
1000
0001
0000
0010
0000
0100
0000
0010
0000
0001
0000
1000
0100
,  // measure 47
1000
0000
0010
0000
0100
0000
0001
0000
0100
0000
0001
0100
0000
0010
1000
0000
,  // measure 48
0100
0000
0000
0010
0000
0000
0001
0000
1000
0000
0000
0000
0001
0100
0010
0000
,  // measure 49
0100
0010
0100
0000
0000
0000
0010
0000
1000
0000
1000
0000
0100
0000
1000
0000
,  // measure 50
0100
0000
0010
0000
0001
0000
0000
0000
1000
0000
0000
1010
0000
0000
0100
0000
,  // measure 51
0101
0000
0000
0000
0001
1000
0001
1000
0001
0000
0000
0000
1000
0000
0010
0100
,  // measure 52
0001
0000
2000
0000
0000
0000
3002
0000
0000
0000
0000
0000
0103
0000
0010
1000
,  // measure 53
0010
0000
0100
0001
0100
0000
0001
0000
1000
0000
0010
0000
0001
0000
0010
0000
,  // measure 54
1000
0000
0001
0000
0100
0000
0010
0100
0020
0000
0030
0000
0100
0000
0010
0000
,  // measure 55
0100
0010
0100
0010
0100
0001
0100
0001
0100
0000
0000
0000
1000
0000
0010
1000
,  // measure 56
0010
0000
2000
0000
0000
0000
3002
0000
0000
0000
0003
0000
1000
0000
0010
0100
,  // measure 57
0001
0000
1000
0010
1000
0000
0001
0000
0100
0000
0010
0000
1000
0000
0100
0000
,  // measure 58
0001
0000
0100
0000
1000
0000
0010
0000
0200
0000
0300
0020
0000
0030
0200
0000
,  // measure 59
0310
0000
0000
0000
0110
0000
0000
0000
0001
0000
0100
0000
0010
0000
0100
0010
,  // measure 60
0100
0000
0001
0000
0010
0000
0001
0010
0001
0000
0000
0100
0000
0000
0010
0000
,  // measure 61
0100
0000
0001
0010
0100
0000
0000
0000
0000
0000
0000
0000
0000
0000
0000
0000
;
